   0
SECTION
   2
HEADER
   9
$ACADVER
   1
AC1015
   9
$DWGCODEPAGE
   3
ANSI_932
   9
$LIMMIN
  10
-210.00000000000
  20
-148.50000000000
   9
$LIMMAX
  10
 1890.0000000000
  20
 2821.5000000000
   9
$EXTMIN
  10
-210.00000000000
  20
-148.50000000000
  30
0.0
   9
$EXTMAX
  10
 1890.0000000000
  20
 2821.5000000000
  30
0.0
   9
$LTSCALE
  40
 59.400000000000
   9
$HANDSEED
   5
3CE
   0
ENDSEC
   0
SECTION
   2
TABLES
  0
TABLE
  2
VPORT
  5
8
100
AcDbSymbolTable
 70
     1
  0
VPORT
  5
3CD
100
AcDbSymbolTableRecord
100
AcDbViewportTableRecord
  2
*ACTIVE
 70
     0
 10
0.0
 20
0.0
 11
1.0
 21
1.0
  12
 840.00000000000
  22
 1336.5000000000
 13
0.0
 23
0.0
 14
1.0
 24
1.0
 15
0.0
 25
0.0
 16
0.0
 26
0.0
 36
1.0
 17
0.0
 27
0.0
 37
0.0
  40
 2970.0000000000
  41
 1.4787878787879
 42
50.0
 43
0.0
 44
0.0
 50
0.0
 51
0.0
 71
     0
 72
   100
 73
     1
 74
     1
 75
     0
 76
     0
 77
     0
 78
     0
  0
ENDTAB
  0
TABLE
  2
LTYPE
  5
5
100
AcDbSymbolTable
 70
    25
  0
LTYPE
  5
12
100
AcDbSymbolTableRecord
100
AcDbLinetypeTableRecord
  2
BYBLOCK
 70
     0
  3

 72
    65
 73
     0
 40
0.0
  0
LTYPE
  5
13
100
AcDbSymbolTableRecord
100
AcDbLinetypeTableRecord
  2
BYLAYER
 70
     0
  3

 72
    65
 73
     0
 40
0.0
  0
LTYPE
  5
14
100
AcDbSymbolTableRecord
100
AcDbLinetypeTableRecord
  2
CONTINUOUS
 70
     0
  3
Solid line
 72
    65
 73
     0
 40
0.0
  0
LTYPE
  5
20
100
AcDbSymbolTableRecord
100
AcDbLinetypeTableRecord
  2
BORDER
 70
     0
  3
__ __ . __ __ . __ __ . __ __ . __ __ . __ __ .
 72
    65
 73
     6
 40
1.75
 49
0.5
 74
     0
 49
-0.25
 74
     0
 49
0.5
 74
     0
 49
-0.25
 74
     0
 49
0.0
 74
     0
 49
-0.25
 74
     0
  0
LTYPE
  5
21
100
AcDbSymbolTableRecord
100
AcDbLinetypeTableRecord
  2
BORDER2
 70
     0
  3
__.__.__.__.__.__.__.__.__.__.__.__.__.__.__.__
 72
    65
 73
     6
 40
0.875
 49
0.25
 74
     0
 49
-0.125
 74
     0
 49
0.25
 74
     0
 49
-0.125
 74
     0
 49
0.0
 74
     0
 49
-0.125
 74
     0
  0
LTYPE
  5
22
100
AcDbSymbolTableRecord
100
AcDbLinetypeTableRecord
  2
BORDERX2
 70
     0
  3
____  ____  .  ____  ____  .  ____  ____  .  __
 72
    65
 73
     6
 40
3.5
 49
1.0
 74
     0
 49
-0.5
 74
     0
 49
1.0
 74
     0
 49
-0.5
 74
     0
 49
0.0
 74
     0
 49
-0.5
 74
     0
  0
LTYPE
  5
23
100
AcDbSymbolTableRecord
100
AcDbLinetypeTableRecord
  2
CENTER
 70
     0
  3
____ _ ____ _ ____ _ ____ _ ____ _ ____ _ ____ 
 72
    65
 73
     4
 40
2.0
 49
1.25
 74
     0
 49
-0.25
 74
     0
 49
0.25
 74
     0
 49
-0.25
 74
     0
  0
LTYPE
  5
24
100
AcDbSymbolTableRecord
100
AcDbLinetypeTableRecord
  2
CENTER2
 70
     0
  3
___ _ ___ _ ___ _ ___ _ ___ _ ___ _ ___ _ ___ _
 72
    65
 73
     4
 40
1.125
 49
0.75
 74
     0
 49
-0.125
 74
     0
 49
0.125
 74
     0
 49
-0.125
 74
     0
  0
LTYPE
  5
25
100
AcDbSymbolTableRecord
100
AcDbLinetypeTableRecord
  2
CENTERX2
 70
     0
  3
________  __  ________  __  ________  __  _____
 72
    65
 73
     4
 40
4.0
 49
2.5
 74
     0
 49
-0.5
 74
     0
 49
0.5
 74
     0
 49
-0.5
 74
     0
  0
LTYPE
  5
26
100
AcDbSymbolTableRecord
100
AcDbLinetypeTableRecord
  2
DASHDOT
 70
     0
  3
__ . __ . __ . __ . __ . __ . __ . __ . __ . __
 72
    65
 73
     4
 40
1.0
 49
0.5
 74
     0
 49
-0.25
 74
     0
 49
0.0
 74
     0
 49
-0.25
 74
     0
  0
LTYPE
  5
27
100
AcDbSymbolTableRecord
100
AcDbLinetypeTableRecord
  2
DASHDOT2
 70
     0
  3
_._._._._._._._._._._._._._._._._._._._._._._._
 72
    65
 73
     4
 40
0.5
 49
0.25
 74
     0
 49
-0.125
 74
     0
 49
0.0
 74
     0
 49
-0.125
 74
     0
  0
LTYPE
  5
28
100
AcDbSymbolTableRecord
100
AcDbLinetypeTableRecord
  2
DASHDOTX2
 70
     0
  3
____  .  ____  .  ____  .  ____  .  ____  .  __
 72
    65
 73
     4
 40
2.0
 49
1.0
 74
     0
 49
-0.5
 74
     0
 49
0.0
 74
     0
 49
-0.5
 74
     0
  0
LTYPE
  5
29
100
AcDbSymbolTableRecord
100
AcDbLinetypeTableRecord
  2
DASHED
 70
     0
  3
__ __ __ __ __ __ __ __ __ __ __ __ __ __ __ __
 72
    65
 73
     2
 40
0.75
 49
0.5
 74
     0
 49
-0.25
 74
     0
  0
LTYPE
  5
2A
100
AcDbSymbolTableRecord
100
AcDbLinetypeTableRecord
  2
DASHED2
 70
     0
  3
_ _ _ _ _ _ _ _ _ _ _ _ _ _ _ _ _ _ _ _ _ _ _ _
 72
    65
 73
     2
 40
0.375
 49
0.25
 74
     0
 49
-0.125
 74
     0
  0
LTYPE
  5
2B
100
AcDbSymbolTableRecord
100
AcDbLinetypeTableRecord
  2
DASHEDX2
 70
     0
  3
____  ____  ____  ____  ____  ____  ____  ____ 
 72
    65
 73
     2
 40
1.5
 49
1.0
 74
     0
 49
-0.5
 74
     0
  0
LTYPE
  5
2C
100
AcDbSymbolTableRecord
100
AcDbLinetypeTableRecord
  2
DIVIDE
 70
     0
  3
____ . . ____ . . ____ . . ____ . . ____ . . __
 72
    65
 73
     6
 40
1.25
 49
0.5
 74
     0
 49
-0.25
 74
     0
 49
0.0
 74
     0
 49
-0.25
 74
     0
 49
0.0
 74
     0
 49
-0.25
 74
     0
  0
LTYPE
  5
2D
100
AcDbSymbolTableRecord
100
AcDbLinetypeTableRecord
  2
DIVIDE2
 70
     0
  3
__..__..__..__..__..__..__..__..__..__..__..__.
 72
    65
 73
     6
 40
0.625
 49
0.25
 74
     0
 49
-0.125
 74
     0
 49
0.0
 74
     0
 49
-0.125
 74
     0
 49
0.0
 74
     0
 49
-0.125
 74
     0
  0
LTYPE
  5
2E
100
AcDbSymbolTableRecord
100
AcDbLinetypeTableRecord
  2
DIVIDEX2
 70
     0
  3
________  .  .  ________  .  .  ________  .  . 
 72
    65
 73
     6
 40
2.5
 49
1.0
 74
     0
 49
-0.5
 74
     0
 49
0.0
 74
     0
 49
-0.5
 74
     0
 49
0.0
 74
     0
 49
-0.5
 74
     0
  0
LTYPE
  5
2F
100
AcDbSymbolTableRecord
100
AcDbLinetypeTableRecord
  2
DOT
 70
     0
  3
. . . . . . . . . . . . . . . . . . . . . . . .
 72
    65
 73
     2
 40
0.25
 49
0.0
 74
     0
 49
-0.25
 74
     0
  0
LTYPE
  5
30
100
AcDbSymbolTableRecord
100
AcDbLinetypeTableRecord
  2
DOT2
 70
     0
  3
...............................................
 72
    65
 73
     2
 40
0.125
 49
0.0
 74
     0
 49
-0.125
 74
     0
  0
LTYPE
  5
31
100
AcDbSymbolTableRecord
100
AcDbLinetypeTableRecord
  2
DOTX2
 70
     0
  3
.  .  .  .  .  .  .  .  .  .  .  .  .  .  .  . 
 72
    65
 73
     2
 40
0.5
 49
0.0
 74
     0
 49
-0.5
 74
     0
  0
LTYPE
  5
32
100
AcDbSymbolTableRecord
100
AcDbLinetypeTableRecord
  2
HIDDEN
 70
     0
  3
__ __ __ __ __ __ __ __ __ __ __ __ __ __ __ __
 72
    65
 73
     2
 40
0.375
 49
0.25
 74
     0
 49
-0.125
 74
     0
  0
LTYPE
  5
33
100
AcDbSymbolTableRecord
100
AcDbLinetypeTableRecord
  2
HIDDEN2
 70
     0
  3
_ _ _ _ _ _ _ _ _ _ _ _ _ _ _ _ _ _ _ _ _ _ _ _
 72
    65
 73
     2
 40
0.1875
 49
0.125
 74
     0
 49
-0.0625
 74
     0
  0
LTYPE
  5
34
100
AcDbSymbolTableRecord
100
AcDbLinetypeTableRecord
  2
HIDDENX2
 70
     0
  3
____ ____ ____ ____ ____ ____ ____ ____ ____ __
 72
    65
 73
     2
 40
0.75
 49
0.5
 74
     0
 49
-0.25
 74
     0
  0
LTYPE
  5
35
100
AcDbSymbolTableRecord
100
AcDbLinetypeTableRecord
  2
PHANTOM
 70
     0
  3
______  __  __  ______  __  __  ______  __  __ 
 72
    65
 73
     6
 40
2.5
 49
1.25
 74
     0
 49
-0.25
 74
     0
 49
0.25
 74
     0
 49
-0.25
 74
     0
 49
0.25
 74
     0
 49
-0.25
 74
     0
  0
LTYPE
  5
36
100
AcDbSymbolTableRecord
100
AcDbLinetypeTableRecord
  2
PHANTOM2
 70
     0
  3
___ _ _ ___ _ _ ___ _ _ ___ _ _ ___ _ _ ___ _ _
 72
    65
 73
     6
 40
1.25
 49
0.625
 74
     0
 49
-0.125
 74
     0
 49
0.125
 74
     0
 49
-0.125
 74
     0
 49
0.125
 74
     0
 49
-0.125
 74
     0
  0
LTYPE
  5
37
100
AcDbSymbolTableRecord
100
AcDbLinetypeTableRecord
  2
PHANTOMX2
 70
     0
  3
____________    ____    ____    ____________   
 72
    65
 73
     6
 40
5.0
 49
2.5
 74
     0
 49
-0.5
 74
     0
 49
0.5
 74
     0
 49
-0.5
 74
     0
 49
0.5
 74
     0
 49
-0.5
 74
     0
  0
ENDTAB
   0
TABLE
   2
LAYER
   5
2
 100
AcDbSymbolTable
  70
2
   0
LAYER
   5
E
 100
AcDbSymbolTableRecord
 100
AcDbLayerTableRecord
   2
0
  70
0
  62
7
   6
CONTINUOUS
 390
30
   0
LAYER
   5
39
 100
AcDbSymbolTableRecord
 100
AcDbLayerTableRecord
   2
LEVEL001
  70
0
  62
7
   6
CONTINUOUS
 390
30
   0
ENDTAB
  0
TABLE
  2
STYLE
  5
3
100
AcDbSymbolTable
  70
5
  0
STYLE
  5
F
100
AcDbSymbolTableRecord
100
AcDbTextStyleTableRecord
  2
STANDARD
 70
     0
 40
0.0
 41
1.0
 50
0.0
 71
     0
 42
0.2
  3
TXT
  4
BIGFONT
  0
STYLE
  5
38
100
AcDbSymbolTableRecord
100
AcDbTextStyleTableRecord
  2
STANDARD1
 70
     4
 40
0.0
 41
1.0
 50
0.0
 71
     0
 42
0.2
  3
TXT
  4
BIGFONT
   0
STYLE
   5
3A
 100
AcDbSymbolTableRecord
 100
AcDbTextStyleTableRecord
   2
GMM001
  70
4
  40
0.0
  41
 1.0000000000000
  50
0.0
  71
     0
  42
1.0
   3

   4

1001
ACAD
1000
ＭＳ 明朝
1071
32785
   0
STYLE
   5
3B
 100
AcDbSymbolTableRecord
 100
AcDbTextStyleTableRecord
   2
GMM002
  70
0
  40
0.0
  41
 1.0000000000000
  50
0.0
  71
     0
  42
1.0
   3

   4

1001
ACAD
1000
ＭＳ 明朝
1071
32785
   0
STYLE
   5
3C
 100
AcDbSymbolTableRecord
 100
AcDbTextStyleTableRecord
   2
GMM003
  70
0
  40
0.0
  41
 1.0000000000000
  50
0.0
  71
     0
  42
1.0
   3

   4

1001
ACAD
1000
ＭＳ ゴシック
1071
32817
   0
ENDTAB
  0
TABLE
  2
VIEW
  5
6
100
AcDbSymbolTable
 70
     0
  0
ENDTAB
  0
TABLE
  2
UCS
  5
7
100
AcDbSymbolTable
 70
     0
  0
ENDTAB
  0
TABLE
  2
APPID
  5
9
100
AcDbSymbolTable
 70
     1
  0
APPID
  5
10
100
AcDbSymbolTableRecord
100
AcDbRegAppTableRecord
  2
ACAD
 70
     0
  0
ENDTAB
   0
TABLE
   2
DIMSTYLE
   5
A
 100
AcDbSymbolTable
  70
10
 100
AcDbDimStyleTable
  0
DIMSTYLE
105
1D
100
AcDbSymbolTableRecord
100
AcDbDimStyleTableRecord
  2
STANDARD
 70
     0
  3

  4

  5

  6

  7

 40
1.0
 41
0.18
 42
0.0625
 43
0.38
 44
0.18
 45
0.0
 46
0.0
 47
0.0
 48
0.0
140
0.18
141
0.09
142
0.0
143
25.4
144
1.0
145
0.0
146
1.0
147
0.09
 71
     0
 72
     0
 73
     1
 74
     1
 75
     0
 76
     0
 77
     0
 78
     0
170
     0
171
     2
172
     0
173
     0
174
     0
175
     0
176
     0
177
     0
178
     0
270
     2
271
     4
272
     4
273
     2
274
     2
340
F
275
     0
280
     0
281
     0
282
     0
283
     1
284
     0
285
     0
286
     0
287
     3
288
     0
   0
DIMSTYLE
 105
3D
 100
AcDbSymbolTableRecord
 100
AcDbDimStyleTableRecord
   2
GMM001
  70
0
   3
φ<>
   4

   5

   6
_OPEN30
   7
_OPEN30
  40
 1.0000000000000
  41
 20.000000000000
  42
 10.000000000000
  43
 80.000000000000
  44
 15.000000000000
  45
0.0
  46
0.0
  47
0.0
  48
0.0
 140
 25.000000000000
 141
 10.000000000000
 142
0.0
 143
 0.39400000000000E-1
 144
 1.0000000000000
 145
0.0
 146
 1.0000000000000
 147
 10.714285714286
  71
0
  72
0
  73
0
  74
0
  75
0
  76
0
  77
3
  78
8
 170
0
 171
2
 172
1
 173
1
 174
0
 175
0
 176
3
 177
3
 178
7
 270
2
 271
6
 272
0
 273
2
 274
2
 340
3C
 275
0
 280
0
 281
0
 282
0
 283
1
 284
0
 285
0
 286
0
 287
3
 288
0
   0
DIMSTYLE
 105
3E
 100
AcDbSymbolTableRecord
 100
AcDbDimStyleTableRecord
   2
GMM002
  70
0
   3
（<>
   4

   5

   6
_OPEN30
   7
_OPEN30
  40
 1.0000000000000
  41
 20.000000000000
  42
 10.000000000000
  43
 80.000000000000
  44
 15.000000000000
  45
0.0
  46
0.0
  47
0.0
  48
0.0
 140
 25.000000000000
 141
 10.000000000000
 142
0.0
 143
 0.39400000000000E-1
 144
 1.0000000000000
 145
0.0
 146
 1.0000000000000
 147
 10.714285714286
  71
0
  72
0
  73
0
  74
0
  75
0
  76
0
  77
3
  78
8
 170
0
 171
2
 172
1
 173
1
 174
0
 175
0
 176
3
 177
3
 178
7
 270
2
 271
6
 272
0
 273
2
 274
2
 340
3C
 275
0
 280
0
 281
0
 282
0
 283
1
 284
0
 285
0
 286
0
 287
3
 288
0
   0
DIMSTYLE
 105
3F
 100
AcDbSymbolTableRecord
 100
AcDbDimStyleTableRecord
   2
GMM003
  70
0
   3

   4

   5

   6
_OPEN30
   7
_OPEN30
  40
 1.0000000000000
  41
 20.000000000000
  42
 10.000000000000
  43
 80.000000000000
  44
 15.000000000000
  45
0.0
  46
0.0
  47
0.0
  48
0.0
 140
 25.000000000000
 141
 10.000000000000
 142
0.0
 143
 0.39400000000000E-1
 144
 1.0000000000000
 145
0.0
 146
 1.0000000000000
 147
 13.532746572904
  71
0
  72
0
  73
0
  74
0
  75
0
  76
0
  77
3
  78
8
 170
0
 171
2
 172
1
 173
1
 174
0
 175
0
 176
3
 177
3
 178
7
 270
2
 271
6
 272
0
 273
2
 274
2
 340
3C
 275
0
 280
0
 281
0
 282
0
 283
1
 284
0
 285
0
 286
0
 287
3
 288
1
   0
DIMSTYLE
 105
40
 100
AcDbSymbolTableRecord
 100
AcDbDimStyleTableRecord
   2
GMM004
  70
0
   3

   4

   5

   6
_OPEN30
   7
_OPEN30
  40
 1.0000000000000
  41
 20.000000000000
  42
 10.000000000000
  43
 80.000000000000
  44
 15.000000000000
  45
0.0
  46
0.0
  47
0.0
  48
0.0
 140
 25.000000000000
 141
 10.000000000000
 142
0.0
 143
 0.39400000000000E-1
 144
 1.0000000000000
 145
0.0
 146
 1.0000000000000
 147
 10.714285714286
  71
0
  72
0
  73
0
  74
0
  75
0
  76
0
  77
3
  78
8
 170
0
 171
2
 172
1
 173
1
 174
0
 175
0
 176
3
 177
3
 178
7
 270
2
 271
6
 272
0
 273
2
 274
2
 340
3C
 275
0
 280
0
 281
0
 282
0
 283
1
 284
0
 285
0
 286
0
 287
3
 288
0
   0
DIMSTYLE
 105
41
 100
AcDbSymbolTableRecord
 100
AcDbDimStyleTableRecord
   2
GMM005
  70
0
   3

   4

   5

   6
_NONE
   7
_OPEN30
  40
 1.0000000000000
  41
 20.000000000000
  42
 10.000000000000
  43
 80.000000000000
  44
 15.000000000000
  45
0.0
  46
0.0
  47
0.0
  48
0.0
 140
 25.000000000000
 141
 10.000000000000
 142
0.0
 143
 0.39400000000000E-1
 144
 1.0000000000000
 145
0.0
 146
 1.0000000000000
 147
 7.9478035428167
  71
0
  72
0
  73
0
  74
0
  75
0
  76
0
  77
3
  78
8
 170
0
 171
2
 172
1
 173
1
 174
0
 175
0
 176
3
 177
3
 178
7
 270
2
 271
6
 272
0
 273
2
 274
2
 340
3C
 275
0
 280
0
 281
0
 282
0
 283
1
 284
0
 285
0
 286
0
 287
3
 288
1
   0
DIMSTYLE
 105
42
 100
AcDbSymbolTableRecord
 100
AcDbDimStyleTableRecord
   2
GMM006
  70
0
   3

   4

   5

   6
_OPEN30
   7
_OPEN30
  40
 1.0000000000000
  41
 20.000000000000
  42
 10.000000000000
  43
 80.000000000000
  44
 15.000000000000
  45
0.0
  46
0.0
  47
0.0
  48
0.0
 140
 25.000000000000
 141
 10.000000000000
 142
0.0
 143
 0.39400000000000E-1
 144
 1.0000000000000
 145
0.0
 146
 1.0000000000000
 147
0.0
  71
0
  72
0
  73
0
  74
0
  75
0
  76
0
  77
1
  78
8
 170
0
 171
2
 172
1
 173
1
 174
0
 175
0
 176
3
 177
3
 178
7
 270
2
 271
6
 272
0
 273
2
 274
2
 340
3C
 275
0
 280
0
 281
0
 282
0
 283
1
 284
0
 285
0
 286
0
 287
3
 288
0
   0
DIMSTYLE
 105
43
 100
AcDbSymbolTableRecord
 100
AcDbDimStyleTableRecord
   2
GMM007
  70
0
   3

   4

   5

   6
_OPEN30
   7
_OPEN30
  40
 1.0000000000000
  41
 20.000000000000
  42
 10.000000000000
  43
 80.000000000000
  44
 15.000000000000
  45
0.0
  46
0.0
  47
0.0
  48
0.0
 140
 25.000000000000
 141
 10.000000000000
 142
0.0
 143
 0.39400000000000E-1
 144
 1.0000000000000
 145
0.0
 146
 1.0000000000000
 147
 12.957177986470
  71
0
  72
0
  73
0
  74
0
  75
0
  76
0
  77
3
  78
8
 170
0
 171
2
 172
1
 173
1
 174
0
 175
0
 176
3
 177
3
 178
7
 270
2
 271
6
 272
0
 273
2
 274
2
 340
3C
 275
0
 280
0
 281
0
 282
0
 283
1
 284
0
 285
0
 286
0
 287
3
 288
1
   0
DIMSTYLE
 105
44
 100
AcDbSymbolTableRecord
 100
AcDbDimStyleTableRecord
   2
GMM008
  70
0
   3

   4

   5

   6
_OPEN30
   7
_NONE
  40
 1.0000000000000
  41
 20.000000000000
  42
 10.000000000000
  43
 80.000000000000
  44
 15.000000000000
  45
0.0
  46
0.0
  47
0.0
  48
0.0
 140
 25.000000000000
 141
 10.000000000000
 142
0.0
 143
 0.39400000000000E-1
 144
 1.0000000000000
 145
0.0
 146
 1.0000000000000
 147
 11.376429811287
  71
0
  72
0
  73
0
  74
0
  75
0
  76
0
  77
3
  78
8
 170
0
 171
2
 172
1
 173
1
 174
0
 175
0
 176
3
 177
3
 178
7
 270
2
 271
6
 272
0
 273
2
 274
2
 340
3C
 275
0
 280
0
 281
0
 282
0
 283
1
 284
0
 285
0
 286
0
 287
3
 288
1
   0
ENDTAB
  0
TABLE
  2
BLOCK_RECORD
  5
1
100
AcDbSymbolTable
 70
     0
  0
BLOCK_RECORD
  5
18
100
AcDbSymbolTableRecord
100
AcDbBlockTableRecord
  2
*MODEL_SPACE
  0
BLOCK_RECORD
  5
15
100
AcDbSymbolTableRecord
100
AcDbBlockTableRecord
  2
*PAPER_SPACE
   0
BLOCK_RECORD
   5
45
 100
AcDbSymbolTableRecord
 100
AcDbBlockTableRecord
   2
BLOCK001
   0
BLOCK_RECORD
   5
46
 100
AcDbSymbolTableRecord
 100
AcDbBlockTableRecord
   2
BLOCK002
   0
BLOCK_RECORD
   5
47
 100
AcDbSymbolTableRecord
 100
AcDbBlockTableRecord
   2
BLOCK003
   0
BLOCK_RECORD
   5
48
 100
AcDbSymbolTableRecord
 100
AcDbBlockTableRecord
   2
BLOCK004
   0
BLOCK_RECORD
   5
49
 100
AcDbSymbolTableRecord
 100
AcDbBlockTableRecord
   2
BLOCK005
   0
BLOCK_RECORD
   5
4A
 100
AcDbSymbolTableRecord
 100
AcDbBlockTableRecord
   2
*D1
   0
BLOCK_RECORD
   5
4B
 100
AcDbSymbolTableRecord
 100
AcDbBlockTableRecord
   2
*D2
   0
BLOCK_RECORD
   5
4C
 100
AcDbSymbolTableRecord
 100
AcDbBlockTableRecord
   2
BLOCK006
   0
BLOCK_RECORD
   5
4D
 100
AcDbSymbolTableRecord
 100
AcDbBlockTableRecord
   2
BLOCK007
   0
BLOCK_RECORD
   5
4E
 100
AcDbSymbolTableRecord
 100
AcDbBlockTableRecord
   2
BLOCK008
   0
BLOCK_RECORD
   5
4F
 100
AcDbSymbolTableRecord
 100
AcDbBlockTableRecord
   2
*D3
   0
BLOCK_RECORD
   5
50
 100
AcDbSymbolTableRecord
 100
AcDbBlockTableRecord
   2
*D4
   0
BLOCK_RECORD
   5
51
 100
AcDbSymbolTableRecord
 100
AcDbBlockTableRecord
   2
BLOCK009
   0
BLOCK_RECORD
   5
52
 100
AcDbSymbolTableRecord
 100
AcDbBlockTableRecord
   2
*D5
   0
BLOCK_RECORD
   5
53
 100
AcDbSymbolTableRecord
 100
AcDbBlockTableRecord
   2
*D6
   0
BLOCK_RECORD
   5
54
 100
AcDbSymbolTableRecord
 100
AcDbBlockTableRecord
   2
BLOCK010
   0
BLOCK_RECORD
   5
55
 100
AcDbSymbolTableRecord
 100
AcDbBlockTableRecord
   2
BLOCK011
   0
BLOCK_RECORD
   5
56
 100
AcDbSymbolTableRecord
 100
AcDbBlockTableRecord
   2
BLOCK012
   0
BLOCK_RECORD
   5
57
 100
AcDbSymbolTableRecord
 100
AcDbBlockTableRecord
   2
BLOCK013
   0
BLOCK_RECORD
   5
58
 100
AcDbSymbolTableRecord
 100
AcDbBlockTableRecord
   2
BLOCK014
   0
BLOCK_RECORD
   5
59
 100
AcDbSymbolTableRecord
 100
AcDbBlockTableRecord
   2
BLOCK015
   0
BLOCK_RECORD
   5
5A
 100
AcDbSymbolTableRecord
 100
AcDbBlockTableRecord
   2
BLOCK016
   0
BLOCK_RECORD
   5
5B
 100
AcDbSymbolTableRecord
 100
AcDbBlockTableRecord
   2
BLOCK017
   0
BLOCK_RECORD
   5
5C
 100
AcDbSymbolTableRecord
 100
AcDbBlockTableRecord
   2
BLOCK018
   0
BLOCK_RECORD
   5
5D
 100
AcDbSymbolTableRecord
 100
AcDbBlockTableRecord
   2
*D7
   0
BLOCK_RECORD
   5
5E
 100
AcDbSymbolTableRecord
 100
AcDbBlockTableRecord
   2
*D8
   0
BLOCK_RECORD
   5
5F
 100
AcDbSymbolTableRecord
 100
AcDbBlockTableRecord
   2
*D10
   0
BLOCK_RECORD
   5
60
 100
AcDbSymbolTableRecord
 100
AcDbBlockTableRecord
   2
*D11
   0
BLOCK_RECORD
   5
61
 100
AcDbSymbolTableRecord
 100
AcDbBlockTableRecord
   2
BLOCK019
   0
BLOCK_RECORD
   5
62
 100
AcDbSymbolTableRecord
 100
AcDbBlockTableRecord
   2
BLOCK020
   0
BLOCK_RECORD
   5
63
 100
AcDbSymbolTableRecord
 100
AcDbBlockTableRecord
   2
BLOCK021
   0
BLOCK_RECORD
   5
64
 100
AcDbSymbolTableRecord
 100
AcDbBlockTableRecord
   2
*D12
   0
BLOCK_RECORD
   5
65
 100
AcDbSymbolTableRecord
 100
AcDbBlockTableRecord
   2
*D13
   0
BLOCK_RECORD
   5
66
 100
AcDbSymbolTableRecord
 100
AcDbBlockTableRecord
   2
*D14
   0
BLOCK_RECORD
   5
67
 100
AcDbSymbolTableRecord
 100
AcDbBlockTableRecord
   2
*D15
   0
BLOCK_RECORD
   5
68
 100
AcDbSymbolTableRecord
 100
AcDbBlockTableRecord
   2
*D16
   0
BLOCK_RECORD
   5
69
 100
AcDbSymbolTableRecord
 100
AcDbBlockTableRecord
   2
BLOCK022
   0
BLOCK_RECORD
   5
6A
 100
AcDbSymbolTableRecord
 100
AcDbBlockTableRecord
   2
BLOCK023
   0
BLOCK_RECORD
   5
6B
 100
AcDbSymbolTableRecord
 100
AcDbBlockTableRecord
   2
BLOCK024
   0
BLOCK_RECORD
   5
6C
 100
AcDbSymbolTableRecord
 100
AcDbBlockTableRecord
   2
BLOCK025
   0
BLOCK_RECORD
   5
6D
 100
AcDbSymbolTableRecord
 100
AcDbBlockTableRecord
   2
BLOCK026
   0
BLOCK_RECORD
   5
6E
 100
AcDbSymbolTableRecord
 100
AcDbBlockTableRecord
   2
BLOCK027
   0
BLOCK_RECORD
   5
6F
 100
AcDbSymbolTableRecord
 100
AcDbBlockTableRecord
   2
_ARCHTICK
   0
BLOCK_RECORD
   5
70
 100
AcDbSymbolTableRecord
 100
AcDbBlockTableRecord
   2
_BOXBLANK
   0
BLOCK_RECORD
   5
71
 100
AcDbSymbolTableRecord
 100
AcDbBlockTableRecord
   2
_BOXFILLED
   0
BLOCK_RECORD
   5
72
 100
AcDbSymbolTableRecord
 100
AcDbBlockTableRecord
   2
_CLOSED
   0
BLOCK_RECORD
   5
73
 100
AcDbSymbolTableRecord
 100
AcDbBlockTableRecord
   2
_CLOSEDBLANK
   0
BLOCK_RECORD
   5
74
 100
AcDbSymbolTableRecord
 100
AcDbBlockTableRecord
   2
_DATUMBLANK
   0
BLOCK_RECORD
   5
75
 100
AcDbSymbolTableRecord
 100
AcDbBlockTableRecord
   2
_DATUMFILLED
   0
BLOCK_RECORD
   5
76
 100
AcDbSymbolTableRecord
 100
AcDbBlockTableRecord
   2
_DOT
   0
BLOCK_RECORD
   5
77
 100
AcDbSymbolTableRecord
 100
AcDbBlockTableRecord
   2
_DOTBLANK
   0
BLOCK_RECORD
   5
78
 100
AcDbSymbolTableRecord
 100
AcDbBlockTableRecord
   2
_DOTSMALL
   0
BLOCK_RECORD
   5
79
 100
AcDbSymbolTableRecord
 100
AcDbBlockTableRecord
   2
_INTEGRAL
   0
BLOCK_RECORD
   5
7A
 100
AcDbSymbolTableRecord
 100
AcDbBlockTableRecord
   2
_NONE
   0
BLOCK_RECORD
   5
7B
 100
AcDbSymbolTableRecord
 100
AcDbBlockTableRecord
   2
_OBLIQUE
   0
BLOCK_RECORD
   5
7C
 100
AcDbSymbolTableRecord
 100
AcDbBlockTableRecord
   2
_OPEN
   0
BLOCK_RECORD
   5
7D
 100
AcDbSymbolTableRecord
 100
AcDbBlockTableRecord
   2
_OPEN30
   0
BLOCK_RECORD
   5
7E
 100
AcDbSymbolTableRecord
 100
AcDbBlockTableRecord
   2
_OPEN90
   0
BLOCK_RECORD
   5
7F
 100
AcDbSymbolTableRecord
 100
AcDbBlockTableRecord
   2
_ORIGIN
   0
ENDTAB
   0
ENDSEC
  0
SECTION
  2
BLOCKS
  0
BLOCK
  5
19
100
AcDbEntity
  8
0
100
AcDbBlockBegin
  2
*MODEL_SPACE
 70
     0
 10
0.0
 20
0.0
 30
0.0
  3
*MODEL_SPACE
  1

  0
ENDBLK
  5
1A
100
AcDbEntity
  8
0
100
AcDbBlockEnd
  0
BLOCK
  5
16
100
AcDbEntity
 67
     1
  8
0
100
AcDbBlockBegin
  2
*PAPER_SPACE
 70
     0
 10
0.0
 20
0.0
 30
0.0
  3
*PAPER_SPACE
  1

  0
ENDBLK
  5
17
100
AcDbEntity
 67
     1
  8
0
100
AcDbBlockEnd
   0
BLOCK
   5
80
 100
AcDbEntity
   8
0
 100
AcDbBlockBegin
   2
_ARCHTICK
  70
0
  10
0.0
  20
0.0
  30
0.0
   3
_ARCHTICK
   0
POLYLINE
   5
81
 100
AcDbEntity
   8
0
 370
-2
   6
BYBLOCK
  62
0
 100
AcDb2dPolyline
  66
1
  10
0.0
  20
0.0
  30
0.0
  70
1
  40
 0.15000000000000
  41
 0.15000000000000
   0
VERTEX
   5
82
 100
AcDbEntity
   8
0
   6
BYBLOCK
  62
0
 100
AcDbVertex
 100
AcDb2dVertex
  10
-0.50000000000000
  20
-0.50000000000000
  30
0.0
  40
 0.15000000000000
  41
 0.15000000000000
   0
VERTEX
   5
83
 100
AcDbEntity
   8
0
   6
BYBLOCK
  62
0
 100
AcDbVertex
 100
AcDb2dVertex
  10
 0.50000000000000
  20
 0.50000000000000
  30
0.0
  40
 0.15000000000000
  41
 0.15000000000000
   0
SEQEND
   5
84
 100
AcDbEntity
   8
0
   6
BYBLOCK
  62
0
   0
ENDBLK
   5
85
 100
AcDbEntity
   8
0
 100
AcDbBlockEnd
   0
BLOCK
   5
86
 100
AcDbEntity
   8
0
 100
AcDbBlockBegin
   2
_OBLIQUE
  70
0
  10
0.0
  20
0.0
  30
0.0
   3
_OBLIQUE
   0
LINE
   5
87
 100
AcDbEntity
   8
0
 370
-2
 100
AcDbLine
   6
BYBLOCK
  62
0
  10
-0.50000000000000
  20
-0.50000000000000
  30
0.0
  11
 0.50000000000000
  21
 0.50000000000000
  31
0.0
   0
ENDBLK
   5
88
 100
AcDbEntity
   8
0
 100
AcDbBlockEnd
   0
BLOCK
   5
89
 100
AcDbEntity
   8
0
 100
AcDbBlockBegin
   2
_BOXBLANK
  70
0
  10
0.0
  20
0.0
  30
0.0
   3
_BOXBLANK
   0
LINE
   5
8A
 100
AcDbEntity
   8
0
 370
-2
 100
AcDbLine
   6
BYBLOCK
  62
0
  10
-0.50000000000000
  20
-0.50000000000000
  30
0.0
  11
 0.50000000000000
  21
-0.50000000000000
  31
0.0
   0
LINE
   5
8B
 100
AcDbEntity
   8
0
 370
-2
 100
AcDbLine
   6
BYBLOCK
  62
0
  10
 0.50000000000000
  20
-0.50000000000000
  30
0.0
  11
 0.50000000000000
  21
 0.50000000000000
  31
0.0
   0
LINE
   5
8C
 100
AcDbEntity
   8
0
 370
-2
 100
AcDbLine
   6
BYBLOCK
  62
0
  10
 0.50000000000000
  20
 0.50000000000000
  30
0.0
  11
-0.50000000000000
  21
 0.50000000000000
  31
0.0
   0
LINE
   5
8D
 100
AcDbEntity
   8
0
 370
-2
 100
AcDbLine
   6
BYBLOCK
  62
0
  10
-0.50000000000000
  20
 0.50000000000000
  30
0.0
  11
-0.50000000000000
  21
-0.50000000000000
  31
0.0
   0
LINE
   5
8E
 100
AcDbEntity
   8
0
 370
-2
 100
AcDbLine
   6
BYBLOCK
  62
0
  10
-0.50000000000000
  20
0.0
  30
0.0
  11
-1.0000000000000
  21
0.0
  31
0.0
   0
ENDBLK
   5
8F
 100
AcDbEntity
   8
0
 100
AcDbBlockEnd
   0
BLOCK
   5
90
 100
AcDbEntity
   8
0
 100
AcDbBlockBegin
   2
_BOXFILLED
  70
0
  10
0.0
  20
0.0
  30
0.0
   3
_BOXFILLED
   0
SOLID
   5
91
 100
AcDbEntity
   8
0
 100
AcDbTrace
   6
BYBLOCK
  62
0
  10
-0.50000000000000
  20
 0.50000000000000
  30
0.0
  11
 0.50000000000000
  21
 0.50000000000000
  31
0.0
  12
-0.50000000000000
  22
-0.50000000000000
  32
0.0
  13
 0.50000000000000
  23
-0.50000000000000
  33
0.0
   0
LINE
   5
92
 100
AcDbEntity
   8
0
 370
-2
 100
AcDbLine
   6
BYBLOCK
  62
0
  10
-0.50000000000000
  20
0.0
  30
0.0
  11
-1.0000000000000
  21
0.0
  31
0.0
   0
ENDBLK
   5
93
 100
AcDbEntity
   8
0
 100
AcDbBlockEnd
   0
BLOCK
   5
94
 100
AcDbEntity
   8
0
 100
AcDbBlockBegin
   2
_CLOSED
  70
0
  10
0.0
  20
0.0
  30
0.0
   3
_CLOSED
   0
LINE
   5
95
 100
AcDbEntity
   8
0
 370
-2
 100
AcDbLine
   6
BYBLOCK
  62
0
  10
-1.0000000000000
  20
 0.16666666666667
  30
0.0
  11
0.0
  21
0.0
  31
0.0
   0
LINE
   5
96
 100
AcDbEntity
   8
0
 370
-2
 100
AcDbLine
   6
BYBLOCK
  62
0
  10
0.0
  20
0.0
  30
0.0
  11
-1.0000000000000
  21
-0.16666666666667
  31
0.0
   0
LINE
   5
97
 100
AcDbEntity
   8
0
 370
-2
 100
AcDbLine
   6
BYBLOCK
  62
0
  10
-1.0000000000000
  20
 0.16666666666667
  30
0.0
  11
-1.0000000000000
  21
-0.16666666666667
  31
0.0
   0
LINE
   5
98
 100
AcDbEntity
   8
0
 370
-2
 100
AcDbLine
   6
BYBLOCK
  62
0
  10
0.0
  20
0.0
  30
0.0
  11
-1.0000000000000
  21
0.0
  31
0.0
   0
ENDBLK
   5
99
 100
AcDbEntity
   8
0
 100
AcDbBlockEnd
   0
BLOCK
   5
9A
 100
AcDbEntity
   8
0
 100
AcDbBlockBegin
   2
_OPEN
  70
0
  10
0.0
  20
0.0
  30
0.0
   3
_OPEN
   0
LINE
   5
9B
 100
AcDbEntity
   8
0
 370
-2
 100
AcDbLine
   6
BYBLOCK
  62
0
  10
-1.0000000000000
  20
 0.16666666666667
  30
0.0
  11
0.0
  21
0.0
  31
0.0
   0
LINE
   5
9C
 100
AcDbEntity
   8
0
 370
-2
 100
AcDbLine
   6
BYBLOCK
  62
0
  10
0.0
  20
0.0
  30
0.0
  11
-1.0000000000000
  21
-0.16666666666667
  31
0.0
   0
LINE
   5
9D
 100
AcDbEntity
   8
0
 370
-2
 100
AcDbLine
   6
BYBLOCK
  62
0
  10
0.0
  20
0.0
  30
0.0
  11
-1.0000000000000
  21
0.0
  31
0.0
   0
ENDBLK
   5
9E
 100
AcDbEntity
   8
0
 100
AcDbBlockEnd
   0
BLOCK
   5
9F
 100
AcDbEntity
   8
0
 100
AcDbBlockBegin
   2
_OPEN30
  70
0
  10
0.0
  20
0.0
  30
0.0
   3
_OPEN30
   0
LINE
   5
A0
 100
AcDbEntity
   8
0
 370
-2
 100
AcDbLine
   6
BYBLOCK
  62
0
  10
-1.0000000000000
  20
 0.26794919243110
  30
0.0
  11
0.0
  21
0.0
  31
0.0
   0
LINE
   5
A1
 100
AcDbEntity
   8
0
 370
-2
 100
AcDbLine
   6
BYBLOCK
  62
0
  10
0.0
  20
0.0
  30
0.0
  11
-1.0000000000000
  21
-0.26794919243110
  31
0.0
   0
LINE
   5
A2
 100
AcDbEntity
   8
0
 370
-2
 100
AcDbLine
   6
BYBLOCK
  62
0
  10
0.0
  20
0.0
  30
0.0
  11
-1.0000000000000
  21
0.0
  31
0.0
   0
ENDBLK
   5
A3
 100
AcDbEntity
   8
0
 100
AcDbBlockEnd
   0
BLOCK
   5
A4
 100
AcDbEntity
   8
0
 100
AcDbBlockBegin
   2
_OPEN90
  70
0
  10
0.0
  20
0.0
  30
0.0
   3
_OPEN90
   0
LINE
   5
A5
 100
AcDbEntity
   8
0
 370
-2
 100
AcDbLine
   6
BYBLOCK
  62
0
  10
-0.50000000000000
  20
 0.50000000000000
  30
0.0
  11
0.0
  21
0.0
  31
0.0
   0
LINE
   5
A6
 100
AcDbEntity
   8
0
 370
-2
 100
AcDbLine
   6
BYBLOCK
  62
0
  10
0.0
  20
0.0
  30
0.0
  11
-0.50000000000000
  21
-0.50000000000000
  31
0.0
   0
LINE
   5
A7
 100
AcDbEntity
   8
0
 370
-2
 100
AcDbLine
   6
BYBLOCK
  62
0
  10
0.0
  20
0.0
  30
0.0
  11
-1.0000000000000
  21
0.0
  31
0.0
   0
ENDBLK
   5
A8
 100
AcDbEntity
   8
0
 100
AcDbBlockEnd
   0
BLOCK
   5
A9
 100
AcDbEntity
   8
0
 100
AcDbBlockBegin
   2
_CLOSEDBLANK
  70
0
  10
0.0
  20
0.0
  30
0.0
   3
_CLOSEDBLANK
   0
LINE
   5
AA
 100
AcDbEntity
   8
0
 370
-2
 100
AcDbLine
   6
BYBLOCK
  62
0
  10
-1.0000000000000
  20
 0.16666666666667
  30
0.0
  11
0.0
  21
0.0
  31
0.0
   0
LINE
   5
AB
 100
AcDbEntity
   8
0
 370
-2
 100
AcDbLine
   6
BYBLOCK
  62
0
  10
0.0
  20
0.0
  30
0.0
  11
-1.0000000000000
  21
-0.16666666666667
  31
0.0
   0
LINE
   5
AC
 100
AcDbEntity
   8
0
 370
-2
 100
AcDbLine
   6
BYBLOCK
  62
0
  10
-1.0000000000000
  20
 0.16666666666667
  30
0.0
  11
-1.0000000000000
  21
-0.16666666666667
  31
0.0
   0
ENDBLK
   5
AD
 100
AcDbEntity
   8
0
 100
AcDbBlockEnd
   0
BLOCK
   5
AE
 100
AcDbEntity
   8
0
 100
AcDbBlockBegin
   2
_DOT
  70
0
  10
0.0
  20
0.0
  30
0.0
   3
_DOT
   0
POLYLINE
   5
AF
 100
AcDbEntity
   8
0
 370
-2
   6
BYBLOCK
  62
0
 100
AcDb2dPolyline
  66
1
  10
0.0
  20
0.0
  30
0.0
  70
1
  40
 0.50000000000000
  41
 0.50000000000000
   0
VERTEX
   5
B0
 100
AcDbEntity
   8
0
   6
BYBLOCK
  62
0
 100
AcDbVertex
 100
AcDb2dVertex
  10
-0.25000000000000
  20
0.0
  30
0.0
  42
 1.0000000000000
  40
 0.50000000000000
  41
 0.50000000000000
   0
VERTEX
   5
B1
 100
AcDbEntity
   8
0
   6
BYBLOCK
  62
0
 100
AcDbVertex
 100
AcDb2dVertex
  10
 0.25000000000000
  20
0.0
  30
0.0
  42
 1.0000000000000
  40
 0.50000000000000
  41
 0.50000000000000
   0
SEQEND
   5
B2
 100
AcDbEntity
   8
0
   6
BYBLOCK
  62
0
   0
LINE
   5
B3
 100
AcDbEntity
   8
0
 370
-2
 100
AcDbLine
   6
BYBLOCK
  62
0
  10
-0.50000000000000
  20
0.0
  30
0.0
  11
-1.0000000000000
  21
0.0
  31
0.0
   0
ENDBLK
   5
B4
 100
AcDbEntity
   8
0
 100
AcDbBlockEnd
   0
BLOCK
   5
B5
 100
AcDbEntity
   8
0
 100
AcDbBlockBegin
   2
_DOTSMALL
  70
0
  10
0.0
  20
0.0
  30
0.0
   3
_DOTSMALL
   0
POLYLINE
   5
B6
 100
AcDbEntity
   8
0
 370
-2
   6
BYBLOCK
  62
0
 100
AcDb2dPolyline
  66
1
  10
0.0
  20
0.0
  30
0.0
  70
1
  40
 0.50000000000000
  41
 0.50000000000000
   0
VERTEX
   5
B7
 100
AcDbEntity
   8
0
   6
BYBLOCK
  62
0
 100
AcDbVertex
 100
AcDb2dVertex
  10
-0.62500000000000E-1
  20
0.0
  30
0.0
  42
 1.0000000000000
  40
 0.50000000000000
  41
 0.50000000000000
   0
VERTEX
   5
B8
 100
AcDbEntity
   8
0
   6
BYBLOCK
  62
0
 100
AcDbVertex
 100
AcDb2dVertex
  10
 0.62500000000000E-1
  20
0.0
  30
0.0
  42
 1.0000000000000
  40
 0.50000000000000
  41
 0.50000000000000
   0
SEQEND
   5
B9
 100
AcDbEntity
   8
0
   6
BYBLOCK
  62
0
   0
ENDBLK
   5
BA
 100
AcDbEntity
   8
0
 100
AcDbBlockEnd
   0
BLOCK
   5
BB
 100
AcDbEntity
   8
0
 100
AcDbBlockBegin
   2
_DATUMBLANK
  70
0
  10
0.0
  20
0.0
  30
0.0
   3
_DATUMBLANK
   0
LINE
   5
BC
 100
AcDbEntity
   8
0
 370
-2
 100
AcDbLine
   6
BYBLOCK
  62
0
  10
0.0
  20
 0.57735027000000
  30
0.0
  11
-1.0000000000000
  21
0.0
  31
0.0
   0
LINE
   5
BD
 100
AcDbEntity
   8
0
 370
-2
 100
AcDbLine
   6
BYBLOCK
  62
0
  10
-1.0000000000000
  20
0.0
  30
0.0
  11
0.0
  21
-0.57735027000000
  31
0.0
   0
LINE
   5
BE
 100
AcDbEntity
   8
0
 370
-2
 100
AcDbLine
   6
BYBLOCK
  62
0
  10
0.0
  20
-0.57735027000000
  30
0.0
  11
0.0
  21
 0.57735027000000
  31
0.0
   0
ENDBLK
   5
BF
 100
AcDbEntity
   8
0
 100
AcDbBlockEnd
   0
BLOCK
   5
C0
 100
AcDbEntity
   8
0
 100
AcDbBlockBegin
   2
_DATUMFILLED
  70
0
  10
0.0
  20
0.0
  30
0.0
   3
_DATUMFILLED
   0
SOLID
   5
C1
 100
AcDbEntity
   8
0
 100
AcDbTrace
   6
BYBLOCK
  62
0
  10
0.0
  20
 0.57735027000000
  30
0.0
  11
-1.0000000000000
  21
0.0
  31
0.0
  12
0.0
  22
-0.57735027000000
  32
0.0
  13
0.0
  23
-0.57735027000000
  33
0.0
   0
ENDBLK
   5
C2
 100
AcDbEntity
   8
0
 100
AcDbBlockEnd
   0
BLOCK
   5
C3
 100
AcDbEntity
   8
0
 100
AcDbBlockBegin
   2
_ORIGIN
  70
0
  10
0.0
  20
0.0
  30
0.0
   3
_ORIGIN
   0
CIRCLE
   5
C4
 100
AcDbEntity
   8
0
 370
-2
 100
AcDbCircle
   6
BYBLOCK
  62
0
  10
0.0
  20
0.0
  30
0.0
  40
 0.50000000000000
   0
LINE
   5
C5
 100
AcDbEntity
   8
0
 370
-2
 100
AcDbLine
   6
BYBLOCK
  62
0
  10
0.0
  20
0.0
  30
0.0
  11
-1.0000000000000
  21
0.0
  31
0.0
   0
ENDBLK
   5
C6
 100
AcDbEntity
   8
0
 100
AcDbBlockEnd
   0
BLOCK
   5
C7
 100
AcDbEntity
   8
0
 100
AcDbBlockBegin
   2
_NONE
  70
0
  10
0.0
  20
0.0
  30
0.0
   3
_NONE
   0
CIRCLE
   5
C8
 100
AcDbEntity
   8
0
 370
-2
 100
AcDbCircle
   6
BYBLOCK
  62
0
  10
0.0
  20
0.0
  30
0.0
  40
 0.25000000000000
   0
ENDBLK
   5
C9
 100
AcDbEntity
   8
0
 100
AcDbBlockEnd
   0
BLOCK
   5
CA
 100
AcDbEntity
   8
0
 100
AcDbBlockBegin
   2
_DOTBLANK
  70
0
  10
0.0
  20
0.0
  30
0.0
   3
_DOTBLANK
   0
CIRCLE
   5
CB
 100
AcDbEntity
   8
0
 370
-2
 100
AcDbCircle
   6
BYBLOCK
  62
0
  10
0.0
  20
0.0
  30
0.0
  40
 0.50000000000000
   0
LINE
   5
CC
 100
AcDbEntity
   8
0
 370
-2
 100
AcDbLine
   6
BYBLOCK
  62
0
  10
-0.50000000000000
  20
0.0
  30
0.0
  11
-1.0000000000000
  21
0.0
  31
0.0
   0
ENDBLK
   5
CD
 100
AcDbEntity
   8
0
 100
AcDbBlockEnd
   0
BLOCK
   5
CE
 100
AcDbEntity
   8
0
 100
AcDbBlockBegin
   2
_INTEGRAL
  70
0
  10
0.0
  20
0.0
  30
0.0
   3
_INTEGRAL
   0
ARC
   5
CF
 100
AcDbEntity
   8
0
 370
-2
   6
BYBLOCK
  62
0
 100
AcDbCircle
  10
 0.44488800000000
  20
-0.91335000000000E-1
  30
0.0
  40
 0.45416700000000
 100
AcDbArc
  50
 102.00000000000
  51
 168.00000000000
   0
ARC
   5
D0
 100
AcDbEntity
   8
0
 370
-2
   6
BYBLOCK
  62
0
 100
AcDbCircle
  10
-0.44488800000000
  20
 0.91335000000000E-1
  30
0.0
  40
 0.45416700000000
 100
AcDbArc
  50
 282.00000000000
  51
 348.00000000000
   0
ENDBLK
   5
D1
 100
AcDbEntity
   8
0
 100
AcDbBlockEnd
   0
BLOCK
   5
D2
 100
AcDbEntity
   8
0
 100
AcDbBlockBegin
   2
BLOCK001
  70
64
  10
0.0
  20
0.0
  30
0.0
   3
BLOCK001
   0
MTEXT
   5
D3
 100
AcDbEntity
   8
LEVEL001
 370
40
  62
7
 100
AcDbMText
  10
 1377.7146542351
  20
-125.74854434513
  30
0.0
  40
 40.000000000000
  41
0.0
  71
7
  72
1
   1
シマテック
   7
GMM003
   0
MTEXT
   5
D4
 100
AcDbEntity
   8
LEVEL001
 370
40
  62
7
 100
AcDbMText
  10
 1380.3310062060
  20
-125.74854434513
  30
0.0
  40
 40.000000000000
  41
0.0
  71
7
  72
1
   1
シマテック
   7
GMM003
   0
MTEXT
   5
D5
 100
AcDbEntity
   8
LEVEL001
 370
40
  62
7
 100
AcDbMText
  10
 1143.8508400076
  20
-122.16484706812
  30
0.0
  40
 30.000000000000
  41
0.0
  71
7
  72
1
   1
株式会社
   7
GMM003
   0
ENDBLK
   5
D6
 100
AcDbEntity
   8
0
 100
AcDbBlockEnd
   0
BLOCK
   5
D7
 100
AcDbEntity
   8
0
 100
AcDbBlockBegin
   2
BLOCK002
  70
64
  10
0.0
  20
0.0
  30
0.0
   3
BLOCK002
   0
LINE
   5
D8
 100
AcDbEntity
   8
LEVEL001
 370
25
 100
AcDbLine
   6
DASHDOT
  62
3
  10
 805.12773722624
  20
 452.24498863236
  30
0.0
  11
 805.12773722624
  21
 386.04487756233
  31
0.0
   0
ARC
   5
D9
 100
AcDbEntity
   8
LEVEL001
 370
25
   6
CONTINUOUS
  62
3
 100
AcDbCircle
  10
 794.72773722628
  20
 442.08292996735
  30
0.0
  40
 1.6000000000000
 100
AcDbArc
  50
 90.000000000000
  51
 180.00000000000
   0
LINE
   5
DA
 100
AcDbEntity
   8
LEVEL001
 370
25
 100
AcDbLine
   6
CONTINUOUS
  62
3
  10
 794.72773722628
  20
 443.68292996735
  30
0.0
  11
 815.52773722628
  21
 443.68292996735
  31
0.0
   0
ARC
   5
DB
 100
AcDbEntity
   8
LEVEL001
 370
25
   6
CONTINUOUS
  62
3
 100
AcDbCircle
  10
 815.52773722628
  20
 442.08292996735
  30
0.0
  40
 1.6000000000000
 100
AcDbArc
  50
 0.20355549961366E-11
  51
 90.000000000000
   0
LINE
   5
DC
 100
AcDbEntity
   8
LEVEL001
 370
25
 100
AcDbLine
   6
CONTINUOUS
  62
3
  10
 817.12773722628
  20
 442.08292996735
  30
0.0
  11
 817.12773722628
  21
 427.68292996735
  31
0.0
   0
LINE
   5
DD
 100
AcDbEntity
   8
LEVEL001
 370
25
 100
AcDbLine
   6
CONTINUOUS
  62
3
  10
 793.12773722628
  20
 427.68292996735
  30
0.0
  11
 793.12773722628
  21
 442.08292996735
  31
0.0
   0
LWPOLYLINE
   5
DE
 100
AcDbEntity
   8
LEVEL001
 370
25
   6
CONTINUOUS
  62
3
 100
AcDbPolyline
  90
4
  70
0
  10
 819.12773722628
  20
 423.68292996735
  10
 819.12773722628
  20
 427.68292996735
  10
 791.12773722628
  20
 427.68292996735
  10
 791.12773722628
  20
 423.68292996735
   0
LINE
   5
DF
 100
AcDbEntity
   8
LEVEL001
 370
25
 100
AcDbLine
   6
CONTINUOUS
  62
3
  10
 802.81833614952
  20
 427.68292996735
  30
0.0
  11
 805.12773722628
  21
 423.68292996735
  31
0.0
   0
LINE
   5
E0
 100
AcDbEntity
   8
LEVEL001
 370
25
 100
AcDbLine
   6
CONTINUOUS
  62
3
  10
 805.12773722624
  20
 427.68292996735
  30
0.0
  11
 807.43713830300
  21
 423.68292996735
  31
0.0
   0
ENDBLK
   5
E1
 100
AcDbEntity
   8
0
 100
AcDbBlockEnd
   0
BLOCK
   5
E2
 100
AcDbEntity
   8
0
 100
AcDbBlockBegin
   2
BLOCK003
  70
64
  10
0.0
  20
0.0
  30
0.0
   3
BLOCK003
   0
LINE
   5
E3
 100
AcDbEntity
   8
LEVEL001
 370
25
 100
AcDbLine
   6
DASHDOT
  62
3
  10
 945.12773722628
  20
 452.24498863236
  30
0.0
  11
 945.12773722628
  21
 386.04487756233
  31
0.0
   0
ARC
   5
E4
 100
AcDbEntity
   8
LEVEL001
 370
25
   6
CONTINUOUS
  62
3
 100
AcDbCircle
  10
 934.72773722631
  20
 442.08292996735
  30
0.0
  40
 1.6000000000000
 100
AcDbArc
  50
 90.000000000000
  51
 180.00000000000
   0
LINE
   5
E5
 100
AcDbEntity
   8
LEVEL001
 370
25
 100
AcDbLine
   6
CONTINUOUS
  62
3
  10
 934.72773722631
  20
 443.68292996735
  30
0.0
  11
 955.52773722631
  21
 443.68292996735
  31
0.0
   0
ARC
   5
E6
 100
AcDbEntity
   8
LEVEL001
 370
25
   6
CONTINUOUS
  62
3
 100
AcDbCircle
  10
 955.52773722631
  20
 442.08292996735
  30
0.0
  40
 1.6000000000000
 100
AcDbArc
  50
 0.20355549961366E-11
  51
 90.000000000000
   0
LINE
   5
E7
 100
AcDbEntity
   8
LEVEL001
 370
25
 100
AcDbLine
   6
CONTINUOUS
  62
3
  10
 957.12773722631
  20
 442.08292996735
  30
0.0
  11
 957.12773722631
  21
 427.68292996735
  31
0.0
   0
LINE
   5
E8
 100
AcDbEntity
   8
LEVEL001
 370
25
 100
AcDbLine
   6
CONTINUOUS
  62
3
  10
 933.12773722631
  20
 427.68292996735
  30
0.0
  11
 933.12773722631
  21
 442.08292996735
  31
0.0
   0
LWPOLYLINE
   5
E9
 100
AcDbEntity
   8
LEVEL001
 370
25
   6
CONTINUOUS
  62
3
 100
AcDbPolyline
  90
4
  70
0
  10
 959.12773722631
  20
 423.68292996735
  10
 959.12773722631
  20
 427.68292996735
  10
 931.12773722631
  20
 427.68292996735
  10
 931.12773722631
  20
 423.68292996735
   0
LINE
   5
EA
 100
AcDbEntity
   8
LEVEL001
 370
25
 100
AcDbLine
   6
CONTINUOUS
  62
3
  10
 942.81833614955
  20
 427.68292996735
  30
0.0
  11
 945.12773722631
  21
 423.68292996735
  31
0.0
   0
LINE
   5
EB
 100
AcDbEntity
   8
LEVEL001
 370
25
 100
AcDbLine
   6
CONTINUOUS
  62
3
  10
 945.12773722628
  20
 427.68292996735
  30
0.0
  11
 947.43713830304
  21
 423.68292996735
  31
0.0
   0
ENDBLK
   5
EC
 100
AcDbEntity
   8
0
 100
AcDbBlockEnd
   0
BLOCK
   5
ED
 100
AcDbEntity
   8
0
 100
AcDbBlockBegin
   2
BLOCK004
  70
64
  10
0.0
  20
0.0
  30
0.0
   3
BLOCK004
   0
LINE
   5
EE
 100
AcDbEntity
   8
LEVEL001
 370
25
 100
AcDbLine
   6
DASHDOT
  62
3
  10
 732.12773722628
  20
 449.90300306145
  30
0.0
  11
 732.12773722628
  21
 400.39724316062
  31
0.0
   0
LWPOLYLINE
   5
EF
 100
AcDbEntity
   8
LEVEL001
 370
40
   6
CONTINUOUS
  62
7
 100
AcDbPolyline
  90
4
  70
0
  10
 700.62773722628
  20
 442.68292996735
  10
 700.62773722628
  20
 407.68292996735
  10
 763.62773722628
  20
 407.68292996735
  10
 763.62773722628
  20
 442.68292996735
   0
LINE
   5
F0
 100
AcDbEntity
   8
LEVEL001
 370
25
 100
AcDbLine
   6
DASHDOT
  62
3
  10
 358.12773722628
  20
 449.90300306145
  30
0.0
  11
 358.12773722628
  21
 400.39724316062
  31
0.0
   0
LWPOLYLINE
   5
F1
 100
AcDbEntity
   8
LEVEL001
 370
40
   6
CONTINUOUS
  62
7
 100
AcDbPolyline
  90
4
  70
0
  10
 389.62773722628
  20
 442.68292996735
  10
 389.62773722628
  20
 407.68292996735
  10
 326.62773722628
  20
 407.68292996735
  10
 326.62773722628
  20
 442.68292996735
   0
LWPOLYLINE
   5
F2
 100
AcDbEntity
   8
LEVEL001
 370
40
   6
CONTINUOUS
  62
7
 100
AcDbPolyline
  90
4
  70
1
  10
 308.12773722628
  20
 442.68292996735
  10
 782.12773722628
  20
 442.68292996735
  10
 782.12773722628
  20
 522.68292996735
  10
 308.12773722628
  20
 522.68292996735
   0
LWPOLYLINE
   5
F3
 100
AcDbEntity
   8
LEVEL001
 370
40
   6
CONTINUOUS
  62
7
 100
AcDbPolyline
  90
4
  70
0
  10
 337.12773722628
  20
 522.68292996735
  10
 337.12773722628
  20
 751.68292996735
  10
 753.12773722628
  20
 751.68292996735
  10
 753.12773722628
  20
 522.68292996735
   0
LWPOLYLINE
   5
F4
 100
AcDbEntity
   8
LEVEL001
 370
40
   6
CONTINUOUS
  62
7
 100
AcDbPolyline
  90
4
  70
0
  10
 375.12773722628
  20
 751.68292996735
  10
 375.12773722628
  20
 759.68292996735
  10
 715.12773722628
  20
 759.68292996735
  10
 715.12773722628
  20
 751.68292996735
   0
ENDBLK
   5
F5
 100
AcDbEntity
   8
0
 100
AcDbBlockEnd
   0
BLOCK
   5
F6
 100
AcDbEntity
   8
0
 100
AcDbBlockBegin
   2
BLOCK005
  70
64
  10
0.0
  20
0.0
  30
0.0
   3
BLOCK005
   0
LWPOLYLINE
   5
F7
 100
AcDbEntity
   8
LEVEL001
 370
40
   6
CONTINUOUS
  62
7
 100
AcDbPolyline
  90
4
  70
0
  10
 730.12773722628
  20
 806.91822408500
  10
 730.12773722628
  20
 791.68292996735
  10
 325.12773722628
  20
 791.68292996735
  10
 325.12773722611
  20
 860.46341777222
   0
LWPOLYLINE
   5
F8
 100
AcDbEntity
   8
LEVEL001
 370
40
   6
CONTINUOUS
  62
7
 100
AcDbPolyline
  90
3
  70
0
  10
 545.12773722628
  20
 791.68292996735
  10
 800.12773722628
  20
 812.68292996735
  10
 800.12773722628
  20
 892.90244216247
   0
LWPOLYLINE
   5
F9
 100
AcDbEntity
   8
LEVEL001
 370
40
   6
CONTINUOUS
  62
7
 100
AcDbPolyline
  90
4
  70
1
  10
 375.12773722628
  20
 775.68292996735
  10
 715.12773722628
  20
 775.68292996735
  10
 715.12773722628
  20
 791.68292996735
  10
 375.12773722628
  20
 791.68292996735
   0
LWPOLYLINE
   5
FA
 100
AcDbEntity
   8
LEVEL001
 370
40
   6
CONTINUOUS
  62
7
 100
AcDbPolyline
  90
8
  70
0
  10
 255.12773722628
  20
 918.68292996735
  10
 255.12773722628
  20
 855.68292996735
  10
 870.12773722628
  20
 897.68292996735
  10
 870.12773722628
  20
 982.68292996735
  10
 161.37773722628
  20
 982.68292996735
  10
 161.37773722628
  20
 918.68292996735
  10
 647.12773722628
  20
 918.68292996735
  10
 647.12773722628
  20
 982.68292996735
   0
ENDBLK
   5
FB
 100
AcDbEntity
   8
0
 100
AcDbBlockEnd
   0
BLOCK
   5
FC
 100
AcDbEntity
   8
0
 100
AcDbBlockBegin
   2
*D1
  70
65
  10
0.0
  20
0.0
  30
0.0
   3
*D1
   0
LINE
   5
FD
 100
AcDbEntity
   8
LEVEL001
 370
25
 100
AcDbLine
   6
CONTINUOUS
  62
3
  10
 220.12773722628
  20
 992.68292996735
  30
0.0
  11
 220.12773722628
  21
 1133.5550338259
  31
0.0
   0
LINE
   5
FE
 100
AcDbEntity
   8
LEVEL001
 370
25
 100
AcDbLine
   6
CONTINUOUS
  62
3
  10
 870.12773722628
  20
 992.68292996735
  30
0.0
  11
 870.12773722628
  21
 1133.5550338259
  31
0.0
   0
LINE
   5
FF
 100
AcDbEntity
   8
LEVEL001
 370
25
 100
AcDbLine
   6
CONTINUOUS
  62
3
  10
 220.12773722628
  20
 1118.5550338259
  30
0.0
  11
 545.12773722628
  21
 1118.5550338259
  31
0.0
   0
LINE
   5
100
 100
AcDbEntity
   8
LEVEL001
 370
25
 100
AcDbLine
   6
CONTINUOUS
  62
3
  10
 870.12773722628
  20
 1118.5550338259
  30
0.0
  11
 545.12773722628
  21
 1118.5550338259
  31
0.0
   0
INSERT
   5
101
 100
AcDbEntity
   8
LEVEL001
   6
CONTINUOUS
  62
3
 100
AcDbBlockReference
   2
_OPEN30
  10
 220.12773722628
  20
 1118.5550338259
  30
0.0
  41
 20.000000000000
  42
 20.000000000000
  43
 20.000000000000
  50
 180.00000000000
   0
INSERT
   5
102
 100
AcDbEntity
   8
LEVEL001
   6
CONTINUOUS
  62
3
 100
AcDbBlockReference
   2
_OPEN30
  10
 870.12773722628
  20
 1118.5550338259
  30
0.0
  41
 20.000000000000
  42
 20.000000000000
  43
 20.000000000000
  50
0.0
   0
MTEXT
   5
103
 100
AcDbEntity
   8
LEVEL001
 370
40
  62
7
 100
AcDbMText
  10
 545.12773722628
  20
 1129.2693195402
  30
0.0
  40
 25.000000000000
  41
0.0
  71
8
  72
1
   1
\A1;φ６５０
   7
GMM003
   0
ENDBLK
   5
104
 100
AcDbEntity
   8
0
 100
AcDbBlockEnd
   0
BLOCK
   5
105
 100
AcDbEntity
   8
0
 100
AcDbBlockBegin
   2
*D2
  70
65
  10
0.0
  20
0.0
  30
0.0
   3
*D2
   0
LINE
   5
106
 100
AcDbEntity
   8
LEVEL001
 370
25
 100
AcDbLine
   6
CONTINUOUS
  62
3
  10
 225.12773722628
  20
 388.68292996735
  30
0.0
  11
 64.175438401282
  21
 388.68292996735
  31
0.0
   0
LINE
   5
107
 100
AcDbEntity
   8
LEVEL001
 370
25
 100
AcDbLine
   6
CONTINUOUS
  62
3
  10
 151.37773722628
  20
 982.68292996735
  30
0.0
  11
 64.175438401282
  21
 982.68292996735
  31
0.0
   0
LINE
   5
108
 100
AcDbEntity
   8
LEVEL001
 370
25
 100
AcDbLine
   6
CONTINUOUS
  62
3
  10
 79.175438401282
  20
 388.68292996735
  30
0.0
  11
 79.175438401282
  21
 685.68292996735
  31
0.0
   0
LINE
   5
109
 100
AcDbEntity
   8
LEVEL001
 370
25
 100
AcDbLine
   6
CONTINUOUS
  62
3
  10
 79.175438401282
  20
 982.68292996735
  30
0.0
  11
 79.175438401282
  21
 685.68292996735
  31
0.0
   0
INSERT
   5
10A
 100
AcDbEntity
   8
LEVEL001
   6
CONTINUOUS
  62
3
 100
AcDbBlockReference
   2
_OPEN30
  10
 79.175438401282
  20
 388.68292996735
  30
0.0
  41
 20.000000000000
  42
 20.000000000000
  43
 20.000000000000
  50
 270.00000000000
   0
INSERT
   5
10B
 100
AcDbEntity
   8
LEVEL001
   6
CONTINUOUS
  62
3
 100
AcDbBlockReference
   2
_OPEN30
  10
 79.175438401282
  20
 982.68292996735
  30
0.0
  41
 20.000000000000
  42
 20.000000000000
  43
 20.000000000000
  50
 90.000000000000
   0
MTEXT
   5
10C
 100
AcDbEntity
   8
LEVEL001
 370
40
  62
7
 100
AcDbMText
  10
 68.461152686996
  20
 685.68292996735
  30
0.0
  40
 25.000000000000
  41
0.0
  71
8
  72
1
   1
\A1;（５９４）
   7
GMM003
  11
0.0
  21
 1.0000000000000
  31
0.0
   0
ENDBLK
   5
10D
 100
AcDbEntity
   8
0
 100
AcDbBlockEnd
   0
BLOCK
   5
10E
 100
AcDbEntity
   8
0
 100
AcDbBlockBegin
   2
BLOCK006
  70
64
  10
0.0
  20
0.0
  30
0.0
   3
BLOCK006
   0
LWPOLYLINE
   5
10F
 100
AcDbEntity
   8
LEVEL001
 370
40
   6
CONTINUOUS
  62
7
 100
AcDbPolyline
  90
4
  70
1
  10
 600.12773722628
  20
 712.68292996735
  10
 730.12773722628
  20
 712.68292996735
  10
 730.12773722628
  20
 802.68292996735
  10
 600.12773722628
  20
 802.68292996735
   0
LWPOLYLINE
   5
110
 100
AcDbEntity
   8
LEVEL001
 370
40
   6
CONTINUOUS
  62
7
 100
AcDbPolyline
  90
4
  70
1
  10
 755.12773722628
  20
 823.68292996735
  10
 1025.1277372263
  20
 823.68292996735
  10
 1025.1277372263
  20
 873.68292996735
  10
 755.12773722628
  20
 873.68292996735
   0
LWPOLYLINE
   5
111
 100
AcDbEntity
   8
LEVEL001
 370
40
   6
CONTINUOUS
  62
7
 100
AcDbPolyline
  90
8
  70
0
  10
 755.12773722628
  20
 712.68292996735
  10
 665.12773722628
  20
 712.68292996735
  10
 665.12773722628
  20
 696.68292996735
  10
 1050.1277372263
  20
 696.68292996735
  10
 1050.1277372263
  20
 720.38165977836
  10
 1025.1277372263
  20
 813.68292996735
  10
 755.12773722628
  20
 813.68292996735
  10
 755.12773722628
  20
 696.68292996735
   0
LINE
   5
112
 100
AcDbEntity
   8
LEVEL001
 370
25
 100
AcDbLine
   6
CONTINUOUS
  62
3
  10
 756.12773722628
  20
 655.48291776032
  30
0.0
  11
 764.12773722628
  21
 655.48291776032
  31
0.0
   0
LINE
   5
113
 100
AcDbEntity
   8
LEVEL001
 370
25
 100
AcDbLine
   6
CONTINUOUS
  62
3
  10
 756.12773722628
  20
 675.68292996735
  30
0.0
  11
 764.12773722628
  21
 675.68292996735
  31
0.0
   0
LWPOLYLINE
   5
114
 100
AcDbEntity
   8
LEVEL001
 370
25
   6
CONTINUOUS
  62
3
 100
AcDbPolyline
  90
4
  70
0
  10
 747.62773722628
  20
 696.68292996735
  10
 747.62773722628
  20
 694.38292996735
  10
 772.62773722628
  20
 694.38292996735
  10
 772.62773722628
  20
 696.68292996735
   0
LWPOLYLINE
   5
115
 100
AcDbEntity
   8
LEVEL001
 370
25
   6
CONTINUOUS
  62
3
 100
AcDbPolyline
  90
4
  70
1
  10
 747.62773722628
  20
 678.68292996735
  10
 747.62773722628
  20
 680.98292996735
  10
 772.62773722628
  20
 680.98292996735
  10
 772.62773722628
  20
 678.68292996735
   0
ARC
   5
116
 100
AcDbEntity
   8
LEVEL001
 370
25
   6
CONTINUOUS
  62
3
 100
AcDbCircle
  10
 747.62773722628
  20
 692.38292996735
  30
0.0
  40
 2.0000000000000
 100
AcDbArc
  50
0.0
  51
 90.000000000000
   0
ARC
   5
117
 100
AcDbEntity
   8
LEVEL001
 370
25
   6
CONTINUOUS
  62
3
 100
AcDbCircle
  10
 747.62773722628
  20
 682.98292996735
  30
0.0
  40
 2.0000000000000
 100
AcDbArc
  50
 270.00000000000
  51
0.0
   0
LINE
   5
118
 100
AcDbEntity
   8
LEVEL001
 370
25
 100
AcDbLine
   6
CONTINUOUS
  62
3
  10
 749.62773722628
  20
 692.38292996735
  30
0.0
  11
 749.62773722628
  21
 682.98292996735
  31
0.0
   0
ARC
   5
119
 100
AcDbEntity
   8
LEVEL001
 370
25
   6
CONTINUOUS
  62
3
 100
AcDbCircle
  10
 772.62773722628
  20
 692.38292996735
  30
0.0
  40
 2.0000000000000
 100
AcDbArc
  50
 90.000000000000
  51
 180.00000000000
   0
ARC
   5
11A
 100
AcDbEntity
   8
LEVEL001
 370
25
   6
CONTINUOUS
  62
3
 100
AcDbCircle
  10
 772.62773722628
  20
 682.98292996735
  30
0.0
  40
 2.0000000000000
 100
AcDbArc
  50
 180.00000000000
  51
 270.00000000000
   0
LINE
   5
11B
 100
AcDbEntity
   8
LEVEL001
 370
25
 100
AcDbLine
   6
CONTINUOUS
  62
3
  10
 770.62773722628
  20
 692.38292996735
  30
0.0
  11
 770.62773722628
  21
 682.98292996735
  31
0.0
   0
LWPOLYLINE
   5
11C
 100
AcDbEntity
   8
LEVEL001
 370
25
   6
CONTINUOUS
  62
3
 100
AcDbPolyline
  90
4
  70
0
  10
 752.42773722628
  20
 666.68292996735
  10
 752.42773722628
  20
 664.68292996735
  10
 767.82773722628
  20
 664.68292996735
  10
 767.82773722628
  20
 666.68292996735
   0
LINE
   5
11D
 100
AcDbEntity
   8
LEVEL001
 370
25
 100
AcDbLine
   6
CONTINUOUS
  62
3
  10
 761.28243776466
  20
 664.68292996735
  30
0.0
  11
 760.12773722628
  21
 666.68292996735
  31
0.0
   0
LINE
   5
11E
 100
AcDbEntity
   8
LEVEL001
 370
25
 100
AcDbLine
   6
CONTINUOUS
  62
3
  10
 760.12773722628
  20
 664.68292996735
  30
0.0
  11
 758.97303668790
  21
 666.68292996735
  31
0.0
   0
LINE
   5
11F
 100
AcDbEntity
   8
LEVEL001
 370
25
 100
AcDbLine
   6
CONTINUOUS
  62
3
  10
 754.49857210165
  20
 658.18292996735
  30
0.0
  11
 765.75690235090
  21
 658.18292996735
  31
0.0
   0
LINE
   5
120
 100
AcDbEntity
   8
LEVEL001
 370
25
 100
AcDbLine
   6
CONTINUOUS
  62
3
  10
 763.88051397600
  20
 659.05622250999
  30
0.0
  11
 763.88051397611
  21
 664.68292996735
  31
0.0
   0
LINE
   5
121
 100
AcDbEntity
   8
LEVEL001
 370
25
 100
AcDbLine
   6
CONTINUOUS
  62
3
  10
 756.37496047654
  20
 659.05622250999
  30
0.0
  11
 756.37496047654
  21
 664.68292996735
  31
0.0
   0
LINE
   5
122
 100
AcDbEntity
   8
LEVEL001
 370
25
 100
AcDbLine
   6
CONTINUOUS
  62
3
  10
 752.62218372676
  20
 664.68292996735
  30
0.0
  11
 752.62218372676
  21
 659.05622250999
  31
0.0
   0
LINE
   5
123
 100
AcDbEntity
   8
LEVEL001
 370
25
 100
AcDbLine
   6
CONTINUOUS
  62
3
  10
 767.63329072579
  20
 659.05622250999
  30
0.0
  11
 767.63329072588
  21
 664.68292996735
  31
0.0
   0
ARC
   5
124
 100
AcDbEntity
   8
LEVEL001
 370
25
   6
CONTINUOUS
  62
3
 100
AcDbCircle
  10
 765.75690235089
  20
 660.63541466709
  30
0.0
  40
 2.4524846997429
 100
AcDbArc
  50
 220.08438896347
  51
 319.91561103653
   0
ARC
   5
125
 100
AcDbEntity
   8
LEVEL001
 370
25
   6
CONTINUOUS
  62
3
 100
AcDbCircle
  10
 760.12773722628
  20
 666.68292996735
  30
0.0
  40
 8.4999999999999
 100
AcDbArc
  50
 243.80017277532
  51
 296.19982722461
   0
ARC
   5
126
 100
AcDbEntity
   8
LEVEL001
 370
25
   6
CONTINUOUS
  62
3
 100
AcDbCircle
  10
 754.49857210166
  20
 660.63541466709
  30
0.0
  40
 2.4524846997429
 100
AcDbArc
  50
 220.08438896348
  51
 319.91561103652
   0
LINE
   5
127
 100
AcDbEntity
   8
LEVEL001
 370
25
 100
AcDbLine
   6
DASHDOT
  62
3
  10
 760.12773722628
  20
 702.93133331963
  30
0.0
  11
 760.12773722628
  21
 650.21066903622
  31
0.0
   0
LINE
   5
128
 100
AcDbEntity
   8
LEVEL001
 370
25
 100
AcDbLine
   6
CONTINUOUS
  62
3
  10
 756.92773264864
  20
 675.68292996735
  30
0.0
  11
 756.92773264864
  21
 666.68292996735
  31
0.0
   0
LINE
   5
129
 100
AcDbEntity
   8
LEVEL001
 370
25
 100
AcDbLine
   6
CONTINUOUS
  62
3
  10
 756.92773264864
  20
 658.18292996735
  30
0.0
  11
 756.92773264864
  21
 654.68292996735
  31
0.0
   0
LINE
   5
12A
 100
AcDbEntity
   8
LEVEL001
 370
25
 100
AcDbLine
   6
CONTINUOUS
  62
3
  10
 756.12773722628
  20
 678.68292996735
  30
0.0
  11
 756.12773722628
  21
 666.68292996735
  31
0.0
   0
LINE
   5
12B
 100
AcDbEntity
   8
LEVEL001
 370
25
 100
AcDbLine
   6
CONTINUOUS
  62
3
  10
 763.32773417452
  20
 654.68292996735
  30
0.0
  11
 763.32773417452
  21
 658.18292996735
  31
0.0
   0
LINE
   5
12C
 100
AcDbEntity
   8
LEVEL001
 370
25
 100
AcDbLine
   6
CONTINUOUS
  62
3
  10
 763.32773417452
  20
 666.68292996735
  30
0.0
  11
 763.32773417452
  21
 675.68292996735
  31
0.0
   0
LWPOLYLINE
   5
12D
 100
AcDbEntity
   8
LEVEL001
 370
25
   6
CONTINUOUS
  62
3
 100
AcDbPolyline
  90
6
  70
0
  10
 756.12773722628
  20
 658.18292996735
  10
 756.12773722628
  20
 655.48291776032
  10
 756.92773264864
  20
 654.68292996735
  10
 763.32773417452
  20
 654.68292996735
  10
 764.12773722628
  20
 655.48291776032
  10
 764.12773722628
  20
 658.18292996735
   0
LINE
   5
12E
 100
AcDbEntity
   8
LEVEL001
 370
25
 100
AcDbLine
   6
CONTINUOUS
  62
3
  10
 764.12773722628
  20
 666.68292996735
  30
0.0
  11
 764.12773722628
  21
 678.68292996735
  31
0.0
   0
LINE
   5
12F
 100
AcDbEntity
   8
LEVEL001
 370
25
 100
AcDbLine
   6
CONTINUOUS
  62
3
  10
 986.12773722628
  20
 655.48291776032
  30
0.0
  11
 994.12773722628
  21
 655.48291776032
  31
0.0
   0
LINE
   5
130
 100
AcDbEntity
   8
LEVEL001
 370
25
 100
AcDbLine
   6
CONTINUOUS
  62
3
  10
 986.12773722628
  20
 675.68292996735
  30
0.0
  11
 994.12773722628
  21
 675.68292996735
  31
0.0
   0
LWPOLYLINE
   5
131
 100
AcDbEntity
   8
LEVEL001
 370
25
   6
CONTINUOUS
  62
3
 100
AcDbPolyline
  90
4
  70
0
  10
 977.62773722628
  20
 696.68292996735
  10
 977.62773722628
  20
 694.38292996735
  10
 1002.6277372263
  20
 694.38292996735
  10
 1002.6277372263
  20
 696.68292996735
   0
LWPOLYLINE
   5
132
 100
AcDbEntity
   8
LEVEL001
 370
25
   6
CONTINUOUS
  62
3
 100
AcDbPolyline
  90
4
  70
1
  10
 977.62773722628
  20
 678.68292996735
  10
 977.62773722628
  20
 680.98292996735
  10
 1002.6277372263
  20
 680.98292996735
  10
 1002.6277372263
  20
 678.68292996735
   0
ARC
   5
133
 100
AcDbEntity
   8
LEVEL001
 370
25
   6
CONTINUOUS
  62
3
 100
AcDbCircle
  10
 977.62773722628
  20
 692.38292996735
  30
0.0
  40
 2.0000000000000
 100
AcDbArc
  50
0.0
  51
 90.000000000000
   0
ARC
   5
134
 100
AcDbEntity
   8
LEVEL001
 370
25
   6
CONTINUOUS
  62
3
 100
AcDbCircle
  10
 977.62773722628
  20
 682.98292996735
  30
0.0
  40
 2.0000000000000
 100
AcDbArc
  50
 270.00000000000
  51
0.0
   0
LINE
   5
135
 100
AcDbEntity
   8
LEVEL001
 370
25
 100
AcDbLine
   6
CONTINUOUS
  62
3
  10
 979.62773722628
  20
 692.38292996735
  30
0.0
  11
 979.62773722628
  21
 682.98292996735
  31
0.0
   0
ARC
   5
136
 100
AcDbEntity
   8
LEVEL001
 370
25
   6
CONTINUOUS
  62
3
 100
AcDbCircle
  10
 1002.6277372263
  20
 692.38292996735
  30
0.0
  40
 2.0000000000000
 100
AcDbArc
  50
 90.000000000000
  51
 180.00000000000
   0
ARC
   5
137
 100
AcDbEntity
   8
LEVEL001
 370
25
   6
CONTINUOUS
  62
3
 100
AcDbCircle
  10
 1002.6277372263
  20
 682.98292996735
  30
0.0
  40
 2.0000000000000
 100
AcDbArc
  50
 180.00000000000
  51
 270.00000000000
   0
LINE
   5
138
 100
AcDbEntity
   8
LEVEL001
 370
25
 100
AcDbLine
   6
CONTINUOUS
  62
3
  10
 1000.6277372263
  20
 692.38292996735
  30
0.0
  11
 1000.6277372263
  21
 682.98292996735
  31
0.0
   0
LWPOLYLINE
   5
139
 100
AcDbEntity
   8
LEVEL001
 370
25
   6
CONTINUOUS
  62
3
 100
AcDbPolyline
  90
4
  70
0
  10
 982.42773722628
  20
 666.68292996735
  10
 982.42773722628
  20
 664.68292996735
  10
 997.82773722628
  20
 664.68292996735
  10
 997.82773722628
  20
 666.68292996735
   0
LINE
   5
13A
 100
AcDbEntity
   8
LEVEL001
 370
25
 100
AcDbLine
   6
CONTINUOUS
  62
3
  10
 991.28243776466
  20
 664.68292996735
  30
0.0
  11
 990.12773722628
  21
 666.68292996735
  31
0.0
   0
LINE
   5
13B
 100
AcDbEntity
   8
LEVEL001
 370
25
 100
AcDbLine
   6
CONTINUOUS
  62
3
  10
 990.12773722628
  20
 664.68292996735
  30
0.0
  11
 988.97303668790
  21
 666.68292996735
  31
0.0
   0
LINE
   5
13C
 100
AcDbEntity
   8
LEVEL001
 370
25
 100
AcDbLine
   6
CONTINUOUS
  62
3
  10
 984.49857210165
  20
 658.18292996735
  30
0.0
  11
 995.75690235090
  21
 658.18292996735
  31
0.0
   0
LINE
   5
13D
 100
AcDbEntity
   8
LEVEL001
 370
25
 100
AcDbLine
   6
CONTINUOUS
  62
3
  10
 993.88051397600
  20
 659.05622250999
  30
0.0
  11
 993.88051397611
  21
 664.68292996735
  31
0.0
   0
LINE
   5
13E
 100
AcDbEntity
   8
LEVEL001
 370
25
 100
AcDbLine
   6
CONTINUOUS
  62
3
  10
 986.37496047654
  20
 659.05622250999
  30
0.0
  11
 986.37496047654
  21
 664.68292996735
  31
0.0
   0
LINE
   5
13F
 100
AcDbEntity
   8
LEVEL001
 370
25
 100
AcDbLine
   6
CONTINUOUS
  62
3
  10
 982.62218372676
  20
 664.68292996735
  30
0.0
  11
 982.62218372676
  21
 659.05622250999
  31
0.0
   0
LINE
   5
140
 100
AcDbEntity
   8
LEVEL001
 370
25
 100
AcDbLine
   6
CONTINUOUS
  62
3
  10
 997.63329072579
  20
 659.05622250999
  30
0.0
  11
 997.63329072588
  21
 664.68292996735
  31
0.0
   0
ARC
   5
141
 100
AcDbEntity
   8
LEVEL001
 370
25
   6
CONTINUOUS
  62
3
 100
AcDbCircle
  10
 995.75690235089
  20
 660.63541466709
  30
0.0
  40
 2.4524846997429
 100
AcDbArc
  50
 220.08438896348
  51
 319.91561103652
   0
ARC
   5
142
 100
AcDbEntity
   8
LEVEL001
 370
25
   6
CONTINUOUS
  62
3
 100
AcDbCircle
  10
 990.12773722628
  20
 666.68292996735
  30
0.0
  40
 8.4999999999999
 100
AcDbArc
  50
 243.80017277532
  51
 296.19982722461
   0
ARC
   5
143
 100
AcDbEntity
   8
LEVEL001
 370
25
   6
CONTINUOUS
  62
3
 100
AcDbCircle
  10
 984.49857210166
  20
 660.63541466709
  30
0.0
  40
 2.4524846997429
 100
AcDbArc
  50
 220.08438896347
  51
 319.91561103653
   0
LINE
   5
144
 100
AcDbEntity
   8
LEVEL001
 370
25
 100
AcDbLine
   6
DASHDOT
  62
3
  10
 990.12773722628
  20
 702.93133331963
  30
0.0
  11
 990.12773722628
  21
 650.21066903622
  31
0.0
   0
LINE
   5
145
 100
AcDbEntity
   8
LEVEL001
 370
25
 100
AcDbLine
   6
CONTINUOUS
  62
3
  10
 986.92773264864
  20
 675.68292996735
  30
0.0
  11
 986.92773264864
  21
 666.68292996735
  31
0.0
   0
LINE
   5
146
 100
AcDbEntity
   8
LEVEL001
 370
25
 100
AcDbLine
   6
CONTINUOUS
  62
3
  10
 986.92773264864
  20
 658.18292996735
  30
0.0
  11
 986.92773264864
  21
 654.68292996735
  31
0.0
   0
LINE
   5
147
 100
AcDbEntity
   8
LEVEL001
 370
25
 100
AcDbLine
   6
CONTINUOUS
  62
3
  10
 986.12773722628
  20
 678.68292996735
  30
0.0
  11
 986.12773722628
  21
 666.68292996735
  31
0.0
   0
LINE
   5
148
 100
AcDbEntity
   8
LEVEL001
 370
25
 100
AcDbLine
   6
CONTINUOUS
  62
3
  10
 993.32773417452
  20
 654.68292996735
  30
0.0
  11
 993.32773417452
  21
 658.18292996735
  31
0.0
   0
LINE
   5
149
 100
AcDbEntity
   8
LEVEL001
 370
25
 100
AcDbLine
   6
CONTINUOUS
  62
3
  10
 993.32773417452
  20
 666.68292996735
  30
0.0
  11
 993.32773417452
  21
 675.68292996735
  31
0.0
   0
LWPOLYLINE
   5
14A
 100
AcDbEntity
   8
LEVEL001
 370
25
   6
CONTINUOUS
  62
3
 100
AcDbPolyline
  90
6
  70
0
  10
 986.12773722628
  20
 658.18292996735
  10
 986.12773722628
  20
 655.48291776032
  10
 986.92773264864
  20
 654.68292996735
  10
 993.32773417452
  20
 654.68292996735
  10
 994.12773722628
  20
 655.48291776032
  10
 994.12773722628
  20
 658.18292996735
   0
LINE
   5
14B
 100
AcDbEntity
   8
LEVEL001
 370
25
 100
AcDbLine
   6
CONTINUOUS
  62
3
  10
 994.12773722628
  20
 666.68292996735
  30
0.0
  11
 994.12773722628
  21
 678.68292996735
  31
0.0
   0
LINE
   5
14C
 100
AcDbEntity
   8
LEVEL001
 370
25
 100
AcDbLine
   6
DOT
  62
3
  10
 755.12773722628
  20
 868.68292996735
  30
0.0
  11
 1025.1277372263
  21
 868.68292996735
  31
0.0
   0
ENDBLK
   5
14D
 100
AcDbEntity
   8
0
 100
AcDbBlockEnd
   0
BLOCK
   5
14E
 100
AcDbEntity
   8
0
 100
AcDbBlockBegin
   2
BLOCK007
  70
64
  10
0.0
  20
0.0
  30
0.0
   3
BLOCK007
   0
LINE
   5
14F
 100
AcDbEntity
   8
LEVEL001
 370
25
 100
AcDbLine
   6
CONTINUOUS
  62
3
  10
 944.73542613009
  20
 607.68292996735
  30
0.0
  11
 965.52003306368
  21
 607.68292996735
  31
0.0
   0
LINE
   5
150
 100
AcDbEntity
   8
LEVEL001
 370
25
 100
AcDbLine
   6
CONTINUOUS
  62
3
  10
 948.19953745821
  20
 606.20710961362
  30
0.0
  11
 948.19953745821
  21
 594.68292996735
  31
0.0
   0
LINE
   5
151
 100
AcDbEntity
   8
LEVEL001
 370
25
 100
AcDbLine
   6
CONTINUOUS
  62
3
  10
 962.05593699434
  20
 606.20710961362
  30
0.0
  11
 962.05593699434
  21
 594.68292996735
  31
0.0
   0
LINE
   5
152
 100
AcDbEntity
   8
LEVEL001
 370
25
 100
AcDbLine
   6
CONTINUOUS
  62
3
  10
 968.98414439181
  20
 594.68292996735
  30
0.0
  11
 968.98414439181
  21
 606.20710961362
  31
0.0
   0
LINE
   5
153
 100
AcDbEntity
   8
LEVEL001
 370
25
 100
AcDbLine
   6
CONTINUOUS
  62
3
  10
 941.27133006075
  20
 606.20710961362
  30
0.0
  11
 941.27133006075
  21
 594.68292996735
  31
0.0
   0
ARC
   5
154
 100
AcDbEntity
   8
LEVEL001
 370
25
   6
CONTINUOUS
  62
3
 100
AcDbCircle
  10
 944.73543375948
  20
 602.87947942672
  30
0.0
  40
 4.8034505406353
 100
AcDbArc
  50
 43.848850055191
  51
 136.15114994481
   0
ARC
   5
155
 100
AcDbEntity
   8
LEVEL001
 370
25
   6
CONTINUOUS
  62
3
 100
AcDbCircle
  10
 955.12772959688
  20
 590.68292996735
  30
0.0
  40
 17.000000000002
 100
AcDbArc
  50
 65.949513391854
  51
 114.05043964541
   0
ARC
   5
156
 100
AcDbEntity
   8
LEVEL001
 370
25
   6
CONTINUOUS
  62
3
 100
AcDbCircle
  10
 965.52004069307
  20
 602.87947942672
  30
0.0
  40
 4.8034505406354
 100
AcDbArc
  50
 43.848850055191
  51
 136.15121973591
   0
LWPOLYLINE
   5
157
 100
AcDbEntity
   8
LEVEL001
 370
25
   6
CONTINUOUS
  62
3
 100
AcDbPolyline
  90
4
  70
0
  10
 969.12774462935
  20
 666.68292996735
  10
 969.12774462935
  20
 662.68292996735
  10
 941.12774462935
  20
 662.68292996735
  10
 941.12774462935
  20
 666.68292996735
   0
LINE
   5
158
 100
AcDbEntity
   8
LEVEL001
 370
25
 100
AcDbLine
   6
CONTINUOUS
  62
3
  10
 952.81834216353
  20
 662.68292996735
  30
0.0
  11
 955.12774462935
  21
 666.68292996735
  31
0.0
   0
LINE
   5
159
 100
AcDbEntity
   8
LEVEL001
 370
25
 100
AcDbLine
   6
CONTINUOUS
  62
3
  10
 955.12774462935
  20
 662.68292996735
  30
0.0
  11
 957.43714709517
  21
 666.68292996735
  31
0.0
   0
LINE
   5
15A
 100
AcDbEntity
   8
LEVEL001
 370
25
 100
AcDbLine
   6
CONTINUOUS
  62
3
  10
 948.19955249068
  20
 651.15875032108
  30
0.0
  11
 948.19955249068
  21
 662.68292996735
  31
0.0
   0
LINE
   5
15B
 100
AcDbEntity
   8
LEVEL001
 370
25
 100
AcDbLine
   6
CONTINUOUS
  62
3
  10
 962.05595202681
  20
 651.15875032108
  30
0.0
  11
 962.05595202681
  21
 662.68292996735
  31
0.0
   0
LINE
   5
15C
 100
AcDbEntity
   8
LEVEL001
 370
25
 100
AcDbLine
   6
CONTINUOUS
  62
3
  10
 968.98415942427
  20
 662.68292996735
  30
0.0
  11
 968.98415942427
  21
 651.15875032108
  31
0.0
   0
LINE
   5
15D
 100
AcDbEntity
   8
LEVEL001
 370
25
 100
AcDbLine
   6
CONTINUOUS
  62
3
  10
 941.27134509322
  20
 651.15875032108
  30
0.0
  11
 941.27134509322
  21
 662.68292996735
  31
0.0
   0
ARC
   5
15E
 100
AcDbEntity
   8
LEVEL001
 370
25
   6
CONTINUOUS
  62
3
 100
AcDbCircle
  10
 965.52005572554
  20
 654.48638050798
  30
0.0
  40
 4.8034505406354
 100
AcDbArc
  50
 223.84878026409
  51
 316.15114994481
   0
ARC
   5
15F
 100
AcDbEntity
   8
LEVEL001
 370
25
   6
CONTINUOUS
  62
3
 100
AcDbCircle
  10
 955.12774462935
  20
 666.68292996735
  30
0.0
  40
 17.000000000002
 100
AcDbArc
  50
 245.94956035459
  51
 294.05048660815
   0
ARC
   5
160
 100
AcDbEntity
   8
LEVEL001
 370
25
   6
CONTINUOUS
  62
3
 100
AcDbCircle
  10
 944.73544879195
  20
 654.48638050798
  30
0.0
  40
 4.8034505406353
 100
AcDbArc
  50
 223.84885005519
  51
 316.15114994481
   0
LINE
   5
161
 100
AcDbEntity
   8
LEVEL001
 370
25
 100
AcDbLine
   6
CONTINUOUS
  62
3
  10
 944.73544116255
  20
 649.68292996735
  30
0.0
  11
 965.52004809615
  21
 649.68292996735
  31
0.0
   0
LINE
   5
162
 100
AcDbEntity
   8
LEVEL001
 370
25
 100
AcDbLine
   6
CONTINUOUS
  62
3
  10
 947.12772959688
  20
 607.68292996735
  30
0.0
  11
 947.12774462935
  21
 649.68292996735
  31
0.0
   0
LINE
   5
163
 100
AcDbEntity
   8
LEVEL001
 370
25
 100
AcDbLine
   6
CONTINUOUS
  62
3
  10
 948.88775439497
  20
 649.68292996735
  30
0.0
  11
 948.88773936251
  21
 607.68292996735
  31
0.0
   0
LINE
   5
164
 100
AcDbEntity
   8
LEVEL001
 370
25
 100
AcDbLine
   6
CONTINUOUS
  62
3
  10
 961.36773509005
  20
 607.68292996735
  30
0.0
  11
 961.36775012251
  21
 649.68292996735
  31
0.0
   0
LINE
   5
165
 100
AcDbEntity
   8
LEVEL001
 370
25
 100
AcDbLine
   6
CONTINUOUS
  62
3
  10
 963.12774462935
  20
 649.68292996735
  30
0.0
  11
 963.12772959688
  21
 607.68292996735
  31
0.0
   0
LINE
   5
166
 100
AcDbEntity
   8
LEVEL001
 370
25
 100
AcDbLine
   6
DASHDOT
  62
3
  10
 955.12773722628
  20
 535.84262375407
  30
0.0
  11
 955.12775265451
  21
 685.67759747804
  31
0.0
   0
LWPOLYLINE
   5
167
 100
AcDbEntity
   8
LEVEL001
 370
25
   6
CONTINUOUS
  62
3
 100
AcDbPolyline
  90
4
  70
0
  10
 969.12772959688
  20
 578.68292996735
  10
 969.12772959688
  20
 574.68292996735
  10
 941.12772959688
  20
 574.68292996735
  10
 941.12772959688
  20
 578.68292996735
   0
LINE
   5
168
 100
AcDbEntity
   8
LEVEL001
 370
25
 100
AcDbLine
   6
CONTINUOUS
  62
3
  10
 952.81832713106
  20
 574.68292996735
  30
0.0
  11
 955.12772959688
  21
 578.68292996735
  31
0.0
   0
LINE
   5
169
 100
AcDbEntity
   8
LEVEL001
 370
25
 100
AcDbLine
   6
CONTINUOUS
  62
3
  10
 955.12772959688
  20
 574.68292996735
  30
0.0
  11
 957.43713206270
  21
 578.68292996735
  31
0.0
   0
LINE
   5
16A
 100
AcDbEntity
   8
LEVEL001
 370
25
 100
AcDbLine
   6
CONTINUOUS
  62
3
  10
 944.73542613009
  20
 561.68292996735
  30
0.0
  11
 965.52003306368
  21
 561.68292996735
  31
0.0
   0
LINE
   5
16B
 100
AcDbEntity
   8
LEVEL001
 370
25
 100
AcDbLine
   6
CONTINUOUS
  62
3
  10
 948.19953745821
  20
 563.15875032108
  30
0.0
  11
 948.19953745821
  21
 574.68292996735
  31
0.0
   0
LINE
   5
16C
 100
AcDbEntity
   8
LEVEL001
 370
25
 100
AcDbLine
   6
CONTINUOUS
  62
3
  10
 962.05593699434
  20
 563.15875032108
  30
0.0
  11
 962.05593699434
  21
 574.68292996735
  31
0.0
   0
LINE
   5
16D
 100
AcDbEntity
   8
LEVEL001
 370
25
 100
AcDbLine
   6
CONTINUOUS
  62
3
  10
 968.98414439181
  20
 574.68292996735
  30
0.0
  11
 968.98414439181
  21
 563.15875032108
  31
0.0
   0
LINE
   5
16E
 100
AcDbEntity
   8
LEVEL001
 370
25
 100
AcDbLine
   6
CONTINUOUS
  62
3
  10
 941.27133006075
  20
 563.15875032108
  30
0.0
  11
 941.27133006075
  21
 574.68292996735
  31
0.0
   0
ARC
   5
16F
 100
AcDbEntity
   8
LEVEL001
 370
25
   6
CONTINUOUS
  62
3
 100
AcDbCircle
  10
 944.73543375948
  20
 566.48638050798
  30
0.0
  40
 4.8034505406353
 100
AcDbArc
  50
 223.84885005519
  51
 316.15114994481
   0
ARC
   5
170
 100
AcDbEntity
   8
LEVEL001
 370
25
   6
CONTINUOUS
  62
3
 100
AcDbCircle
  10
 955.12772959688
  20
 578.68292996735
  30
0.0
  40
 17.000000000002
 100
AcDbArc
  50
 245.94956035459
  51
 294.05048660815
   0
ARC
   5
171
 100
AcDbEntity
   8
LEVEL001
 370
25
   6
CONTINUOUS
  62
3
 100
AcDbCircle
  10
 965.52004069307
  20
 566.48638050798
  30
0.0
  40
 4.8034505406354
 100
AcDbArc
  50
 223.84878026409
  51
 316.15114994481
   0
LWPOLYLINE
   5
172
 100
AcDbEntity
   8
LEVEL001
 370
25
   6
CONTINUOUS
  62
3
 100
AcDbPolyline
  90
6
  70
0
  10
 947.12772959688
  20
 561.68292996735
  10
 947.12772959688
  20
 547.44292828888
  10
 948.88773936251
  20
 545.68292996735
  10
 961.36773509005
  20
 545.68292996735
  10
 963.12772959688
  20
 547.44292828888
  10
 963.12772959688
  20
 561.68292996735
   0
LINE
   5
173
 100
AcDbEntity
   8
LEVEL001
 370
25
 100
AcDbLine
   6
CONTINUOUS
  62
3
  10
 961.36773509005
  20
 545.68292996735
  30
0.0
  11
 961.36773509005
  21
 561.68292996735
  31
0.0
   0
LINE
   5
174
 100
AcDbEntity
   8
LEVEL001
 370
25
 100
AcDbLine
   6
CONTINUOUS
  62
3
  10
 948.88773936251
  20
 545.68292996735
  30
0.0
  11
 948.88773936251
  21
 561.68292996735
  31
0.0
   0
LINE
   5
175
 100
AcDbEntity
   8
LEVEL001
 370
25
 100
AcDbLine
   6
CONTINUOUS
  62
3
  10
 947.12772959688
  20
 547.44292828888
  30
0.0
  11
 963.12772959688
  21
 547.44292828888
  31
0.0
   0
ENDBLK
   5
176
 100
AcDbEntity
   8
0
 100
AcDbBlockEnd
   0
BLOCK
   5
177
 100
AcDbEntity
   8
0
 100
AcDbBlockBegin
   2
BLOCK008
  70
64
  10
0.0
  20
0.0
  30
0.0
   3
BLOCK008
   0
LINE
   5
178
 100
AcDbEntity
   8
LEVEL001
 370
25
 100
AcDbLine
   6
CONTINUOUS
  62
3
  10
 784.73542613009
  20
 607.68292996735
  30
0.0
  11
 805.52003306368
  21
 607.68292996735
  31
0.0
   0
LINE
   5
179
 100
AcDbEntity
   8
LEVEL001
 370
25
 100
AcDbLine
   6
CONTINUOUS
  62
3
  10
 788.19953745821
  20
 606.20710961362
  30
0.0
  11
 788.19953745821
  21
 594.68292996735
  31
0.0
   0
LINE
   5
17A
 100
AcDbEntity
   8
LEVEL001
 370
25
 100
AcDbLine
   6
CONTINUOUS
  62
3
  10
 802.05593699434
  20
 606.20710961362
  30
0.0
  11
 802.05593699434
  21
 594.68292996735
  31
0.0
   0
LINE
   5
17B
 100
AcDbEntity
   8
LEVEL001
 370
25
 100
AcDbLine
   6
CONTINUOUS
  62
3
  10
 808.98414439180
  20
 594.68292996735
  30
0.0
  11
 808.98414439180
  21
 606.20710961362
  31
0.0
   0
LINE
   5
17C
 100
AcDbEntity
   8
LEVEL001
 370
25
 100
AcDbLine
   6
CONTINUOUS
  62
3
  10
 781.27133006075
  20
 606.20710961362
  30
0.0
  11
 781.27133006075
  21
 594.68292996735
  31
0.0
   0
ARC
   5
17D
 100
AcDbEntity
   8
LEVEL001
 370
25
   6
CONTINUOUS
  62
3
 100
AcDbCircle
  10
 784.73543375948
  20
 602.87947942672
  30
0.0
  40
 4.8034505406353
 100
AcDbArc
  50
 43.848850055191
  51
 136.15114994481
   0
ARC
   5
17E
 100
AcDbEntity
   8
LEVEL001
 370
25
   6
CONTINUOUS
  62
3
 100
AcDbCircle
  10
 795.12772959688
  20
 590.68292996735
  30
0.0
  40
 17.000000000002
 100
AcDbArc
  50
 65.949513391854
  51
 114.05043964541
   0
ARC
   5
17F
 100
AcDbEntity
   8
LEVEL001
 370
25
   6
CONTINUOUS
  62
3
 100
AcDbCircle
  10
 805.52004069307
  20
 602.87947942672
  30
0.0
  40
 4.8034505406354
 100
AcDbArc
  50
 43.848850055191
  51
 136.15121973591
   0
LWPOLYLINE
   5
180
 100
AcDbEntity
   8
LEVEL001
 370
25
   6
CONTINUOUS
  62
3
 100
AcDbPolyline
  90
4
  70
0
  10
 809.12774462935
  20
 666.68292996735
  10
 809.12774462935
  20
 662.68292996735
  10
 781.12774462935
  20
 662.68292996735
  10
 781.12774462935
  20
 666.68292996735
   0
LINE
   5
181
 100
AcDbEntity
   8
LEVEL001
 370
25
 100
AcDbLine
   6
CONTINUOUS
  62
3
  10
 792.81834216353
  20
 662.68292996735
  30
0.0
  11
 795.12774462935
  21
 666.68292996735
  31
0.0
   0
LINE
   5
182
 100
AcDbEntity
   8
LEVEL001
 370
25
 100
AcDbLine
   6
CONTINUOUS
  62
3
  10
 795.12774462935
  20
 662.68292996735
  30
0.0
  11
 797.43714709517
  21
 666.68292996735
  31
0.0
   0
LINE
   5
183
 100
AcDbEntity
   8
LEVEL001
 370
25
 100
AcDbLine
   6
CONTINUOUS
  62
3
  10
 788.19955249068
  20
 651.15875032108
  30
0.0
  11
 788.19955249068
  21
 662.68292996735
  31
0.0
   0
LINE
   5
184
 100
AcDbEntity
   8
LEVEL001
 370
25
 100
AcDbLine
   6
CONTINUOUS
  62
3
  10
 802.05595202681
  20
 651.15875032108
  30
0.0
  11
 802.05595202681
  21
 662.68292996735
  31
0.0
   0
LINE
   5
185
 100
AcDbEntity
   8
LEVEL001
 370
25
 100
AcDbLine
   6
CONTINUOUS
  62
3
  10
 808.98415942427
  20
 662.68292996735
  30
0.0
  11
 808.98415942427
  21
 651.15875032108
  31
0.0
   0
LINE
   5
186
 100
AcDbEntity
   8
LEVEL001
 370
25
 100
AcDbLine
   6
CONTINUOUS
  62
3
  10
 781.27134509322
  20
 651.15875032108
  30
0.0
  11
 781.27134509322
  21
 662.68292996735
  31
0.0
   0
ARC
   5
187
 100
AcDbEntity
   8
LEVEL001
 370
25
   6
CONTINUOUS
  62
3
 100
AcDbCircle
  10
 805.52005572554
  20
 654.48638050798
  30
0.0
  40
 4.8034505406354
 100
AcDbArc
  50
 223.84878026409
  51
 316.15114994481
   0
ARC
   5
188
 100
AcDbEntity
   8
LEVEL001
 370
25
   6
CONTINUOUS
  62
3
 100
AcDbCircle
  10
 795.12774462935
  20
 666.68292996735
  30
0.0
  40
 17.000000000002
 100
AcDbArc
  50
 245.94956035459
  51
 294.05048660815
   0
ARC
   5
189
 100
AcDbEntity
   8
LEVEL001
 370
25
   6
CONTINUOUS
  62
3
 100
AcDbCircle
  10
 784.73544879195
  20
 654.48638050798
  30
0.0
  40
 4.8034505406353
 100
AcDbArc
  50
 223.84885005519
  51
 316.15114994481
   0
LINE
   5
18A
 100
AcDbEntity
   8
LEVEL001
 370
25
 100
AcDbLine
   6
CONTINUOUS
  62
3
  10
 784.73544116255
  20
 649.68292996735
  30
0.0
  11
 805.52004809614
  21
 649.68292996735
  31
0.0
   0
LINE
   5
18B
 100
AcDbEntity
   8
LEVEL001
 370
25
 100
AcDbLine
   6
CONTINUOUS
  62
3
  10
 787.12772959688
  20
 607.68292996735
  30
0.0
  11
 787.12774462935
  21
 649.68292996735
  31
0.0
   0
LINE
   5
18C
 100
AcDbEntity
   8
LEVEL001
 370
25
 100
AcDbLine
   6
CONTINUOUS
  62
3
  10
 788.88775439497
  20
 649.68292996735
  30
0.0
  11
 788.88773936251
  21
 607.68292996735
  31
0.0
   0
LINE
   5
18D
 100
AcDbEntity
   8
LEVEL001
 370
25
 100
AcDbLine
   6
CONTINUOUS
  62
3
  10
 801.36773509005
  20
 607.68292996735
  30
0.0
  11
 801.36775012251
  21
 649.68292996735
  31
0.0
   0
LINE
   5
18E
 100
AcDbEntity
   8
LEVEL001
 370
25
 100
AcDbLine
   6
CONTINUOUS
  62
3
  10
 803.12774462935
  20
 649.68292996735
  30
0.0
  11
 803.12772959688
  21
 607.68292996735
  31
0.0
   0
LINE
   5
18F
 100
AcDbEntity
   8
LEVEL001
 370
25
 100
AcDbLine
   6
DASHDOT
  62
3
  10
 795.12773722628
  20
 535.84262375407
  30
0.0
  11
 795.12775265451
  21
 685.67759747804
  31
0.0
   0
LWPOLYLINE
   5
190
 100
AcDbEntity
   8
LEVEL001
 370
25
   6
CONTINUOUS
  62
3
 100
AcDbPolyline
  90
4
  70
0
  10
 809.12772959688
  20
 578.68292996735
  10
 809.12772959688
  20
 574.68292996735
  10
 781.12772959688
  20
 574.68292996735
  10
 781.12772959688
  20
 578.68292996735
   0
LINE
   5
191
 100
AcDbEntity
   8
LEVEL001
 370
25
 100
AcDbLine
   6
CONTINUOUS
  62
3
  10
 792.81832713106
  20
 574.68292996735
  30
0.0
  11
 795.12772959688
  21
 578.68292996735
  31
0.0
   0
LINE
   5
192
 100
AcDbEntity
   8
LEVEL001
 370
25
 100
AcDbLine
   6
CONTINUOUS
  62
3
  10
 795.12772959688
  20
 574.68292996735
  30
0.0
  11
 797.43713206270
  21
 578.68292996735
  31
0.0
   0
LINE
   5
193
 100
AcDbEntity
   8
LEVEL001
 370
25
 100
AcDbLine
   6
CONTINUOUS
  62
3
  10
 784.73542613009
  20
 561.68292996735
  30
0.0
  11
 805.52003306368
  21
 561.68292996735
  31
0.0
   0
LINE
   5
194
 100
AcDbEntity
   8
LEVEL001
 370
25
 100
AcDbLine
   6
CONTINUOUS
  62
3
  10
 788.19953745821
  20
 563.15875032108
  30
0.0
  11
 788.19953745821
  21
 574.68292996735
  31
0.0
   0
LINE
   5
195
 100
AcDbEntity
   8
LEVEL001
 370
25
 100
AcDbLine
   6
CONTINUOUS
  62
3
  10
 802.05593699434
  20
 563.15875032108
  30
0.0
  11
 802.05593699434
  21
 574.68292996735
  31
0.0
   0
LINE
   5
196
 100
AcDbEntity
   8
LEVEL001
 370
25
 100
AcDbLine
   6
CONTINUOUS
  62
3
  10
 808.98414439180
  20
 574.68292996735
  30
0.0
  11
 808.98414439180
  21
 563.15875032108
  31
0.0
   0
LINE
   5
197
 100
AcDbEntity
   8
LEVEL001
 370
25
 100
AcDbLine
   6
CONTINUOUS
  62
3
  10
 781.27133006075
  20
 563.15875032108
  30
0.0
  11
 781.27133006075
  21
 574.68292996735
  31
0.0
   0
ARC
   5
198
 100
AcDbEntity
   8
LEVEL001
 370
25
   6
CONTINUOUS
  62
3
 100
AcDbCircle
  10
 784.73543375948
  20
 566.48638050798
  30
0.0
  40
 4.8034505406353
 100
AcDbArc
  50
 223.84885005519
  51
 316.15114994481
   0
ARC
   5
199
 100
AcDbEntity
   8
LEVEL001
 370
25
   6
CONTINUOUS
  62
3
 100
AcDbCircle
  10
 795.12772959688
  20
 578.68292996735
  30
0.0
  40
 17.000000000002
 100
AcDbArc
  50
 245.94956035459
  51
 294.05048660815
   0
ARC
   5
19A
 100
AcDbEntity
   8
LEVEL001
 370
25
   6
CONTINUOUS
  62
3
 100
AcDbCircle
  10
 805.52004069307
  20
 566.48638050798
  30
0.0
  40
 4.8034505406354
 100
AcDbArc
  50
 223.84878026409
  51
 316.15114994481
   0
LWPOLYLINE
   5
19B
 100
AcDbEntity
   8
LEVEL001
 370
25
   6
CONTINUOUS
  62
3
 100
AcDbPolyline
  90
6
  70
0
  10
 787.12772959688
  20
 561.68292996735
  10
 787.12772959688
  20
 547.44292828888
  10
 788.88773936251
  20
 545.68292996735
  10
 801.36773509005
  20
 545.68292996735
  10
 803.12772959688
  20
 547.44292828888
  10
 803.12772959688
  20
 561.68292996735
   0
LINE
   5
19C
 100
AcDbEntity
   8
LEVEL001
 370
25
 100
AcDbLine
   6
CONTINUOUS
  62
3
  10
 801.36773509005
  20
 545.68292996735
  30
0.0
  11
 801.36773509005
  21
 561.68292996735
  31
0.0
   0
LINE
   5
19D
 100
AcDbEntity
   8
LEVEL001
 370
25
 100
AcDbLine
   6
CONTINUOUS
  62
3
  10
 788.88773936251
  20
 545.68292996735
  30
0.0
  11
 788.88773936251
  21
 561.68292996735
  31
0.0
   0
LINE
   5
19E
 100
AcDbEntity
   8
LEVEL001
 370
25
 100
AcDbLine
   6
CONTINUOUS
  62
3
  10
 787.12772959688
  20
 547.44292828888
  30
0.0
  11
 803.12772959688
  21
 547.44292828888
  31
0.0
   0
ENDBLK
   5
19F
 100
AcDbEntity
   8
0
 100
AcDbBlockEnd
   0
BLOCK
   5
1A0
 100
AcDbEntity
   8
0
 100
AcDbBlockBegin
   2
*D3
  70
65
  10
0.0
  20
0.0
  30
0.0
   3
*D3
   0
LINE
   5
1A1
 100
AcDbEntity
   8
LEVEL001
 370
25
 100
AcDbLine
   6
CONTINUOUS
  62
3
  10
 1025.1277372263
  20
 407.68292996735
  30
0.0
  11
 1143.0748675895
  21
 407.68292996735
  31
0.0
   0
LINE
   5
1A2
 100
AcDbEntity
   8
LEVEL001
 370
25
 100
AcDbLine
   6
CONTINUOUS
  62
3
  10
 1128.0748675895
  20
 363.68292996735
  30
0.0
  11
 1128.0748675895
  21
 398.18292996735
  31
0.0
   0
LINE
   5
1A3
 100
AcDbEntity
   8
LEVEL001
 370
25
 100
AcDbLine
   6
CONTINUOUS
  62
3
  10
 1128.0748675895
  20
 494.75721339266
  30
0.0
  11
 1128.0748675895
  21
 398.18292996735
  31
0.0
   0
INSERT
   5
1A4
 100
AcDbEntity
   8
LEVEL001
   6
CONTINUOUS
  62
3
 100
AcDbBlockReference
   2
_OPEN30
  10
 1128.0748675895
  20
 388.68292996735
  30
0.0
  41
 20.000000000000
  42
 20.000000000000
  43
 20.000000000000
  50
 90.000000000000
   0
INSERT
   5
1A5
 100
AcDbEntity
   8
LEVEL001
   6
CONTINUOUS
  62
3
 100
AcDbBlockReference
   2
_OPEN30
  10
 1128.0748675895
  20
 407.68292996735
  30
0.0
  41
 20.000000000000
  42
 20.000000000000
  43
 20.000000000000
  50
 270.00000000000
   0
MTEXT
   5
1A6
 100
AcDbEntity
   8
LEVEL001
 370
40
  62
7
 100
AcDbMText
  10
 1114.5421210166
  20
 424.75721339266
  30
0.0
  40
 25.000000000000
  41
0.0
  71
7
  72
1
   1
\A1;１９
   7
GMM003
  11
0.0
  21
 1.0000000000000
  31
0.0
   0
ENDBLK
   5
1A7
 100
AcDbEntity
   8
0
 100
AcDbBlockEnd
   0
BLOCK
   5
1A8
 100
AcDbEntity
   8
0
 100
AcDbBlockBegin
   2
*D4
  70
65
  10
0.0
  20
0.0
  30
0.0
   3
*D4
   0
LINE
   5
1A9
 100
AcDbEntity
   8
LEVEL001
 370
25
 100
AcDbLine
   6
CONTINUOUS
  62
3
  10
 1025.1277372263
  20
 388.68292996735
  30
0.0
  11
 1200.1470368969
  21
 388.68292996735
  31
0.0
   0
LINE
   5
1AA
 100
AcDbEntity
   8
LEVEL001
 370
25
 100
AcDbLine
   6
CONTINUOUS
  62
3
  10
 1185.1470368969
  20
 388.68292996735
  30
0.0
  11
 1185.1470368969
  21
 653.68292996735
  31
0.0
   0
LINE
   5
1AB
 100
AcDbEntity
   8
LEVEL001
 370
25
 100
AcDbLine
   6
CONTINUOUS
  62
3
  10
 1185.1470368969
  20
 918.68292996735
  30
0.0
  11
 1185.1470368969
  21
 653.68292996735
  31
0.0
   0
INSERT
   5
1AC
 100
AcDbEntity
   8
LEVEL001
   6
CONTINUOUS
  62
3
 100
AcDbBlockReference
   2
_OPEN30
  10
 1185.1470368969
  20
 388.68292996735
  30
0.0
  41
 20.000000000000
  42
 20.000000000000
  43
 20.000000000000
  50
 270.00000000000
   0
INSERT
   5
1AD
 100
AcDbEntity
   8
LEVEL001
   6
CONTINUOUS
  62
3
 100
AcDbBlockReference
   2
_OPEN30
  10
 1185.1470368969
  20
 918.68292996735
  30
0.0
  41
 20.000000000000
  42
 20.000000000000
  43
 20.000000000000
  50
 90.000000000000
   0
MTEXT
   5
1AE
 100
AcDbEntity
   8
LEVEL001
 370
40
  62
7
 100
AcDbMText
  10
 1174.4327511826
  20
 653.68292996735
  30
0.0
  40
 25.000000000000
  41
0.0
  71
8
  72
1
   1
\A1;５３０
   7
GMM003
  11
0.0
  21
 1.0000000000000
  31
0.0
   0
ENDBLK
   5
1AF
 100
AcDbEntity
   8
0
 100
AcDbBlockEnd
   0
BLOCK
   5
1B0
 100
AcDbEntity
   8
0
 100
AcDbBlockBegin
   2
BLOCK009
  70
64
  10
0.0
  20
0.0
  30
0.0
   3
BLOCK009
   0
LWPOLYLINE
   5
1B1
 100
AcDbEntity
   8
LEVEL001
 370
40
   6
CONTINUOUS
  62
7
 100
AcDbPolyline
  90
4
  70
1
  10
 775.12773722628
  20
 407.68292996735
  10
 975.12774485567
  20
 407.68292996735
  10
 975.12774485567
  20
 423.68292996735
  10
 775.12773722628
  20
 423.68292996735
   0
LWPOLYLINE
   5
1B2
 100
AcDbEntity
   8
LEVEL001
 370
40
   6
CONTINUOUS
  62
7
 100
AcDbPolyline
  90
4
  70
1
  10
 775.12773722628
  20
 578.68292996735
  10
 975.12774485567
  20
 578.68292996735
  10
 975.12774485567
  20
 594.68292996735
  10
 775.12773722628
  20
 594.68292996735
   0
LINE
   5
1B3
 100
AcDbEntity
   8
LEVEL001
 370
40
 100
AcDbLine
   6
CONTINUOUS
  62
7
  10
 836.97773722628
  20
 578.68292996735
  30
0.0
  11
 836.97773722628
  21
 423.68292996735
  31
0.0
   0
LINE
   5
1B4
 100
AcDbEntity
   8
LEVEL001
 370
40
 100
AcDbLine
   6
CONTINUOUS
  62
7
  10
 913.27773722628
  20
 578.68292996735
  30
0.0
  11
 913.27773722628
  21
 423.68292996735
  31
0.0
   0
LINE
   5
1B5
 100
AcDbEntity
   8
LEVEL001
 370
25
 100
AcDbLine
   6
DOT
  62
3
  10
 841.17773722628
  20
 578.68292996735
  30
0.0
  11
 841.17773722628
  21
 423.68292996735
  31
0.0
   0
LINE
   5
1B6
 100
AcDbEntity
   8
LEVEL001
 370
25
 100
AcDbLine
   6
DOT
  62
3
  10
 909.07773722628
  20
 578.68292996735
  30
0.0
  11
 909.07773722628
  21
 423.68292996735
  31
0.0
   0
ENDBLK
   5
1B7
 100
AcDbEntity
   8
0
 100
AcDbBlockEnd
   0
BLOCK
   5
1B8
 100
AcDbEntity
   8
0
 100
AcDbBlockBegin
   2
*D5
  70
65
  10
0.0
  20
0.0
  30
0.0
   3
*D5
   0
LINE
   5
1B9
 100
AcDbEntity
   8
LEVEL001
 370
25
 100
AcDbLine
   6
CONTINUOUS
  62
3
  10
 545.12773722628
  20
 1016.0874846668
  30
0.0
  11
 545.12773722628
  21
 1067.0093911341
  31
0.0
   0
LINE
   5
1BA
 100
AcDbEntity
   8
LEVEL001
 370
25
 100
AcDbLine
   6
CONTINUOUS
  62
3
  10
 545.12773722628
  20
 1052.0093911341
  30
0.0
  11
 600.12773722628
  21
 1052.0093911341
  31
0.0
   0
LINE
   5
1BB
 100
AcDbEntity
   8
LEVEL001
 370
25
 100
AcDbLine
   6
CONTINUOUS
  62
3
  10
 655.12773722628
  20
 1052.0093911341
  30
0.0
  11
 600.12773722628
  21
 1052.0093911341
  31
0.0
   0
INSERT
   5
1BC
 100
AcDbEntity
   8
LEVEL001
   6
CONTINUOUS
  62
3
 100
AcDbBlockReference
   2
_OPEN30
  10
 545.12773722628
  20
 1052.0093911341
  30
0.0
  41
 20.000000000000
  42
 20.000000000000
  43
 20.000000000000
  50
 180.00000000000
   0
INSERT
   5
1BD
 100
AcDbEntity
   8
LEVEL001
   6
CONTINUOUS
  62
3
 100
AcDbBlockReference
   2
_OPEN30
  10
 655.12773722628
  20
 1052.0093911341
  30
0.0
  41
 20.000000000000
  42
 20.000000000000
  43
 20.000000000000
  50
0.0
   0
MTEXT
   5
1BE
 100
AcDbEntity
   8
LEVEL001
 370
40
  62
7
 100
AcDbMText
  10
 600.12773722628
  20
 1062.7236768483
  30
0.0
  40
 25.000000000000
  41
0.0
  71
8
  72
1
   1
\A1;１１０
   7
GMM003
   0
ENDBLK
   5
1BF
 100
AcDbEntity
   8
0
 100
AcDbBlockEnd
   0
BLOCK
   5
1C0
 100
AcDbEntity
   8
0
 100
AcDbBlockBegin
   2
*D6
  70
65
  10
0.0
  20
0.0
  30
0.0
   3
*D6
   0
LINE
   5
1C1
 100
AcDbEntity
   8
LEVEL001
 370
25
 100
AcDbLine
   6
CONTINUOUS
  62
3
  10
 655.12773722628
  20
 928.68292996735
  30
0.0
  11
 655.12773722628
  21
 1067.0093911341
  31
0.0
   0
LINE
   5
1C2
 100
AcDbEntity
   8
LEVEL001
 370
25
 100
AcDbLine
   6
CONTINUOUS
  62
3
  10
 1335.1277372263
  20
 928.68292996735
  30
0.0
  11
 1335.1277372263
  21
 1067.0093911341
  31
0.0
   0
LINE
   5
1C3
 100
AcDbEntity
   8
LEVEL001
 370
25
 100
AcDbLine
   6
CONTINUOUS
  62
3
  10
 655.12773722628
  20
 1052.0093911341
  30
0.0
  11
 995.12773722628
  21
 1052.0093911341
  31
0.0
   0
LINE
   5
1C4
 100
AcDbEntity
   8
LEVEL001
 370
25
 100
AcDbLine
   6
CONTINUOUS
  62
3
  10
 1335.1277372263
  20
 1052.0093911341
  30
0.0
  11
 995.12773722628
  21
 1052.0093911341
  31
0.0
   0
INSERT
   5
1C5
 100
AcDbEntity
   8
LEVEL001
   6
CONTINUOUS
  62
3
 100
AcDbBlockReference
   2
_OPEN30
  10
 655.12773722628
  20
 1052.0093911341
  30
0.0
  41
 20.000000000000
  42
 20.000000000000
  43
 20.000000000000
  50
 180.00000000000
   0
INSERT
   5
1C6
 100
AcDbEntity
   8
LEVEL001
   6
CONTINUOUS
  62
3
 100
AcDbBlockReference
   2
_OPEN30
  10
 1335.1277372263
  20
 1052.0093911341
  30
0.0
  41
 20.000000000000
  42
 20.000000000000
  43
 20.000000000000
  50
0.0
   0
MTEXT
   5
1C7
 100
AcDbEntity
   8
LEVEL001
 370
40
  62
7
 100
AcDbMText
  10
 995.12773722628
  20
 1062.7236768483
  30
0.0
  40
 25.000000000000
  41
0.0
  71
8
  72
1
   1
\A1;６８０
   7
GMM003
   0
ENDBLK
   5
1C8
 100
AcDbEntity
   8
0
 100
AcDbBlockEnd
   0
BLOCK
   5
1C9
 100
AcDbEntity
   8
0
 100
AcDbBlockBegin
   2
BLOCK010
  70
64
  10
0.0
  20
0.0
  30
0.0
   3
BLOCK010
   0
CIRCLE
   5
1CA
 100
AcDbEntity
   8
LEVEL001
 370
9
 100
AcDbCircle
   6
CONTINUOUS
  62
11
  10
 990.12773722628
  20
 1993.1058394161
  30
0.0
  40
 4.0000000000000
   0
CIRCLE
   5
1CB
 100
AcDbEntity
   8
LEVEL001
 370
9
 100
AcDbCircle
   6
CONTINUOUS
  62
11
  10
 990.12773722628
  20
 1993.1058394161
  30
0.0
  40
 3.2537981843018
   0
LINE
   5
1CC
 100
AcDbEntity
   8
LEVEL001
 370
9
 100
AcDbLine
   6
DASHDOT
  62
11
  10
 990.12773722628
  20
 1978.5092683686
  30
0.0
  11
 990.12773722628
  21
 2007.9133356851
  31
0.0
   0
LINE
   5
1CD
 100
AcDbEntity
   8
LEVEL001
 370
9
 100
AcDbLine
   6
DASHDOT
  62
11
  10
 1004.4778767101
  20
 1993.1058394161
  30
0.0
  11
 975.07380939366
  21
 1993.1058394161
  31
0.0
   0
CIRCLE
   5
1CE
 100
AcDbEntity
   8
LEVEL001
 370
9
 100
AcDbCircle
   6
DOT
  62
11
  10
 990.12773722628
  20
 1993.1058394161
  30
0.0
  40
 12.500000000000
   0
ENDBLK
   5
1CF
 100
AcDbEntity
   8
0
 100
AcDbBlockEnd
   0
BLOCK
   5
1D0
 100
AcDbEntity
   8
0
 100
AcDbBlockBegin
   2
BLOCK011
  70
64
  10
0.0
  20
0.0
  30
0.0
   3
BLOCK011
   0
CIRCLE
   5
1D1
 100
AcDbEntity
   8
LEVEL001
 370
9
 100
AcDbCircle
   6
CONTINUOUS
  62
11
  10
 990.12773722628
  20
 2053.1058394161
  30
0.0
  40
 4.0000000000000
   0
CIRCLE
   5
1D2
 100
AcDbEntity
   8
LEVEL001
 370
9
 100
AcDbCircle
   6
CONTINUOUS
  62
11
  10
 990.12773722628
  20
 2053.1058394161
  30
0.0
  40
 3.2537981843018
   0
LINE
   5
1D3
 100
AcDbEntity
   8
LEVEL001
 370
9
 100
AcDbLine
   6
DASHDOT
  62
11
  10
 990.12773722628
  20
 2038.5092683686
  30
0.0
  11
 990.12773722628
  21
 2067.9133356851
  31
0.0
   0
LINE
   5
1D4
 100
AcDbEntity
   8
LEVEL001
 370
9
 100
AcDbLine
   6
DASHDOT
  62
11
  10
 1004.4778767101
  20
 2053.1058394161
  30
0.0
  11
 975.07380939366
  21
 2053.1058394161
  31
0.0
   0
CIRCLE
   5
1D5
 100
AcDbEntity
   8
LEVEL001
 370
9
 100
AcDbCircle
   6
DOT
  62
11
  10
 990.12773722628
  20
 2053.1058394161
  30
0.0
  40
 12.500000000000
   0
ENDBLK
   5
1D6
 100
AcDbEntity
   8
0
 100
AcDbBlockEnd
   0
BLOCK
   5
1D7
 100
AcDbEntity
   8
0
 100
AcDbBlockBegin
   2
BLOCK012
  70
64
  10
0.0
  20
0.0
  30
0.0
   3
BLOCK012
   0
CIRCLE
   5
1D8
 100
AcDbEntity
   8
LEVEL001
 370
9
 100
AcDbCircle
   6
CONTINUOUS
  62
11
  10
 760.12773722628
  20
 2053.1058394161
  30
0.0
  40
 4.0000000000000
   0
CIRCLE
   5
1D9
 100
AcDbEntity
   8
LEVEL001
 370
9
 100
AcDbCircle
   6
CONTINUOUS
  62
11
  10
 760.12773722628
  20
 2053.1058394161
  30
0.0
  40
 3.2537981843018
   0
LINE
   5
1DA
 100
AcDbEntity
   8
LEVEL001
 370
9
 100
AcDbLine
   6
DASHDOT
  62
11
  10
 760.12773722628
  20
 2038.5092683686
  30
0.0
  11
 760.12773722628
  21
 2067.9133356851
  31
0.0
   0
LINE
   5
1DB
 100
AcDbEntity
   8
LEVEL001
 370
9
 100
AcDbLine
   6
DASHDOT
  62
11
  10
 774.47787671010
  20
 2053.1058394161
  30
0.0
  11
 745.07380939366
  21
 2053.1058394161
  31
0.0
   0
CIRCLE
   5
1DC
 100
AcDbEntity
   8
LEVEL001
 370
9
 100
AcDbCircle
   6
DOT
  62
11
  10
 760.12773722628
  20
 2053.1058394161
  30
0.0
  40
 12.500000000000
   0
ENDBLK
   5
1DD
 100
AcDbEntity
   8
0
 100
AcDbBlockEnd
   0
BLOCK
   5
1DE
 100
AcDbEntity
   8
0
 100
AcDbBlockBegin
   2
BLOCK013
  70
64
  10
0.0
  20
0.0
  30
0.0
   3
BLOCK013
   0
CIRCLE
   5
1DF
 100
AcDbEntity
   8
LEVEL001
 370
9
 100
AcDbCircle
   6
CONTINUOUS
  62
11
  10
 760.12773722628
  20
 1993.1058394161
  30
0.0
  40
 4.0000000000000
   0
CIRCLE
   5
1E0
 100
AcDbEntity
   8
LEVEL001
 370
9
 100
AcDbCircle
   6
CONTINUOUS
  62
11
  10
 760.12773722628
  20
 1993.1058394161
  30
0.0
  40
 3.2537981843018
   0
LINE
   5
1E1
 100
AcDbEntity
   8
LEVEL001
 370
9
 100
AcDbLine
   6
DASHDOT
  62
11
  10
 760.12773722628
  20
 1978.5092683686
  30
0.0
  11
 760.12773722628
  21
 2007.9133356851
  31
0.0
   0
LINE
   5
1E2
 100
AcDbEntity
   8
LEVEL001
 370
9
 100
AcDbLine
   6
DASHDOT
  62
11
  10
 774.47787671010
  20
 1993.1058394161
  30
0.0
  11
 745.07380939366
  21
 1993.1058394161
  31
0.0
   0
CIRCLE
   5
1E3
 100
AcDbEntity
   8
LEVEL001
 370
9
 100
AcDbCircle
   6
DOT
  62
11
  10
 760.12773722628
  20
 1993.1058394161
  30
0.0
  40
 12.500000000000
   0
ENDBLK
   5
1E4
 100
AcDbEntity
   8
0
 100
AcDbBlockEnd
   0
BLOCK
   5
1E5
 100
AcDbEntity
   8
0
 100
AcDbBlockBegin
   2
BLOCK014
  70
64
  10
0.0
  20
0.0
  30
0.0
   3
BLOCK014
   0
CIRCLE
   5
1E6
 100
AcDbEntity
   8
LEVEL001
 370
9
 100
AcDbCircle
   6
DOT
  62
11
  10
 875.12773722628
  20
 2023.1058394161
  30
0.0
  40
 38.150000000000
   0
CIRCLE
   5
1E7
 100
AcDbEntity
   8
LEVEL001
 370
9
 100
AcDbCircle
   6
DOT
  62
11
  10
 875.12773722628
  20
 2023.1058394161
  30
0.0
  40
 33.950000000000
   0
LINE
   5
1E8
 100
AcDbEntity
   8
LEVEL001
 370
9
 100
AcDbLine
   6
DASHDOT
  62
11
  10
 875.12773722628
  20
 1967.1229717596
  30
0.0
  11
 875.12773722628
  21
 2080.3309787028
  31
0.0
   0
ENDBLK
   5
1E9
 100
AcDbEntity
   8
0
 100
AcDbBlockEnd
   0
BLOCK
   5
1EA
 100
AcDbEntity
   8
0
 100
AcDbBlockBegin
   2
BLOCK015
  70
64
  10
0.0
  20
0.0
  30
0.0
   3
BLOCK015
   0
ARC
   5
1EB
 100
AcDbEntity
   8
LEVEL001
 370
9
   6
DOT
  62
11
 100
AcDbCircle
  10
 816.12773722628
  20
 1994.1058394161
  30
0.0
  40
 9.0000000000000
 100
AcDbArc
  50
 270.00000000000
  51
 90.000000000000
   0
LINE
   5
1EC
 100
AcDbEntity
   8
LEVEL001
 370
9
 100
AcDbLine
   6
DOT
  62
11
  10
 794.12773722628
  20
 1985.1058394161
  30
0.0
  11
 816.12773722628
  21
 1985.1058394161
  31
0.0
   0
LINE
   5
1ED
 100
AcDbEntity
   8
LEVEL001
 370
9
 100
AcDbLine
   6
DOT
  62
11
  10
 794.12773722628
  20
 2003.1058394161
  30
0.0
  11
 816.12773722628
  21
 2003.1058394161
  31
0.0
   0
ARC
   5
1EE
 100
AcDbEntity
   8
LEVEL001
 370
9
   6
DOT
  62
11
 100
AcDbCircle
  10
 794.12773722628
  20
 1994.1058394161
  30
0.0
  40
 9.0000000000000
 100
AcDbArc
  50
 90.000000000000
  51
 270.00000000000
   0
LINE
   5
1EF
 100
AcDbEntity
   8
LEVEL001
 370
9
 100
AcDbLine
   6
DASHDOT
  62
11
  10
 780.59685624435
  20
 1994.1058394161
  30
0.0
  11
 830.23853195978
  21
 1994.1058394161
  31
0.0
   0
LINE
   5
1F0
 100
AcDbEntity
   8
LEVEL001
 370
9
 100
AcDbLine
   6
DASHDOT
  62
11
  10
 805.12773722628
  20
 1981.2112918538
  30
0.0
  11
 805.12773722628
  21
 2008.3703245821
  31
0.0
   0
ENDBLK
   5
1F1
 100
AcDbEntity
   8
0
 100
AcDbBlockEnd
   0
BLOCK
   5
1F2
 100
AcDbEntity
   8
0
 100
AcDbBlockBegin
   2
BLOCK016
  70
64
  10
0.0
  20
0.0
  30
0.0
   3
BLOCK016
   0
ARC
   5
1F3
 100
AcDbEntity
   8
LEVEL001
 370
9
   6
DOT
  62
11
 100
AcDbCircle
  10
 816.12773722628
  20
 2052.1058394161
  30
0.0
  40
 9.0000000000000
 100
AcDbArc
  50
 270.00000000000
  51
 90.000000000000
   0
LINE
   5
1F4
 100
AcDbEntity
   8
LEVEL001
 370
9
 100
AcDbLine
   6
DOT
  62
11
  10
 794.12773722628
  20
 2061.1058394161
  30
0.0
  11
 816.12773722628
  21
 2061.1058394161
  31
0.0
   0
LINE
   5
1F5
 100
AcDbEntity
   8
LEVEL001
 370
9
 100
AcDbLine
   6
DOT
  62
11
  10
 794.12773722628
  20
 2043.1058394161
  30
0.0
  11
 816.12773722628
  21
 2043.1058394161
  31
0.0
   0
ARC
   5
1F6
 100
AcDbEntity
   8
LEVEL001
 370
9
   6
DOT
  62
11
 100
AcDbCircle
  10
 794.12773722628
  20
 2052.1058394161
  30
0.0
  40
 9.0000000000000
 100
AcDbArc
  50
 90.000000000000
  51
 270.00000000000
   0
LINE
   5
1F7
 100
AcDbEntity
   8
LEVEL001
 370
9
 100
AcDbLine
   6
DASHDOT
  62
11
  10
 780.59685624435
  20
 2052.1058394161
  30
0.0
  11
 830.23853195978
  21
 2052.1058394161
  31
0.0
   0
LINE
   5
1F8
 100
AcDbEntity
   8
LEVEL001
 370
9
 100
AcDbLine
   6
DASHDOT
  62
11
  10
 805.12773722628
  20
 2065.0003869784
  30
0.0
  11
 805.12773722628
  21
 2037.8413542500
  31
0.0
   0
ENDBLK
   5
1F9
 100
AcDbEntity
   8
0
 100
AcDbBlockEnd
   0
BLOCK
   5
1FA
 100
AcDbEntity
   8
0
 100
AcDbBlockBegin
   2
BLOCK017
  70
64
  10
0.0
  20
0.0
  30
0.0
   3
BLOCK017
   0
ARC
   5
1FB
 100
AcDbEntity
   8
LEVEL001
 370
9
   6
DOT
  62
11
 100
AcDbCircle
  10
 934.12773722628
  20
 1994.1058394161
  30
0.0
  40
 9.0000000000000
 100
AcDbArc
  50
 90.000000000000
  51
 270.00000000000
   0
LINE
   5
1FC
 100
AcDbEntity
   8
LEVEL001
 370
9
 100
AcDbLine
   6
DOT
  62
11
  10
 956.12773722628
  20
 1985.1058394161
  30
0.0
  11
 934.12773722628
  21
 1985.1058394161
  31
0.0
   0
LINE
   5
1FD
 100
AcDbEntity
   8
LEVEL001
 370
9
 100
AcDbLine
   6
DOT
  62
11
  10
 956.12773722628
  20
 2003.1058394161
  30
0.0
  11
 934.12773722628
  21
 2003.1058394161
  31
0.0
   0
ARC
   5
1FE
 100
AcDbEntity
   8
LEVEL001
 370
9
   6
DOT
  62
11
 100
AcDbCircle
  10
 956.12773722628
  20
 1994.1058394161
  30
0.0
  40
 9.0000000000000
 100
AcDbArc
  50
 270.00000000000
  51
 90.000000000000
   0
LINE
   5
1FF
 100
AcDbEntity
   8
LEVEL001
 370
9
 100
AcDbLine
   6
DASHDOT
  62
11
  10
 969.65861820821
  20
 1994.1058394161
  30
0.0
  11
 920.01694249277
  21
 1994.1058394161
  31
0.0
   0
LINE
   5
200
 100
AcDbEntity
   8
LEVEL001
 370
9
 100
AcDbLine
   6
DASHDOT
  62
11
  10
 945.12773722628
  20
 1981.2112918538
  30
0.0
  11
 945.12773722628
  21
 2008.3703245821
  31
0.0
   0
ENDBLK
   5
201
 100
AcDbEntity
   8
0
 100
AcDbBlockEnd
   0
BLOCK
   5
202
 100
AcDbEntity
   8
0
 100
AcDbBlockBegin
   2
BLOCK018
  70
64
  10
0.0
  20
0.0
  30
0.0
   3
BLOCK018
   0
ARC
   5
203
 100
AcDbEntity
   8
LEVEL001
 370
9
   6
DOT
  62
11
 100
AcDbCircle
  10
 934.12773722628
  20
 2052.1058394161
  30
0.0
  40
 9.0000000000000
 100
AcDbArc
  50
 90.000000000000
  51
 270.00000000000
   0
LINE
   5
204
 100
AcDbEntity
   8
LEVEL001
 370
9
 100
AcDbLine
   6
DOT
  62
11
  10
 956.12773722628
  20
 2061.1058394161
  30
0.0
  11
 934.12773722628
  21
 2061.1058394161
  31
0.0
   0
LINE
   5
205
 100
AcDbEntity
   8
LEVEL001
 370
9
 100
AcDbLine
   6
DOT
  62
11
  10
 956.12773722628
  20
 2043.1058394161
  30
0.0
  11
 934.12773722628
  21
 2043.1058394161
  31
0.0
   0
ARC
   5
206
 100
AcDbEntity
   8
LEVEL001
 370
9
   6
DOT
  62
11
 100
AcDbCircle
  10
 956.12773722628
  20
 2052.1058394161
  30
0.0
  40
 9.0000000000000
 100
AcDbArc
  50
 270.00000000000
  51
 90.000000000000
   0
LINE
   5
207
 100
AcDbEntity
   8
LEVEL001
 370
9
 100
AcDbLine
   6
DASHDOT
  62
11
  10
 969.65861820821
  20
 2052.1058394161
  30
0.0
  11
 920.01694249277
  21
 2052.1058394161
  31
0.0
   0
LINE
   5
208
 100
AcDbEntity
   8
LEVEL001
 370
9
 100
AcDbLine
   6
DASHDOT
  62
11
  10
 945.12773722628
  20
 2065.0003869784
  30
0.0
  11
 945.12773722628
  21
 2037.8413542500
  31
0.0
   0
ENDBLK
   5
209
 100
AcDbEntity
   8
0
 100
AcDbBlockEnd
   0
BLOCK
   5
20A
 100
AcDbEntity
   8
0
 100
AcDbBlockBegin
   2
*D7
  70
65
  10
0.0
  20
0.0
  30
0.0
   3
*D7
   0
LINE
   5
20B
 100
AcDbEntity
   8
LEVEL001
 370
25
 100
AcDbLine
   6
CONTINUOUS
  62
3
  10
 260.12773722628
  20
 2110.1058394161
  30
0.0
  11
 260.12773722628
  21
 2223.6800195609
  31
0.0
   0
LINE
   5
20C
 100
AcDbEntity
   8
LEVEL001
 370
25
 100
AcDbLine
   6
CONTINUOUS
  62
3
  10
 260.12773722628
  20
 2208.6800195609
  30
0.0
  11
 625.12773722628
  21
 2208.6800195609
  31
0.0
   0
LINE
   5
20D
 100
AcDbEntity
   8
LEVEL001
 370
25
 100
AcDbLine
   6
CONTINUOUS
  62
3
  10
 990.12773722628
  20
 2208.6800195609
  30
0.0
  11
 625.12773722628
  21
 2208.6800195609
  31
0.0
   0
INSERT
   5
20E
 100
AcDbEntity
   8
LEVEL001
   6
CONTINUOUS
  62
3
 100
AcDbBlockReference
   2
_OPEN30
  10
 260.12773722628
  20
 2208.6800195609
  30
0.0
  41
 20.000000000000
  42
 20.000000000000
  43
 20.000000000000
  50
 180.00000000000
   0
INSERT
   5
20F
 100
AcDbEntity
   8
LEVEL001
   6
CONTINUOUS
  62
3
 100
AcDbBlockReference
   2
_OPEN30
  10
 990.12773722628
  20
 2208.6800195609
  30
0.0
  41
 20.000000000000
  42
 20.000000000000
  43
 20.000000000000
  50
0.0
   0
MTEXT
   5
210
 100
AcDbEntity
   8
LEVEL001
 370
40
  62
7
 100
AcDbMText
  10
 625.12773722628
  20
 2219.3943052752
  30
0.0
  40
 25.000000000000
  41
0.0
  71
8
  72
1
   1
\A1;７３０
   7
GMM003
   0
ENDBLK
   5
211
 100
AcDbEntity
   8
0
 100
AcDbBlockEnd
   0
BLOCK
   5
212
 100
AcDbEntity
   8
0
 100
AcDbBlockBegin
   2
*D8
  70
65
  10
0.0
  20
0.0
  30
0.0
   3
*D8
   0
LINE
   5
213
 100
AcDbEntity
   8
LEVEL001
 370
25
 100
AcDbLine
   6
CONTINUOUS
  62
3
  10
 990.12773722628
  20
 2110.1058394161
  30
0.0
  11
 990.12773722628
  21
 2223.6800195609
  31
0.0
   0
LINE
   5
214
 100
AcDbEntity
   8
LEVEL001
 370
25
 100
AcDbLine
   6
CONTINUOUS
  62
3
  10
 1015.1277372263
  20
 2123.1058394161
  30
0.0
  11
 1015.1277372263
  21
 2223.6800195609
  31
0.0
   0
LINE
   5
215
 100
AcDbEntity
   8
LEVEL001
 370
25
 100
AcDbLine
   6
CONTINUOUS
  62
3
  10
 990.12773722628
  20
 2208.6800195609
  30
0.0
  11
 1002.6277372263
  21
 2208.6800195609
  31
0.0
   0
LINE
   5
216
 100
AcDbEntity
   8
LEVEL001
 370
25
 100
AcDbLine
   6
CONTINUOUS
  62
3
  10
 1110.4287152840
  20
 2208.6800195609
  30
0.0
  11
 1002.6277372263
  21
 2208.6800195609
  31
0.0
   0
INSERT
   5
217
 100
AcDbEntity
   8
LEVEL001
   6
CONTINUOUS
  62
3
 100
AcDbBlockReference
   2
_OPEN30
  10
 1015.1277372263
  20
 2208.6800195609
  30
0.0
  41
 20.000000000000
  42
 20.000000000000
  43
 20.000000000000
  50
 180.00000000000
   0
MTEXT
   5
218
 100
AcDbEntity
   8
LEVEL001
 370
40
  62
7
 100
AcDbMText
  10
 1040.4287152840
  20
 2216.6278231037
  30
0.0
  40
 25.000000000000
  41
0.0
  71
7
  72
1
   1
\A1;２５
   7
GMM003
   0
ENDBLK
   5
219
 100
AcDbEntity
   8
0
 100
AcDbBlockEnd
   0
BLOCK
   5
21A
 100
AcDbEntity
   8
0
 100
AcDbBlockBegin
   2
*D10
  70
65
  10
0.0
  20
0.0
  30
0.0
   3
*D10
   0
LINE
   5
21B
 100
AcDbEntity
   8
LEVEL001
 370
25
 100
AcDbLine
   6
CONTINUOUS
  62
3
  10
 235.12773722628
  20
 2123.1058394161
  30
0.0
  11
 235.12773722628
  21
 2292.1258647629
  31
0.0
   0
LINE
   5
21C
 100
AcDbEntity
   8
LEVEL001
 370
25
 100
AcDbLine
   6
CONTINUOUS
  62
3
  10
 235.12773722628
  20
 2277.1258647629
  30
0.0
  11
 625.12773722628
  21
 2277.1258647629
  31
0.0
   0
LINE
   5
21D
 100
AcDbEntity
   8
LEVEL001
 370
25
 100
AcDbLine
   6
CONTINUOUS
  62
3
  10
 1015.1277372263
  20
 2277.1258647629
  30
0.0
  11
 625.12773722628
  21
 2277.1258647629
  31
0.0
   0
INSERT
   5
21E
 100
AcDbEntity
   8
LEVEL001
   6
CONTINUOUS
  62
3
 100
AcDbBlockReference
   2
_OPEN30
  10
 235.12773722628
  20
 2277.1258647629
  30
0.0
  41
 20.000000000000
  42
 20.000000000000
  43
 20.000000000000
  50
 180.00000000000
   0
INSERT
   5
21F
 100
AcDbEntity
   8
LEVEL001
   6
CONTINUOUS
  62
3
 100
AcDbBlockReference
   2
_OPEN30
  10
 1015.1277372263
  20
 2277.1258647629
  30
0.0
  41
 20.000000000000
  42
 20.000000000000
  43
 20.000000000000
  50
0.0
   0
MTEXT
   5
220
 100
AcDbEntity
   8
LEVEL001
 370
40
  62
7
 100
AcDbMText
  10
 625.12773722628
  20
 2287.8401504772
  30
0.0
  40
 25.000000000000
  41
0.0
  71
8
  72
1
   1
\A1;７８０
   7
GMM003
   0
ENDBLK
   5
221
 100
AcDbEntity
   8
0
 100
AcDbBlockEnd
   0
BLOCK
   5
222
 100
AcDbEntity
   8
0
 100
AcDbBlockBegin
   2
*D11
  70
65
  10
0.0
  20
0.0
  30
0.0
   3
*D11
   0
LINE
   5
223
 100
AcDbEntity
   8
LEVEL001
 370
25
 100
AcDbLine
   6
CONTINUOUS
  62
3
  10
 1015.1277372263
  20
 2123.1058394161
  30
0.0
  11
 1015.1277372263
  21
 2292.1258647629
  31
0.0
   0
LINE
   5
224
 100
AcDbEntity
   8
LEVEL001
 370
25
 100
AcDbLine
   6
CONTINUOUS
  62
3
  10
 1335.1277372263
  20
 2053.1058394161
  30
0.0
  11
 1335.1277372263
  21
 2292.1258647629
  31
0.0
   0
LINE
   5
225
 100
AcDbEntity
   8
LEVEL001
 370
25
 100
AcDbLine
   6
CONTINUOUS
  62
3
  10
 1015.1277372263
  20
 2277.1258647629
  30
0.0
  11
 1175.1277372263
  21
 2277.1258647629
  31
0.0
   0
LINE
   5
226
 100
AcDbEntity
   8
LEVEL001
 370
25
 100
AcDbLine
   6
CONTINUOUS
  62
3
  10
 1335.1277372263
  20
 2277.1258647629
  30
0.0
  11
 1175.1277372263
  21
 2277.1258647629
  31
0.0
   0
INSERT
   5
227
 100
AcDbEntity
   8
LEVEL001
   6
CONTINUOUS
  62
3
 100
AcDbBlockReference
   2
_OPEN30
  10
 1015.1277372263
  20
 2277.1258647629
  30
0.0
  41
 20.000000000000
  42
 20.000000000000
  43
 20.000000000000
  50
 180.00000000000
   0
INSERT
   5
228
 100
AcDbEntity
   8
LEVEL001
   6
CONTINUOUS
  62
3
 100
AcDbBlockReference
   2
_OPEN30
  10
 1335.1277372263
  20
 2277.1258647629
  30
0.0
  41
 20.000000000000
  42
 20.000000000000
  43
 20.000000000000
  50
0.0
   0
MTEXT
   5
229
 100
AcDbEntity
   8
LEVEL001
 370
40
  62
7
 100
AcDbMText
  10
 1175.1277372263
  20
 2287.8401504772
  30
0.0
  40
 25.000000000000
  41
0.0
  71
8
  72
1
   1
\A1;３２０
   7
GMM003
   0
ENDBLK
   5
22A
 100
AcDbEntity
   8
0
 100
AcDbBlockEnd
   0
BLOCK
   5
22B
 100
AcDbEntity
   8
0
 100
AcDbBlockBegin
   2
BLOCK019
  70
64
  10
0.0
  20
0.0
  30
0.0
   3
BLOCK019
   0
CIRCLE
   5
22C
 100
AcDbEntity
   8
LEVEL001
 370
9
 100
AcDbCircle
   6
DASHDOT
  62
11
  10
 545.12773722628
  20
 1633.1058394161
  30
0.0
  40
 187.00000000000
   0
LINE
   5
22D
 100
AcDbEntity
   8
LEVEL001
 370
9
 100
AcDbLine
   6
DASHDOT
  62
11
  10
 431.58006005632
  20
 1829.7761853558
  30
0.0
  11
 473.92948512528
  21
 1756.4248294651
  31
0.0
   0
CIRCLE
   5
22E
 100
AcDbEntity
   8
LEVEL001
 370
9
 100
AcDbCircle
   6
CONTINUOUS
  62
11
  10
 451.62773722628
  20
 1795.0525899237
  30
0.0
  40
 31.500000000000
   0
LINE
   5
22F
 100
AcDbEntity
   8
LEVEL001
 370
9
 100
AcDbLine
   6
DASHDOT
  62
11
  10
 431.77417681267
  20
 1436.7717135609
  30
0.0
  11
 472.65220903288
  21
 1507.5745422797
  31
0.0
   0
CIRCLE
   5
230
 100
AcDbEntity
   8
LEVEL001
 370
9
 100
AcDbCircle
   6
CONTINUOUS
  62
11
  10
 451.62773722628
  20
 1471.1590889084
  30
0.0
  40
 31.500000000000
   0
CIRCLE
   5
231
 100
AcDbEntity
   8
LEVEL001
 370
9
 100
AcDbCircle
   6
CONTINUOUS
  62
11
  10
 732.12773722628
  20
 1633.1058394161
  30
0.0
  40
 31.500000000000
   0
ENDBLK
   5
232
 100
AcDbEntity
   8
0
 100
AcDbBlockEnd
   0
BLOCK
   5
233
 100
AcDbEntity
   8
0
 100
AcDbBlockBegin
   2
BLOCK020
  70
64
  10
0.0
  20
0.0
  30
0.0
   3
BLOCK020
   0
ARC
   5
234
 100
AcDbEntity
   8
LEVEL001
 370
40
   6
CONTINUOUS
  62
7
 100
AcDbCircle
  10
 545.12773722628
  20
 1650.6058394161
  30
0.0
  40
 290.00000000000
 100
AcDbArc
  50
 90.000000000000
  51
 270.00000000000
   0
ARC
   5
235
 100
AcDbEntity
   8
LEVEL001
 370
40
   6
CONTINUOUS
  62
7
 100
AcDbCircle
  10
 545.12773722628
  20
 1650.6058394161
  30
0.0
  40
 220.00000000000
 100
AcDbArc
  50
 90.000000000000
  51
 270.00000000000
   0
ARC
   5
236
 100
AcDbEntity
   8
LEVEL001
 370
40
   6
CONTINUOUS
  62
7
 100
AcDbCircle
  10
 545.12773722628
  20
 1674.3558394161
  30
0.0
  40
 383.75000000000
 100
AcDbArc
  50
 90.000000000000
  51
 270.00000000000
   0
ARC
   5
237
 100
AcDbEntity
   8
LEVEL001
 370
25
   6
DASHDOT
  62
3
 100
AcDbCircle
  10
 545.12773722628
  20
 1674.3558394161
  30
0.0
  40
 348.75000000000
 100
AcDbArc
  50
 90.000000000000
  51
 132.46244224019
   0
ARC
   5
238
 100
AcDbEntity
   8
LEVEL001
 370
40
   6
CONTINUOUS
  62
7
 100
AcDbCircle
  10
 545.12773722628
  20
 1615.6058394161
  30
0.0
  40
 325.00000000000
 100
AcDbArc
  50
 270.00000000000
  51
 90.000000000000
   0
ARC
   5
239
 100
AcDbEntity
   8
LEVEL001
 370
40
   6
CONTINUOUS
  62
7
 100
AcDbCircle
  10
 545.12773722628
  20
 1615.6058394161
  30
0.0
  40
 255.00000000000
 100
AcDbArc
  50
 270.00000000000
  51
 90.000000000000
   0
ARC
   5
23A
 100
AcDbEntity
   8
LEVEL001
 370
40
   6
CONTINUOUS
  62
7
 100
AcDbCircle
  10
 545.12773722628
  20
 1615.6058394161
  30
0.0
  40
 185.00000000000
 100
AcDbArc
  50
 270.00000000000
  51
 90.000000000000
   0
LWPOLYLINE
   5
23B
 100
AcDbEntity
   8
LEVEL001
 370
40
   6
CONTINUOUS
  62
7
 100
AcDbPolyline
  90
3
  70
0
  10
 647.12773722628
  20
 1924.1848406459
  10
 647.12773722628
  20
 2058.1058394161
  10
 545.12773722628
  20
 2058.1058394161
   0
ENDBLK
   5
23C
 100
AcDbEntity
   8
0
 100
AcDbBlockEnd
   0
BLOCK
   5
23D
 100
AcDbEntity
   8
0
 100
AcDbBlockBegin
   2
BLOCK021
  70
64
  10
0.0
  20
0.0
  30
0.0
   3
BLOCK021
   0
LINE
   5
23E
 100
AcDbEntity
   8
LEVEL001
 370
40
 100
AcDbLine
   6
CONTINUOUS
  62
7
  10
 1025.1277372263
  20
 1976.3058394161
  30
0.0
  11
 1050.1277372263
  21
 1976.3058394161
  31
0.0
   0
LINE
   5
23F
 100
AcDbEntity
   8
LEVEL001
 370
40
 100
AcDbLine
   6
CONTINUOUS
  62
7
  10
 1025.1277372263
  20
 2069.9058394161
  30
0.0
  11
 1050.1277372263
  21
 2069.9058394161
  31
0.0
   0
LINE
   5
240
 100
AcDbEntity
   8
LEVEL001
 370
40
 100
AcDbLine
   6
CONTINUOUS
  62
7
  10
 730.12773722628
  20
 1978.1058394161
  30
0.0
  11
 730.12773722628
  21
 2003.1058394161
  31
0.0
   0
LINE
   5
241
 100
AcDbEntity
   8
LEVEL001
 370
40
 100
AcDbLine
   6
CONTINUOUS
  62
7
  10
 730.12773722628
  20
 2043.1058394161
  30
0.0
  11
 730.12773722628
  21
 2068.1058394161
  31
0.0
   0
LWPOLYLINE
   5
242
 100
AcDbEntity
   8
LEVEL001
 370
40
   6
CONTINUOUS
  62
7
 100
AcDbPolyline
  90
3
  70
0
  10
 1025.1277372263
  20
 1973.1058394161
  10
 1050.1277372263
  20
 1973.1058394161
  10
 1050.1277372263
  20
 2003.1058394161
   0
LWPOLYLINE
   5
243
 100
AcDbEntity
   8
LEVEL001
 370
40
   6
CONTINUOUS
  62
7
 100
AcDbPolyline
  90
3
  70
0
  10
 1050.1277372263
  20
 2043.1058394161
  10
 1050.1277372263
  20
 2073.1058394161
  10
 1025.1277372263
  20
 2073.1058394161
   0
LWPOLYLINE
   5
244
 100
AcDbEntity
   8
LEVEL001
 370
40
   6
CONTINUOUS
  62
7
 100
AcDbPolyline
  90
4
  70
0
  10
 1025.1277372263
  20
 2003.1058394161
  10
 1025.1277372263
  20
 1973.1058394161
  10
 755.12773722628
  20
 1973.1058394161
  10
 755.12773722628
  20
 2003.1058394161
   0
LWPOLYLINE
   5
245
 100
AcDbEntity
   8
LEVEL001
 370
40
   6
CONTINUOUS
  62
7
 100
AcDbPolyline
  90
4
  70
0
  10
 755.12773722628
  20
 2043.1058394161
  10
 755.12773722628
  20
 2073.1058394161
  10
 1025.1277372263
  20
 2073.1058394161
  10
 1025.1277372263
  20
 2043.1058394161
   0
LINE
   5
246
 100
AcDbEntity
   8
LEVEL001
 370
40
 100
AcDbLine
   6
CONTINUOUS
  62
7
  10
 755.12773722628
  20
 1978.1058394161
  30
0.0
  11
 647.12773722628
  21
 1978.1058394161
  31
0.0
   0
LWPOLYLINE
   5
247
 100
AcDbEntity
   8
LEVEL001
 370
40
   6
CONTINUOUS
  62
7
 100
AcDbPolyline
  90
3
  70
0
  10
 600.12773722628
  20
 2058.1058394161
  10
 600.12773722628
  20
 2068.1058394161
  10
 755.12773722628
  20
 2068.1058394161
   0
ENDBLK
   5
248
 100
AcDbEntity
   8
0
 100
AcDbBlockEnd
   0
BLOCK
   5
249
 100
AcDbEntity
   8
0
 100
AcDbBlockBegin
   2
*D12
  70
65
  10
0.0
  20
0.0
  30
0.0
   3
*D12
   0
LINE
   5
24A
 100
AcDbEntity
   8
LEVEL001
 370
25
 100
AcDbLine
   6
CONTINUOUS
  62
3
  10
 1025.1277372263
  20
 2113.1058394161
  30
0.0
  11
 1200.1470368969
  21
 2113.1058394161
  31
0.0
   0
LINE
   5
24B
 100
AcDbEntity
   8
LEVEL001
 370
25
 100
AcDbLine
   6
CONTINUOUS
  62
3
  10
 1185.1470368969
  20
 2196.7069356193
  30
0.0
  11
 1185.1470368969
  21
 2068.1058394161
  31
0.0
   0
LINE
   5
24C
 100
AcDbEntity
   8
LEVEL001
 370
25
 100
AcDbLine
   6
CONTINUOUS
  62
3
  10
 1185.1470368969
  20
 2023.1058394161
  30
0.0
  11
 1185.1470368969
  21
 2068.1058394161
  31
0.0
   0
INSERT
   5
24D
 100
AcDbEntity
   8
LEVEL001
   6
CONTINUOUS
  62
3
 100
AcDbBlockReference
   2
_OPEN30
  10
 1185.1470368969
  20
 2113.1058394161
  30
0.0
  41
 20.000000000000
  42
 20.000000000000
  43
 20.000000000000
  50
 90.000000000000
   0
INSERT
   5
24E
 100
AcDbEntity
   8
LEVEL001
   6
CONTINUOUS
  62
3
 100
AcDbBlockReference
   2
_OPEN30
  10
 1185.1470368969
  20
 2023.1058394161
  30
0.0
  41
 20.000000000000
  42
 20.000000000000
  43
 20.000000000000
  50
 270.00000000000
   0
MTEXT
   5
24F
 100
AcDbEntity
   8
LEVEL001
 370
40
  62
7
 100
AcDbMText
  10
 1172.1898589105
  20
 2126.7069356193
  30
0.0
  40
 25.000000000000
  41
0.0
  71
7
  72
1
   1
\A1;９０
   7
GMM003
  11
0.0
  21
 1.0000000000000
  31
0.0
   0
ENDBLK
   5
250
 100
AcDbEntity
   8
0
 100
AcDbBlockEnd
   0
BLOCK
   5
251
 100
AcDbEntity
   8
0
 100
AcDbBlockBegin
   2
*D13
  70
65
  10
0.0
  20
0.0
  30
0.0
   3
*D13
   0
LINE
   5
252
 100
AcDbEntity
   8
LEVEL001
 370
25
 100
AcDbLine
   6
CONTINUOUS
  62
3
  10
 1175.3518837903
  20
 2023.1058394161
  30
0.0
  11
 1200.1470368969
  21
 2023.1058394161
  31
0.0
   0
LINE
   5
253
 100
AcDbEntity
   8
LEVEL001
 370
25
 100
AcDbLine
   6
CONTINUOUS
  62
3
  10
 1071.7495382322
  20
 1633.1058394161
  30
0.0
  11
 1200.1470368969
  21
 1633.1058394161
  31
0.0
   0
LINE
   5
254
 100
AcDbEntity
   8
LEVEL001
 370
25
 100
AcDbLine
   6
CONTINUOUS
  62
3
  10
 1185.1470368969
  20
 2023.1058394161
  30
0.0
  11
 1185.1470368969
  21
 1828.1058394161
  31
0.0
   0
LINE
   5
255
 100
AcDbEntity
   8
LEVEL001
 370
25
 100
AcDbLine
   6
CONTINUOUS
  62
3
  10
 1185.1470368969
  20
 1633.1058394161
  30
0.0
  11
 1185.1470368969
  21
 1828.1058394161
  31
0.0
   0
INSERT
   5
256
 100
AcDbEntity
   8
LEVEL001
   6
CONTINUOUS
  62
3
 100
AcDbBlockReference
   2
_OPEN30
  10
 1185.1470368969
  20
 2023.1058394161
  30
0.0
  41
 20.000000000000
  42
 20.000000000000
  43
 20.000000000000
  50
 90.000000000000
   0
INSERT
   5
257
 100
AcDbEntity
   8
LEVEL001
   6
CONTINUOUS
  62
3
 100
AcDbBlockReference
   2
_OPEN30
  10
 1185.1470368969
  20
 1633.1058394161
  30
0.0
  41
 20.000000000000
  42
 20.000000000000
  43
 20.000000000000
  50
 270.00000000000
   0
MTEXT
   5
258
 100
AcDbEntity
   8
LEVEL001
 370
40
  62
7
 100
AcDbMText
  10
 1174.4327511826
  20
 1828.1058394161
  30
0.0
  40
 25.000000000000
  41
0.0
  71
8
  72
1
   1
\A1;３９０
   7
GMM003
  11
0.0
  21
 1.0000000000000
  31
0.0
   0
ENDBLK
   5
259
 100
AcDbEntity
   8
0
 100
AcDbBlockEnd
   0
BLOCK
   5
25A
 100
AcDbEntity
   8
0
 100
AcDbBlockBegin
   2
*D14
  70
65
  10
0.0
  20
0.0
  30
0.0
   3
*D14
   0
LINE
   5
25B
 100
AcDbEntity
   8
LEVEL001
 370
25
 100
AcDbLine
   6
CONTINUOUS
  62
3
  10
 225.12773722628
  20
 2113.1058394161
  30
0.0
  11
-10.742111002314
  21
 2113.1058394161
  31
0.0
   0
LINE
   5
25C
 100
AcDbEntity
   8
LEVEL001
 370
25
 100
AcDbLine
   6
CONTINUOUS
  62
3
  10
 225.12773722628
  20
 1353.1058394161
  30
0.0
  11
-10.742111002314
  21
 1353.1058394161
  31
0.0
   0
LINE
   5
25D
 100
AcDbEntity
   8
LEVEL001
 370
25
 100
AcDbLine
   6
CONTINUOUS
  62
3
  10
 4.2578889976858
  20
 2113.1058394161
  30
0.0
  11
 4.2578889976858
  21
 1733.1058394161
  31
0.0
   0
LINE
   5
25E
 100
AcDbEntity
   8
LEVEL001
 370
25
 100
AcDbLine
   6
CONTINUOUS
  62
3
  10
 4.2578889976858
  20
 1353.1058394161
  30
0.0
  11
 4.2578889976858
  21
 1733.1058394161
  31
0.0
   0
INSERT
   5
25F
 100
AcDbEntity
   8
LEVEL001
   6
CONTINUOUS
  62
3
 100
AcDbBlockReference
   2
_OPEN30
  10
 4.2578889976858
  20
 2113.1058394161
  30
0.0
  41
 20.000000000000
  42
 20.000000000000
  43
 20.000000000000
  50
 90.000000000000
   0
INSERT
   5
260
 100
AcDbEntity
   8
LEVEL001
   6
CONTINUOUS
  62
3
 100
AcDbBlockReference
   2
_OPEN30
  10
 4.2578889976858
  20
 1353.1058394161
  30
0.0
  41
 20.000000000000
  42
 20.000000000000
  43
 20.000000000000
  50
 270.00000000000
   0
MTEXT
   5
261
 100
AcDbEntity
   8
LEVEL001
 370
40
  62
7
 100
AcDbMText
  10
-6.4563967165999
  20
 1733.1058394161
  30
0.0
  40
 25.000000000000
  41
0.0
  71
8
  72
1
   1
\A1;７６０
   7
GMM003
  11
0.0
  21
 1.0000000000000
  31
0.0
   0
ENDBLK
   5
262
 100
AcDbEntity
   8
0
 100
AcDbBlockEnd
   0
BLOCK
   5
263
 100
AcDbEntity
   8
0
 100
AcDbBlockBegin
   2
*D15
  70
65
  10
0.0
  20
0.0
  30
0.0
   3
*D15
   0
LINE
   5
264
 100
AcDbEntity
   8
LEVEL001
 370
25
 100
AcDbLine
   6
CONTINUOUS
  62
3
  10
 225.12773722628
  20
 2113.1058394161
  30
0.0
  11
 64.175438401282
  21
 2113.1058394161
  31
0.0
   0
LINE
   5
265
 100
AcDbEntity
   8
LEVEL001
 370
25
 100
AcDbLine
   6
CONTINUOUS
  62
3
  10
 79.175438401282
  20
 2206.7477158400
  30
0.0
  11
 79.175438401282
  21
 2100.6058394161
  31
0.0
   0
LINE
   5
266
 100
AcDbEntity
   8
LEVEL001
 370
25
 100
AcDbLine
   6
CONTINUOUS
  62
3
  10
 79.175438401282
  20
 2088.1058394161
  30
0.0
  11
 79.175438401282
  21
 2100.6058394161
  31
0.0
   0
INSERT
   5
267
 100
AcDbEntity
   8
LEVEL001
   6
CONTINUOUS
  62
3
 100
AcDbBlockReference
   2
_OPEN30
  10
 79.175438401282
  20
 2113.1058394161
  30
0.0
  41
 20.000000000000
  42
 20.000000000000
  43
 20.000000000000
  50
 270.00000000000
   0
MTEXT
   5
268
 100
AcDbEntity
   8
LEVEL001
 370
40
  62
7
 100
AcDbMText
  10
 67.799008589995
  20
 2136.7477158400
  30
0.0
  40
 25.000000000000
  41
0.0
  71
7
  72
1
   1
\A1;２５
   7
GMM003
  11
0.0
  21
 1.0000000000000
  31
0.0
   0
ENDBLK
   5
269
 100
AcDbEntity
   8
0
 100
AcDbBlockEnd
   0
BLOCK
   5
26A
 100
AcDbEntity
   8
0
 100
AcDbBlockBegin
   2
*D16
  70
65
  10
0.0
  20
0.0
  30
0.0
   3
*D16
   0
LINE
   5
26B
 100
AcDbEntity
   8
LEVEL001
 370
25
 100
AcDbLine
   6
CONTINUOUS
  62
3
  10
 238.12773722628
  20
 2088.1058394161
  30
0.0
  11
 64.175438401282
  21
 2088.1058394161
  31
0.0
   0
LINE
   5
26C
 100
AcDbEntity
   8
LEVEL001
 370
25
 100
AcDbLine
   6
CONTINUOUS
  62
3
  10
 238.12773722628
  20
 1378.1058394161
  30
0.0
  11
 64.175438401282
  21
 1378.1058394161
  31
0.0
   0
LINE
   5
26D
 100
AcDbEntity
   8
LEVEL001
 370
25
 100
AcDbLine
   6
CONTINUOUS
  62
3
  10
 79.175438401282
  20
 2088.1058394161
  30
0.0
  11
 79.175438401282
  21
 1733.1058394161
  31
0.0
   0
LINE
   5
26E
 100
AcDbEntity
   8
LEVEL001
 370
25
 100
AcDbLine
   6
CONTINUOUS
  62
3
  10
 79.175438401282
  20
 1378.1058394161
  30
0.0
  11
 79.175438401282
  21
 1733.1058394161
  31
0.0
   0
INSERT
   5
26F
 100
AcDbEntity
   8
LEVEL001
   6
CONTINUOUS
  62
3
 100
AcDbBlockReference
   2
_OPEN30
  10
 79.175438401282
  20
 2088.1058394161
  30
0.0
  41
 20.000000000000
  42
 20.000000000000
  43
 20.000000000000
  50
 90.000000000000
   0
INSERT
   5
270
 100
AcDbEntity
   8
LEVEL001
   6
CONTINUOUS
  62
3
 100
AcDbBlockReference
   2
_OPEN30
  10
 79.175438401282
  20
 1378.1058394161
  30
0.0
  41
 20.000000000000
  42
 20.000000000000
  43
 20.000000000000
  50
 270.00000000000
   0
MTEXT
   5
271
 100
AcDbEntity
   8
LEVEL001
 370
40
  62
7
 100
AcDbMText
  10
 68.461152686996
  20
 1733.1058394161
  30
0.0
  40
 25.000000000000
  41
0.0
  71
8
  72
1
   1
\A1;７１０
   7
GMM003
  11
0.0
  21
 1.0000000000000
  31
0.0
   0
ENDBLK
   5
272
 100
AcDbEntity
   8
0
 100
AcDbBlockEnd
   0
BLOCK
   5
273
 100
AcDbEntity
   8
0
 100
AcDbBlockBegin
   2
BLOCK022
  70
64
  10
0.0
  20
0.0
  30
0.0
   3
BLOCK022
   0
LINE
   5
274
 100
AcDbEntity
   8
LEVEL001
 370
25
 100
AcDbLine
   6
DASHDOT
  62
3
  10
 1539.9452554745
  20
 452.24498863236
  30
0.0
  11
 1539.9452554745
  21
 386.04487756233
  31
0.0
   0
ARC
   5
275
 100
AcDbEntity
   8
LEVEL001
 370
25
   6
CONTINUOUS
  62
3
 100
AcDbCircle
  10
 1550.3452554744
  20
 442.08292996735
  30
0.0
  40
 1.6000000000000
 100
AcDbArc
  50
 0.20355549961368E-11
  51
 90.000000000008
   0
LINE
   5
276
 100
AcDbEntity
   8
LEVEL001
 370
25
 100
AcDbLine
   6
CONTINUOUS
  62
3
  10
 1550.3452554744
  20
 443.68292996735
  30
0.0
  11
 1529.5452554744
  21
 443.68292996735
  31
0.0
   0
ARC
   5
277
 100
AcDbEntity
   8
LEVEL001
 370
25
   6
CONTINUOUS
  62
3
 100
AcDbCircle
  10
 1529.5452554744
  20
 442.08292996735
  30
0.0
  40
 1.6000000000000
 100
AcDbArc
  50
 89.999999999992
  51
 180.00000000000
   0
LINE
   5
278
 100
AcDbEntity
   8
LEVEL001
 370
25
 100
AcDbLine
   6
CONTINUOUS
  62
3
  10
 1527.9452554744
  20
 442.08292996735
  30
0.0
  11
 1527.9452554744
  21
 427.68292996735
  31
0.0
   0
LINE
   5
279
 100
AcDbEntity
   8
LEVEL001
 370
25
 100
AcDbLine
   6
CONTINUOUS
  62
3
  10
 1551.9452554744
  20
 427.68292996735
  30
0.0
  11
 1551.9452554744
  21
 442.08292996735
  31
0.0
   0
LWPOLYLINE
   5
27A
 100
AcDbEntity
   8
LEVEL001
 370
25
   6
CONTINUOUS
  62
3
 100
AcDbPolyline
  90
4
  70
0
  10
 1525.9452554744
  20
 423.68292996735
  10
 1525.9452554744
  20
 427.68292996735
  10
 1553.9452554744
  20
 427.68292996735
  10
 1553.9452554744
  20
 423.68292996735
   0
LINE
   5
27B
 100
AcDbEntity
   8
LEVEL001
 370
25
 100
AcDbLine
   6
CONTINUOUS
  62
3
  10
 1542.2546565512
  20
 427.68292996735
  30
0.0
  11
 1539.9452554744
  21
 423.68292996735
  31
0.0
   0
LINE
   5
27C
 100
AcDbEntity
   8
LEVEL001
 370
25
 100
AcDbLine
   6
CONTINUOUS
  62
3
  10
 1539.9452554745
  20
 427.68292996735
  30
0.0
  11
 1537.6358543977
  21
 423.68292996735
  31
0.0
   0
ENDBLK
   5
27D
 100
AcDbEntity
   8
0
 100
AcDbBlockEnd
   0
BLOCK
   5
27E
 100
AcDbEntity
   8
0
 100
AcDbBlockBegin
   2
BLOCK023
  70
64
  10
0.0
  20
0.0
  30
0.0
   3
BLOCK023
   0
LINE
   5
27F
 100
AcDbEntity
   8
LEVEL001
 370
25
 100
AcDbLine
   6
DASHDOT
  62
3
  10
 1481.9452554745
  20
 452.24498863236
  30
0.0
  11
 1481.9452554745
  21
 386.04487756233
  31
0.0
   0
ARC
   5
280
 100
AcDbEntity
   8
LEVEL001
 370
25
   6
CONTINUOUS
  62
3
 100
AcDbCircle
  10
 1492.3452554744
  20
 442.08292996735
  30
0.0
  40
 1.6000000000000
 100
AcDbArc
  50
 0.20355549961368E-11
  51
 90.000000000008
   0
LINE
   5
281
 100
AcDbEntity
   8
LEVEL001
 370
25
 100
AcDbLine
   6
CONTINUOUS
  62
3
  10
 1492.3452554744
  20
 443.68292996735
  30
0.0
  11
 1471.5452554744
  21
 443.68292996735
  31
0.0
   0
ARC
   5
282
 100
AcDbEntity
   8
LEVEL001
 370
25
   6
CONTINUOUS
  62
3
 100
AcDbCircle
  10
 1471.5452554744
  20
 442.08292996735
  30
0.0
  40
 1.6000000000000
 100
AcDbArc
  50
 89.999999999992
  51
 180.00000000000
   0
LINE
   5
283
 100
AcDbEntity
   8
LEVEL001
 370
25
 100
AcDbLine
   6
CONTINUOUS
  62
3
  10
 1469.9452554744
  20
 442.08292996735
  30
0.0
  11
 1469.9452554744
  21
 427.68292996735
  31
0.0
   0
LINE
   5
284
 100
AcDbEntity
   8
LEVEL001
 370
25
 100
AcDbLine
   6
CONTINUOUS
  62
3
  10
 1493.9452554744
  20
 427.68292996735
  30
0.0
  11
 1493.9452554744
  21
 442.08292996735
  31
0.0
   0
LWPOLYLINE
   5
285
 100
AcDbEntity
   8
LEVEL001
 370
25
   6
CONTINUOUS
  62
3
 100
AcDbPolyline
  90
4
  70
0
  10
 1467.9452554744
  20
 423.68292996735
  10
 1467.9452554744
  20
 427.68292996735
  10
 1495.9452554744
  20
 427.68292996735
  10
 1495.9452554744
  20
 423.68292996735
   0
LINE
   5
286
 100
AcDbEntity
   8
LEVEL001
 370
25
 100
AcDbLine
   6
CONTINUOUS
  62
3
  10
 1484.2546565512
  20
 427.68292996735
  30
0.0
  11
 1481.9452554744
  21
 423.68292996735
  31
0.0
   0
LINE
   5
287
 100
AcDbEntity
   8
LEVEL001
 370
25
 100
AcDbLine
   6
CONTINUOUS
  62
3
  10
 1481.9452554745
  20
 427.68292996735
  30
0.0
  11
 1479.6358543977
  21
 423.68292996735
  31
0.0
   0
ENDBLK
   5
288
 100
AcDbEntity
   8
0
 100
AcDbBlockEnd
   0
BLOCK
   5
289
 100
AcDbEntity
   8
0
 100
AcDbBlockBegin
   2
BLOCK024
  70
64
  10
0.0
  20
0.0
  30
0.0
   3
BLOCK024
   0
LWPOLYLINE
   5
28A
 100
AcDbEntity
   8
LEVEL001
 370
40
   6
CONTINUOUS
  62
7
 100
AcDbPolyline
  90
4
  70
1
  10
 1560.9452554745
  20
 696.68292996735
  10
 1555.9452554745
  20
 696.68292996735
  10
 1555.9452554745
  20
 813.68292996735
  10
 1560.9452554745
  20
 813.68292996735
   0
LWPOLYLINE
   5
28B
 100
AcDbEntity
   8
LEVEL001
 370
40
   6
CONTINUOUS
  62
7
 100
AcDbPolyline
  90
4
  70
1
  10
 1465.9452554745
  20
 696.68292996735
  10
 1460.9452554745
  20
 696.68292996735
  10
 1460.9452554745
  20
 813.68292996735
  10
 1465.9452554745
  20
 813.68292996735
   0
LWPOLYLINE
   5
28C
 100
AcDbEntity
   8
LEVEL001
 370
40
   6
CONTINUOUS
  62
7
 100
AcDbPolyline
  90
8
  70
1
  10
 1560.9452554745
  20
 823.68292996735
  10
 1560.9452554745
  20
 873.68292996735
  10
 1460.9452554745
  20
 873.68292996735
  10
 1460.9452554745
  20
 823.68292996735
  10
 1465.9452554745
  20
 823.68292996735
  10
 1465.9452554745
  20
 868.68292996735
  10
 1555.9452554745
  20
 868.68292996735
  10
 1555.9452554745
  20
 823.68292996735
   0
LINE
   5
28D
 100
AcDbEntity
   8
LEVEL001
 370
40
 100
AcDbLine
   6
CONTINUOUS
  62
7
  10
 1555.9452554745
  20
 712.68292996735
  30
0.0
  11
 1465.9452554745
  21
 712.68292996735
  31
0.0
   0
LINE
   5
28E
 100
AcDbEntity
   8
LEVEL001
 370
40
 100
AcDbLine
   6
CONTINUOUS
  62
7
  10
 1555.9452554745
  20
 696.68292996735
  30
0.0
  11
 1465.9452554745
  21
 696.68292996735
  31
0.0
   0
LINE
   5
28F
 100
AcDbEntity
   8
LEVEL001
 370
25
 100
AcDbLine
   6
CONTINUOUS
  62
3
  10
 1544.9452554745
  20
 655.48291776032
  30
0.0
  11
 1536.9452554745
  21
 655.48291776032
  31
0.0
   0
LINE
   5
290
 100
AcDbEntity
   8
LEVEL001
 370
25
 100
AcDbLine
   6
CONTINUOUS
  62
3
  10
 1544.9452554745
  20
 675.68292996735
  30
0.0
  11
 1536.9452554745
  21
 675.68292996735
  31
0.0
   0
LWPOLYLINE
   5
291
 100
AcDbEntity
   8
LEVEL001
 370
25
   6
CONTINUOUS
  62
3
 100
AcDbPolyline
  90
4
  70
0
  10
 1553.4452554745
  20
 696.68292996735
  10
 1553.4452554745
  20
 694.38292996735
  10
 1528.4452554745
  20
 694.38292996735
  10
 1528.4452554745
  20
 696.68292996735
   0
LWPOLYLINE
   5
292
 100
AcDbEntity
   8
LEVEL001
 370
25
   6
CONTINUOUS
  62
3
 100
AcDbPolyline
  90
4
  70
1
  10
 1553.4452554745
  20
 678.68292996735
  10
 1553.4452554745
  20
 680.98292996735
  10
 1528.4452554745
  20
 680.98292996735
  10
 1528.4452554745
  20
 678.68292996735
   0
ARC
   5
293
 100
AcDbEntity
   8
LEVEL001
 370
25
   6
CONTINUOUS
  62
3
 100
AcDbCircle
  10
 1553.4452554745
  20
 692.38292996735
  30
0.0
  40
 2.0000000000000
 100
AcDbArc
  50
 90.000000000000
  51
 180.00000000000
   0
ARC
   5
294
 100
AcDbEntity
   8
LEVEL001
 370
25
   6
CONTINUOUS
  62
3
 100
AcDbCircle
  10
 1553.4452554745
  20
 682.98292996735
  30
0.0
  40
 2.0000000000000
 100
AcDbArc
  50
 180.00000000000
  51
 270.00000000000
   0
LINE
   5
295
 100
AcDbEntity
   8
LEVEL001
 370
25
 100
AcDbLine
   6
CONTINUOUS
  62
3
  10
 1551.4452554745
  20
 692.38292996735
  30
0.0
  11
 1551.4452554745
  21
 682.98292996735
  31
0.0
   0
ARC
   5
296
 100
AcDbEntity
   8
LEVEL001
 370
25
   6
CONTINUOUS
  62
3
 100
AcDbCircle
  10
 1528.4452554745
  20
 692.38292996735
  30
0.0
  40
 2.0000000000000
 100
AcDbArc
  50
0.0
  51
 90.000000000000
   0
ARC
   5
297
 100
AcDbEntity
   8
LEVEL001
 370
25
   6
CONTINUOUS
  62
3
 100
AcDbCircle
  10
 1528.4452554745
  20
 682.98292996735
  30
0.0
  40
 2.0000000000000
 100
AcDbArc
  50
 270.00000000000
  51
0.0
   0
LINE
   5
298
 100
AcDbEntity
   8
LEVEL001
 370
25
 100
AcDbLine
   6
CONTINUOUS
  62
3
  10
 1530.4452554745
  20
 692.38292996735
  30
0.0
  11
 1530.4452554745
  21
 682.98292996735
  31
0.0
   0
LWPOLYLINE
   5
299
 100
AcDbEntity
   8
LEVEL001
 370
25
   6
CONTINUOUS
  62
3
 100
AcDbPolyline
  90
4
  70
0
  10
 1548.6452554745
  20
 666.68292996735
  10
 1548.6452554745
  20
 664.68292996735
  10
 1533.2452554745
  20
 664.68292996735
  10
 1533.2452554745
  20
 666.68292996735
   0
LINE
   5
29A
 100
AcDbEntity
   8
LEVEL001
 370
25
 100
AcDbLine
   6
CONTINUOUS
  62
3
  10
 1539.7905549361
  20
 664.68292996735
  30
0.0
  11
 1540.9452554745
  21
 666.68292996735
  31
0.0
   0
LINE
   5
29B
 100
AcDbEntity
   8
LEVEL001
 370
25
 100
AcDbLine
   6
CONTINUOUS
  62
3
  10
 1540.9452554745
  20
 664.68292996735
  30
0.0
  11
 1542.0999560128
  21
 666.68292996735
  31
0.0
   0
LINE
   5
29C
 100
AcDbEntity
   8
LEVEL001
 370
25
 100
AcDbLine
   6
CONTINUOUS
  62
3
  10
 1546.5744205991
  20
 658.18292996735
  30
0.0
  11
 1535.3160903498
  21
 658.18292996735
  31
0.0
   0
LINE
   5
29D
 100
AcDbEntity
   8
LEVEL001
 370
25
 100
AcDbLine
   6
CONTINUOUS
  62
3
  10
 1537.1924787247
  20
 659.05622250999
  30
0.0
  11
 1537.1924787246
  21
 664.68292996735
  31
0.0
   0
LINE
   5
29E
 100
AcDbEntity
   8
LEVEL001
 370
25
 100
AcDbLine
   6
CONTINUOUS
  62
3
  10
 1544.6980322242
  20
 659.05622250999
  30
0.0
  11
 1544.6980322242
  21
 664.68292996735
  31
0.0
   0
LINE
   5
29F
 100
AcDbEntity
   8
LEVEL001
 370
25
 100
AcDbLine
   6
CONTINUOUS
  62
3
  10
 1548.4508089740
  20
 664.68292996735
  30
0.0
  11
 1548.4508089740
  21
 659.05622250999
  31
0.0
   0
LINE
   5
2A0
 100
AcDbEntity
   8
LEVEL001
 370
25
 100
AcDbLine
   6
CONTINUOUS
  62
3
  10
 1533.4397019749
  20
 659.05622250999
  30
0.0
  11
 1533.4397019748
  21
 664.68292996735
  31
0.0
   0
ARC
   5
2A1
 100
AcDbEntity
   8
LEVEL001
 370
25
   6
CONTINUOUS
  62
3
 100
AcDbCircle
  10
 1535.3160903498
  20
 660.63541466709
  30
0.0
  40
 2.4524846997429
 100
AcDbArc
  50
 220.08438896348
  51
 319.91561103652
   0
ARC
   5
2A2
 100
AcDbEntity
   8
LEVEL001
 370
25
   6
CONTINUOUS
  62
3
 100
AcDbCircle
  10
 1540.9452554745
  20
 666.68292996735
  30
0.0
  40
 8.4999999999999
 100
AcDbArc
  50
 243.80017277539
  51
 296.19982722468
   0
ARC
   5
2A3
 100
AcDbEntity
   8
LEVEL001
 370
25
   6
CONTINUOUS
  62
3
 100
AcDbCircle
  10
 1546.5744205991
  20
 660.63541466709
  30
0.0
  40
 2.4524846997429
 100
AcDbArc
  50
 220.08438896347
  51
 319.91561103653
   0
LINE
   5
2A4
 100
AcDbEntity
   8
LEVEL001
 370
25
 100
AcDbLine
   6
DASHDOT
  62
3
  10
 1540.9452554745
  20
 702.93133331963
  30
0.0
  11
 1540.9452554745
  21
 650.21066903622
  31
0.0
   0
LINE
   5
2A5
 100
AcDbEntity
   8
LEVEL001
 370
25
 100
AcDbLine
   6
CONTINUOUS
  62
3
  10
 1544.1452600521
  20
 675.68292996735
  30
0.0
  11
 1544.1452600521
  21
 666.68292996735
  31
0.0
   0
LINE
   5
2A6
 100
AcDbEntity
   8
LEVEL001
 370
25
 100
AcDbLine
   6
CONTINUOUS
  62
3
  10
 1544.1452600521
  20
 658.18292996735
  30
0.0
  11
 1544.1452600521
  21
 654.68292996735
  31
0.0
   0
LINE
   5
2A7
 100
AcDbEntity
   8
LEVEL001
 370
25
 100
AcDbLine
   6
CONTINUOUS
  62
3
  10
 1544.9452554745
  20
 678.68292996735
  30
0.0
  11
 1544.9452554745
  21
 666.68292996735
  31
0.0
   0
LINE
   5
2A8
 100
AcDbEntity
   8
LEVEL001
 370
25
 100
AcDbLine
   6
CONTINUOUS
  62
3
  10
 1537.7452585262
  20
 654.68292996735
  30
0.0
  11
 1537.7452585262
  21
 658.18292996735
  31
0.0
   0
LINE
   5
2A9
 100
AcDbEntity
   8
LEVEL001
 370
25
 100
AcDbLine
   6
CONTINUOUS
  62
3
  10
 1537.7452585262
  20
 666.68292996735
  30
0.0
  11
 1537.7452585262
  21
 675.68292996735
  31
0.0
   0
LWPOLYLINE
   5
2AA
 100
AcDbEntity
   8
LEVEL001
 370
25
   6
CONTINUOUS
  62
3
 100
AcDbPolyline
  90
6
  70
0
  10
 1544.9452554745
  20
 658.18292996735
  10
 1544.9452554745
  20
 655.48291776032
  10
 1544.1452600521
  20
 654.68292996735
  10
 1537.7452585262
  20
 654.68292996735
  10
 1536.9452554745
  20
 655.48291776032
  10
 1536.9452554745
  20
 658.18292996735
   0
LINE
   5
2AB
 100
AcDbEntity
   8
LEVEL001
 370
25
 100
AcDbLine
   6
CONTINUOUS
  62
3
  10
 1536.9452554745
  20
 666.68292996735
  30
0.0
  11
 1536.9452554745
  21
 678.68292996735
  31
0.0
   0
LINE
   5
2AC
 100
AcDbEntity
   8
LEVEL001
 370
25
 100
AcDbLine
   6
CONTINUOUS
  62
3
  10
 1484.9452554745
  20
 655.48291776032
  30
0.0
  11
 1476.9452554745
  21
 655.48291776032
  31
0.0
   0
LINE
   5
2AD
 100
AcDbEntity
   8
LEVEL001
 370
25
 100
AcDbLine
   6
CONTINUOUS
  62
3
  10
 1484.9452554745
  20
 675.68292996735
  30
0.0
  11
 1476.9452554745
  21
 675.68292996735
  31
0.0
   0
LWPOLYLINE
   5
2AE
 100
AcDbEntity
   8
LEVEL001
 370
25
   6
CONTINUOUS
  62
3
 100
AcDbPolyline
  90
4
  70
0
  10
 1493.4452554745
  20
 696.68292996735
  10
 1493.4452554745
  20
 694.38292996735
  10
 1468.4452554745
  20
 694.38292996735
  10
 1468.4452554745
  20
 696.68292996735
   0
LWPOLYLINE
   5
2AF
 100
AcDbEntity
   8
LEVEL001
 370
25
   6
CONTINUOUS
  62
3
 100
AcDbPolyline
  90
4
  70
1
  10
 1493.4452554745
  20
 678.68292996735
  10
 1493.4452554745
  20
 680.98292996735
  10
 1468.4452554745
  20
 680.98292996735
  10
 1468.4452554745
  20
 678.68292996735
   0
ARC
   5
2B0
 100
AcDbEntity
   8
LEVEL001
 370
25
   6
CONTINUOUS
  62
3
 100
AcDbCircle
  10
 1493.4452554745
  20
 692.38292996735
  30
0.0
  40
 2.0000000000000
 100
AcDbArc
  50
 90.000000000000
  51
 180.00000000000
   0
ARC
   5
2B1
 100
AcDbEntity
   8
LEVEL001
 370
25
   6
CONTINUOUS
  62
3
 100
AcDbCircle
  10
 1493.4452554745
  20
 682.98292996735
  30
0.0
  40
 2.0000000000000
 100
AcDbArc
  50
 180.00000000000
  51
 270.00000000000
   0
LINE
   5
2B2
 100
AcDbEntity
   8
LEVEL001
 370
25
 100
AcDbLine
   6
CONTINUOUS
  62
3
  10
 1491.4452554745
  20
 692.38292996735
  30
0.0
  11
 1491.4452554745
  21
 682.98292996735
  31
0.0
   0
ARC
   5
2B3
 100
AcDbEntity
   8
LEVEL001
 370
25
   6
CONTINUOUS
  62
3
 100
AcDbCircle
  10
 1468.4452554745
  20
 692.38292996735
  30
0.0
  40
 2.0000000000000
 100
AcDbArc
  50
0.0
  51
 90.000000000000
   0
ARC
   5
2B4
 100
AcDbEntity
   8
LEVEL001
 370
25
   6
CONTINUOUS
  62
3
 100
AcDbCircle
  10
 1468.4452554745
  20
 682.98292996735
  30
0.0
  40
 2.0000000000000
 100
AcDbArc
  50
 270.00000000000
  51
0.0
   0
LINE
   5
2B5
 100
AcDbEntity
   8
LEVEL001
 370
25
 100
AcDbLine
   6
CONTINUOUS
  62
3
  10
 1470.4452554745
  20
 692.38292996735
  30
0.0
  11
 1470.4452554745
  21
 682.98292996735
  31
0.0
   0
LWPOLYLINE
   5
2B6
 100
AcDbEntity
   8
LEVEL001
 370
25
   6
CONTINUOUS
  62
3
 100
AcDbPolyline
  90
4
  70
0
  10
 1488.6452554745
  20
 666.68292996735
  10
 1488.6452554745
  20
 664.68292996735
  10
 1473.2452554745
  20
 664.68292996735
  10
 1473.2452554745
  20
 666.68292996735
   0
LINE
   5
2B7
 100
AcDbEntity
   8
LEVEL001
 370
25
 100
AcDbLine
   6
CONTINUOUS
  62
3
  10
 1479.7905549361
  20
 664.68292996735
  30
0.0
  11
 1480.9452554745
  21
 666.68292996735
  31
0.0
   0
LINE
   5
2B8
 100
AcDbEntity
   8
LEVEL001
 370
25
 100
AcDbLine
   6
CONTINUOUS
  62
3
  10
 1480.9452554745
  20
 664.68292996735
  30
0.0
  11
 1482.0999560128
  21
 666.68292996735
  31
0.0
   0
LINE
   5
2B9
 100
AcDbEntity
   8
LEVEL001
 370
25
 100
AcDbLine
   6
CONTINUOUS
  62
3
  10
 1486.5744205991
  20
 658.18292996735
  30
0.0
  11
 1475.3160903498
  21
 658.18292996735
  31
0.0
   0
LINE
   5
2BA
 100
AcDbEntity
   8
LEVEL001
 370
25
 100
AcDbLine
   6
CONTINUOUS
  62
3
  10
 1477.1924787247
  20
 659.05622250999
  30
0.0
  11
 1477.1924787246
  21
 664.68292996735
  31
0.0
   0
LINE
   5
2BB
 100
AcDbEntity
   8
LEVEL001
 370
25
 100
AcDbLine
   6
CONTINUOUS
  62
3
  10
 1484.6980322242
  20
 659.05622250999
  30
0.0
  11
 1484.6980322242
  21
 664.68292996735
  31
0.0
   0
LINE
   5
2BC
 100
AcDbEntity
   8
LEVEL001
 370
25
 100
AcDbLine
   6
CONTINUOUS
  62
3
  10
 1488.4508089740
  20
 664.68292996735
  30
0.0
  11
 1488.4508089740
  21
 659.05622250999
  31
0.0
   0
LINE
   5
2BD
 100
AcDbEntity
   8
LEVEL001
 370
25
 100
AcDbLine
   6
CONTINUOUS
  62
3
  10
 1473.4397019749
  20
 659.05622250999
  30
0.0
  11
 1473.4397019748
  21
 664.68292996735
  31
0.0
   0
ARC
   5
2BE
 100
AcDbEntity
   8
LEVEL001
 370
25
   6
CONTINUOUS
  62
3
 100
AcDbCircle
  10
 1475.3160903498
  20
 660.63541466709
  30
0.0
  40
 2.4524846997429
 100
AcDbArc
  50
 220.08438896348
  51
 319.91561103652
   0
ARC
   5
2BF
 100
AcDbEntity
   8
LEVEL001
 370
25
   6
CONTINUOUS
  62
3
 100
AcDbCircle
  10
 1480.9452554745
  20
 666.68292996735
  30
0.0
  40
 8.4999999999999
 100
AcDbArc
  50
 243.80017277539
  51
 296.19982722468
   0
ARC
   5
2C0
 100
AcDbEntity
   8
LEVEL001
 370
25
   6
CONTINUOUS
  62
3
 100
AcDbCircle
  10
 1486.5744205991
  20
 660.63541466709
  30
0.0
  40
 2.4524846997429
 100
AcDbArc
  50
 220.08438896347
  51
 319.91561103653
   0
LINE
   5
2C1
 100
AcDbEntity
   8
LEVEL001
 370
25
 100
AcDbLine
   6
DASHDOT
  62
3
  10
 1480.9452554745
  20
 702.93133331963
  30
0.0
  11
 1480.9452554745
  21
 650.21066903622
  31
0.0
   0
LINE
   5
2C2
 100
AcDbEntity
   8
LEVEL001
 370
25
 100
AcDbLine
   6
CONTINUOUS
  62
3
  10
 1484.1452600521
  20
 675.68292996735
  30
0.0
  11
 1484.1452600521
  21
 666.68292996735
  31
0.0
   0
LINE
   5
2C3
 100
AcDbEntity
   8
LEVEL001
 370
25
 100
AcDbLine
   6
CONTINUOUS
  62
3
  10
 1484.1452600521
  20
 658.18292996735
  30
0.0
  11
 1484.1452600521
  21
 654.68292996735
  31
0.0
   0
LINE
   5
2C4
 100
AcDbEntity
   8
LEVEL001
 370
25
 100
AcDbLine
   6
CONTINUOUS
  62
3
  10
 1484.9452554745
  20
 678.68292996735
  30
0.0
  11
 1484.9452554745
  21
 666.68292996735
  31
0.0
   0
LINE
   5
2C5
 100
AcDbEntity
   8
LEVEL001
 370
25
 100
AcDbLine
   6
CONTINUOUS
  62
3
  10
 1477.7452585262
  20
 654.68292996735
  30
0.0
  11
 1477.7452585262
  21
 658.18292996735
  31
0.0
   0
LINE
   5
2C6
 100
AcDbEntity
   8
LEVEL001
 370
25
 100
AcDbLine
   6
CONTINUOUS
  62
3
  10
 1477.7452585262
  20
 666.68292996735
  30
0.0
  11
 1477.7452585262
  21
 675.68292996735
  31
0.0
   0
LWPOLYLINE
   5
2C7
 100
AcDbEntity
   8
LEVEL001
 370
25
   6
CONTINUOUS
  62
3
 100
AcDbPolyline
  90
6
  70
0
  10
 1484.9452554745
  20
 658.18292996735
  10
 1484.9452554745
  20
 655.48291776032
  10
 1484.1452600521
  20
 654.68292996735
  10
 1477.7452585262
  20
 654.68292996735
  10
 1476.9452554745
  20
 655.48291776032
  10
 1476.9452554745
  20
 658.18292996735
   0
LINE
   5
2C8
 100
AcDbEntity
   8
LEVEL001
 370
25
 100
AcDbLine
   6
CONTINUOUS
  62
3
  10
 1476.9452554745
  20
 666.68292996735
  30
0.0
  11
 1476.9452554745
  21
 678.68292996735
  31
0.0
   0
LINE
   5
2C9
 100
AcDbEntity
   8
LEVEL001
 370
25
 100
AcDbLine
   6
CONTINUOUS
  62
3
  10
 1484.9452554745
  20
 655.48291776032
  30
0.0
  11
 1476.9452554745
  21
 655.48291776032
  31
0.0
   0
LINE
   5
2CA
 100
AcDbEntity
   8
LEVEL001
 370
25
 100
AcDbLine
   6
CONTINUOUS
  62
3
  10
 1484.9452554745
  20
 675.68292996735
  30
0.0
  11
 1476.9452554745
  21
 675.68292996735
  31
0.0
   0
LWPOLYLINE
   5
2CB
 100
AcDbEntity
   8
LEVEL001
 370
25
   6
CONTINUOUS
  62
3
 100
AcDbPolyline
  90
4
  70
0
  10
 1493.4452554745
  20
 696.68292996735
  10
 1493.4452554745
  20
 694.38292996735
  10
 1468.4452554745
  20
 694.38292996735
  10
 1468.4452554745
  20
 696.68292996735
   0
LWPOLYLINE
   5
2CC
 100
AcDbEntity
   8
LEVEL001
 370
25
   6
CONTINUOUS
  62
3
 100
AcDbPolyline
  90
4
  70
1
  10
 1493.4452554745
  20
 678.68292996735
  10
 1493.4452554745
  20
 680.98292996735
  10
 1468.4452554745
  20
 680.98292996735
  10
 1468.4452554745
  20
 678.68292996735
   0
ARC
   5
2CD
 100
AcDbEntity
   8
LEVEL001
 370
25
   6
CONTINUOUS
  62
3
 100
AcDbCircle
  10
 1493.4452554745
  20
 692.38292996735
  30
0.0
  40
 2.0000000000000
 100
AcDbArc
  50
 90.000000000000
  51
 180.00000000000
   0
ARC
   5
2CE
 100
AcDbEntity
   8
LEVEL001
 370
25
   6
CONTINUOUS
  62
3
 100
AcDbCircle
  10
 1493.4452554745
  20
 682.98292996735
  30
0.0
  40
 2.0000000000000
 100
AcDbArc
  50
 180.00000000000
  51
 270.00000000000
   0
LINE
   5
2CF
 100
AcDbEntity
   8
LEVEL001
 370
25
 100
AcDbLine
   6
CONTINUOUS
  62
3
  10
 1491.4452554745
  20
 692.38292996735
  30
0.0
  11
 1491.4452554745
  21
 682.98292996735
  31
0.0
   0
ARC
   5
2D0
 100
AcDbEntity
   8
LEVEL001
 370
25
   6
CONTINUOUS
  62
3
 100
AcDbCircle
  10
 1468.4452554745
  20
 692.38292996735
  30
0.0
  40
 2.0000000000000
 100
AcDbArc
  50
0.0
  51
 90.000000000000
   0
ARC
   5
2D1
 100
AcDbEntity
   8
LEVEL001
 370
25
   6
CONTINUOUS
  62
3
 100
AcDbCircle
  10
 1468.4452554745
  20
 682.98292996735
  30
0.0
  40
 2.0000000000000
 100
AcDbArc
  50
 270.00000000000
  51
0.0
   0
LINE
   5
2D2
 100
AcDbEntity
   8
LEVEL001
 370
25
 100
AcDbLine
   6
CONTINUOUS
  62
3
  10
 1470.4452554745
  20
 692.38292996735
  30
0.0
  11
 1470.4452554745
  21
 682.98292996735
  31
0.0
   0
LWPOLYLINE
   5
2D3
 100
AcDbEntity
   8
LEVEL001
 370
25
   6
CONTINUOUS
  62
3
 100
AcDbPolyline
  90
4
  70
0
  10
 1488.6452554745
  20
 666.68292996735
  10
 1488.6452554745
  20
 664.68292996735
  10
 1473.2452554745
  20
 664.68292996735
  10
 1473.2452554745
  20
 666.68292996735
   0
LINE
   5
2D4
 100
AcDbEntity
   8
LEVEL001
 370
25
 100
AcDbLine
   6
CONTINUOUS
  62
3
  10
 1479.7905549361
  20
 664.68292996735
  30
0.0
  11
 1480.9452554745
  21
 666.68292996735
  31
0.0
   0
LINE
   5
2D5
 100
AcDbEntity
   8
LEVEL001
 370
25
 100
AcDbLine
   6
CONTINUOUS
  62
3
  10
 1480.9452554745
  20
 664.68292996735
  30
0.0
  11
 1482.0999560128
  21
 666.68292996735
  31
0.0
   0
LINE
   5
2D6
 100
AcDbEntity
   8
LEVEL001
 370
25
 100
AcDbLine
   6
CONTINUOUS
  62
3
  10
 1486.5744205991
  20
 658.18292996735
  30
0.0
  11
 1475.3160903498
  21
 658.18292996735
  31
0.0
   0
LINE
   5
2D7
 100
AcDbEntity
   8
LEVEL001
 370
25
 100
AcDbLine
   6
CONTINUOUS
  62
3
  10
 1477.1924787247
  20
 659.05622250999
  30
0.0
  11
 1477.1924787246
  21
 664.68292996735
  31
0.0
   0
LINE
   5
2D8
 100
AcDbEntity
   8
LEVEL001
 370
25
 100
AcDbLine
   6
CONTINUOUS
  62
3
  10
 1484.6980322242
  20
 659.05622250999
  30
0.0
  11
 1484.6980322242
  21
 664.68292996735
  31
0.0
   0
LINE
   5
2D9
 100
AcDbEntity
   8
LEVEL001
 370
25
 100
AcDbLine
   6
CONTINUOUS
  62
3
  10
 1488.4508089740
  20
 664.68292996735
  30
0.0
  11
 1488.4508089740
  21
 659.05622250999
  31
0.0
   0
LINE
   5
2DA
 100
AcDbEntity
   8
LEVEL001
 370
25
 100
AcDbLine
   6
CONTINUOUS
  62
3
  10
 1473.4397019749
  20
 659.05622250999
  30
0.0
  11
 1473.4397019748
  21
 664.68292996735
  31
0.0
   0
ARC
   5
2DB
 100
AcDbEntity
   8
LEVEL001
 370
25
   6
CONTINUOUS
  62
3
 100
AcDbCircle
  10
 1475.3160903498
  20
 660.63541466709
  30
0.0
  40
 2.4524846997429
 100
AcDbArc
  50
 220.08438896348
  51
 319.91561103652
   0
ARC
   5
2DC
 100
AcDbEntity
   8
LEVEL001
 370
25
   6
CONTINUOUS
  62
3
 100
AcDbCircle
  10
 1480.9452554745
  20
 666.68292996735
  30
0.0
  40
 8.4999999999999
 100
AcDbArc
  50
 243.80017277539
  51
 296.19982722468
   0
ARC
   5
2DD
 100
AcDbEntity
   8
LEVEL001
 370
25
   6
CONTINUOUS
  62
3
 100
AcDbCircle
  10
 1486.5744205991
  20
 660.63541466709
  30
0.0
  40
 2.4524846997429
 100
AcDbArc
  50
 220.08438896347
  51
 319.91561103653
   0
LINE
   5
2DE
 100
AcDbEntity
   8
LEVEL001
 370
25
 100
AcDbLine
   6
DASHDOT
  62
3
  10
 1480.9452554745
  20
 702.93133331963
  30
0.0
  11
 1480.9452554745
  21
 650.21066903622
  31
0.0
   0
LINE
   5
2DF
 100
AcDbEntity
   8
LEVEL001
 370
25
 100
AcDbLine
   6
CONTINUOUS
  62
3
  10
 1484.1452600521
  20
 675.68292996735
  30
0.0
  11
 1484.1452600521
  21
 666.68292996735
  31
0.0
   0
LINE
   5
2E0
 100
AcDbEntity
   8
LEVEL001
 370
25
 100
AcDbLine
   6
CONTINUOUS
  62
3
  10
 1484.1452600521
  20
 658.18292996735
  30
0.0
  11
 1484.1452600521
  21
 654.68292996735
  31
0.0
   0
LINE
   5
2E1
 100
AcDbEntity
   8
LEVEL001
 370
25
 100
AcDbLine
   6
CONTINUOUS
  62
3
  10
 1484.9452554745
  20
 678.68292996735
  30
0.0
  11
 1484.9452554745
  21
 666.68292996735
  31
0.0
   0
LINE
   5
2E2
 100
AcDbEntity
   8
LEVEL001
 370
25
 100
AcDbLine
   6
CONTINUOUS
  62
3
  10
 1477.7452585262
  20
 654.68292996735
  30
0.0
  11
 1477.7452585262
  21
 658.18292996735
  31
0.0
   0
LINE
   5
2E3
 100
AcDbEntity
   8
LEVEL001
 370
25
 100
AcDbLine
   6
CONTINUOUS
  62
3
  10
 1477.7452585262
  20
 666.68292996735
  30
0.0
  11
 1477.7452585262
  21
 675.68292996735
  31
0.0
   0
LWPOLYLINE
   5
2E4
 100
AcDbEntity
   8
LEVEL001
 370
25
   6
CONTINUOUS
  62
3
 100
AcDbPolyline
  90
6
  70
0
  10
 1484.9452554745
  20
 658.18292996735
  10
 1484.9452554745
  20
 655.48291776032
  10
 1484.1452600521
  20
 654.68292996735
  10
 1477.7452585262
  20
 654.68292996735
  10
 1476.9452554745
  20
 655.48291776032
  10
 1476.9452554745
  20
 658.18292996735
   0
LINE
   5
2E5
 100
AcDbEntity
   8
LEVEL001
 370
25
 100
AcDbLine
   6
CONTINUOUS
  62
3
  10
 1476.9452554745
  20
 666.68292996735
  30
0.0
  11
 1476.9452554745
  21
 678.68292996735
  31
0.0
   0
LWPOLYLINE
   5
2E6
 100
AcDbEntity
   8
LEVEL001
 370
40
   6
CONTINUOUS
  62
7
 100
AcDbPolyline
  90
4
  70
1
  10
 1545.9452554745
  20
 728.68292996735
  10
 1475.9452554745
  20
 728.68292996735
  10
 1475.9452554745
  20
 839.68292996735
  10
 1545.9452554745
  20
 839.68292996735
   0
LINE
   5
2E7
 100
AcDbEntity
   8
LEVEL001
 370
40
 100
AcDbLine
   6
CONTINUOUS
  62
7
  10
 1555.9452554745
  20
 744.68292996735
  30
0.0
  11
 1545.9452554745
  21
 744.68292996735
  31
0.0
   0
LINE
   5
2E8
 100
AcDbEntity
   8
LEVEL001
 370
40
 100
AcDbLine
   6
CONTINUOUS
  62
7
  10
 1475.9452554745
  20
 744.68292996735
  30
0.0
  11
 1465.9452554745
  21
 744.68292996735
  31
0.0
   0
LINE
   5
2E9
 100
AcDbEntity
   8
LEVEL001
 370
40
 100
AcDbLine
   6
CONTINUOUS
  62
7
  10
 1555.9452554745
  20
 823.68292996735
  30
0.0
  11
 1545.9452554745
  21
 823.68292996735
  31
0.0
   0
LINE
   5
2EA
 100
AcDbEntity
   8
LEVEL001
 370
40
 100
AcDbLine
   6
CONTINUOUS
  62
7
  10
 1475.9452554745
  20
 823.68292996735
  30
0.0
  11
 1465.9452554745
  21
 823.68292996735
  31
0.0
   0
LINE
   5
2EB
 100
AcDbEntity
   8
LEVEL001
 370
40
 100
AcDbLine
   6
CONTINUOUS
  62
7
  10
 1555.9452554745
  20
 843.68292996735
  30
0.0
  11
 1465.9452554745
  21
 843.68292996735
  31
0.0
   0
ENDBLK
   5
2EC
 100
AcDbEntity
   8
0
 100
AcDbBlockEnd
   0
BLOCK
   5
2ED
 100
AcDbEntity
   8
0
 100
AcDbBlockBegin
   2
BLOCK025
  70
64
  10
0.0
  20
0.0
  30
0.0
   3
BLOCK025
   0
LINE
   5
2EE
 100
AcDbEntity
   8
LEVEL001
 370
25
 100
AcDbLine
   6
CONTINUOUS
  62
3
  10
 1550.3375832440
  20
 607.68292996735
  30
0.0
  11
 1529.5529763104
  21
 607.68292996735
  31
0.0
   0
LINE
   5
2EF
 100
AcDbEntity
   8
LEVEL001
 370
25
 100
AcDbLine
   6
CONTINUOUS
  62
3
  10
 1546.8734719158
  20
 606.20710961362
  30
0.0
  11
 1546.8734719158
  21
 594.68292996735
  31
0.0
   0
LINE
   5
2F0
 100
AcDbEntity
   8
LEVEL001
 370
25
 100
AcDbLine
   6
CONTINUOUS
  62
3
  10
 1533.0170723797
  20
 606.20710961362
  30
0.0
  11
 1533.0170723797
  21
 594.68292996735
  31
0.0
   0
LINE
   5
2F1
 100
AcDbEntity
   8
LEVEL001
 370
25
 100
AcDbLine
   6
CONTINUOUS
  62
3
  10
 1526.0888649822
  20
 594.68292996735
  30
0.0
  11
 1526.0888649822
  21
 606.20710961362
  31
0.0
   0
LINE
   5
2F2
 100
AcDbEntity
   8
LEVEL001
 370
25
 100
AcDbLine
   6
CONTINUOUS
  62
3
  10
 1553.8016793133
  20
 606.20710961362
  30
0.0
  11
 1553.8016793133
  21
 594.68292996735
  31
0.0
   0
ARC
   5
2F3
 100
AcDbEntity
   8
LEVEL001
 370
25
   6
CONTINUOUS
  62
3
 100
AcDbCircle
  10
 1550.3375756146
  20
 602.87947942672
  30
0.0
  40
 4.8034505406353
 100
AcDbArc
  50
 43.848850055191
  51
 136.15114994481
   0
ARC
   5
2F4
 100
AcDbEntity
   8
LEVEL001
 370
25
   6
CONTINUOUS
  62
3
 100
AcDbCircle
  10
 1539.9452797772
  20
 590.68292996735
  30
0.0
  40
 17.000000000002
 100
AcDbArc
  50
 65.949560354587
  51
 114.05048660815
   0
ARC
   5
2F5
 100
AcDbEntity
   8
LEVEL001
 370
25
   6
CONTINUOUS
  62
3
 100
AcDbCircle
  10
 1529.5529686810
  20
 602.87947942672
  30
0.0
  40
 4.8034505406354
 100
AcDbArc
  50
 43.848780264095
  51
 136.15114994481
   0
LWPOLYLINE
   5
2F6
 100
AcDbEntity
   8
LEVEL001
 370
25
   6
CONTINUOUS
  62
3
 100
AcDbPolyline
  90
4
  70
0
  10
 1525.9452647447
  20
 666.68292996735
  10
 1525.9452647447
  20
 662.68292996735
  10
 1553.9452647447
  20
 662.68292996735
  10
 1553.9452647447
  20
 666.68292996735
   0
LINE
   5
2F7
 100
AcDbEntity
   8
LEVEL001
 370
25
 100
AcDbLine
   6
CONTINUOUS
  62
3
  10
 1542.2546672105
  20
 662.68292996735
  30
0.0
  11
 1539.9452647447
  21
 666.68292996735
  31
0.0
   0
LINE
   5
2F8
 100
AcDbEntity
   8
LEVEL001
 370
25
 100
AcDbLine
   6
CONTINUOUS
  62
3
  10
 1539.9452647447
  20
 662.68292996735
  30
0.0
  11
 1537.6358622789
  21
 666.68292996735
  31
0.0
   0
LINE
   5
2F9
 100
AcDbEntity
   8
LEVEL001
 370
25
 100
AcDbLine
   6
CONTINUOUS
  62
3
  10
 1546.8734568834
  20
 651.15875032108
  30
0.0
  11
 1546.8734568834
  21
 662.68292996735
  31
0.0
   0
LINE
   5
2FA
 100
AcDbEntity
   8
LEVEL001
 370
25
 100
AcDbLine
   6
CONTINUOUS
  62
3
  10
 1533.0170573472
  20
 651.15875032108
  30
0.0
  11
 1533.0170573472
  21
 662.68292996735
  31
0.0
   0
LINE
   5
2FB
 100
AcDbEntity
   8
LEVEL001
 370
25
 100
AcDbLine
   6
CONTINUOUS
  62
3
  10
 1526.0888499498
  20
 662.68292996735
  30
0.0
  11
 1526.0888499498
  21
 651.15875032108
  31
0.0
   0
LINE
   5
2FC
 100
AcDbEntity
   8
LEVEL001
 370
25
 100
AcDbLine
   6
CONTINUOUS
  62
3
  10
 1553.8016642808
  20
 651.15875032108
  30
0.0
  11
 1553.8016642808
  21
 662.68292996735
  31
0.0
   0
ARC
   5
2FD
 100
AcDbEntity
   8
LEVEL001
 370
25
   6
CONTINUOUS
  62
3
 100
AcDbCircle
  10
 1529.5529536485
  20
 654.48638050798
  30
0.0
  40
 4.8034505406354
 100
AcDbArc
  50
 223.84885005519
  51
 316.15121973591
   0
ARC
   5
2FE
 100
AcDbEntity
   8
LEVEL001
 370
25
   6
CONTINUOUS
  62
3
 100
AcDbCircle
  10
 1539.9452647447
  20
 666.68292996735
  30
0.0
  40
 17.000000000002
 100
AcDbArc
  50
 245.94951339185
  51
 294.05043964541
   0
ARC
   5
2FF
 100
AcDbEntity
   8
LEVEL001
 370
25
   6
CONTINUOUS
  62
3
 100
AcDbCircle
  10
 1550.3375605821
  20
 654.48638050798
  30
0.0
  40
 4.8034505406353
 100
AcDbArc
  50
 223.84885005519
  51
 316.15114994481
   0
LINE
   5
300
 100
AcDbEntity
   8
LEVEL001
 370
25
 100
AcDbLine
   6
CONTINUOUS
  62
3
  10
 1550.3375682115
  20
 649.68292996735
  30
0.0
  11
 1529.5529612779
  21
 649.68292996735
  31
0.0
   0
LINE
   5
301
 100
AcDbEntity
   8
LEVEL001
 370
25
 100
AcDbLine
   6
CONTINUOUS
  62
3
  10
 1547.9452797772
  20
 607.68292996735
  30
0.0
  11
 1547.9452647447
  21
 649.68292996735
  31
0.0
   0
LINE
   5
302
 100
AcDbEntity
   8
LEVEL001
 370
25
 100
AcDbLine
   6
CONTINUOUS
  62
3
  10
 1546.1852549791
  20
 649.68292996735
  30
0.0
  11
 1546.1852700115
  21
 607.68292996735
  31
0.0
   0
LINE
   5
303
 100
AcDbEntity
   8
LEVEL001
 370
25
 100
AcDbLine
   6
CONTINUOUS
  62
3
  10
 1533.7052742840
  20
 607.68292996735
  30
0.0
  11
 1533.7052592515
  21
 649.68292996735
  31
0.0
   0
LINE
   5
304
 100
AcDbEntity
   8
LEVEL001
 370
25
 100
AcDbLine
   6
CONTINUOUS
  62
3
  10
 1531.9452647447
  20
 649.68292996735
  30
0.0
  11
 1531.9452797772
  21
 607.68292996735
  31
0.0
   0
LINE
   5
305
 100
AcDbEntity
   8
LEVEL001
 370
25
 100
AcDbLine
   6
DASHDOT
  62
3
  10
 1539.9452721478
  20
 535.84262375407
  30
0.0
  11
 1539.9452567195
  21
 685.67759747804
  31
0.0
   0
LWPOLYLINE
   5
306
 100
AcDbEntity
   8
LEVEL001
 370
25
   6
CONTINUOUS
  62
3
 100
AcDbPolyline
  90
4
  70
0
  10
 1525.9452797772
  20
 578.68292996735
  10
 1525.9452797772
  20
 574.68292996735
  10
 1553.9452797772
  20
 574.68292996735
  10
 1553.9452797772
  20
 578.68292996735
   0
LINE
   5
307
 100
AcDbEntity
   8
LEVEL001
 370
25
 100
AcDbLine
   6
CONTINUOUS
  62
3
  10
 1542.2546822430
  20
 574.68292996735
  30
0.0
  11
 1539.9452797772
  21
 578.68292996735
  31
0.0
   0
LINE
   5
308
 100
AcDbEntity
   8
LEVEL001
 370
25
 100
AcDbLine
   6
CONTINUOUS
  62
3
  10
 1539.9452797772
  20
 574.68292996735
  30
0.0
  11
 1537.6358773113
  21
 578.68292996735
  31
0.0
   0
LINE
   5
309
 100
AcDbEntity
   8
LEVEL001
 370
25
 100
AcDbLine
   6
CONTINUOUS
  62
3
  10
 1550.3375832440
  20
 561.68292996735
  30
0.0
  11
 1529.5529763104
  21
 561.68292996735
  31
0.0
   0
LINE
   5
30A
 100
AcDbEntity
   8
LEVEL001
 370
25
 100
AcDbLine
   6
CONTINUOUS
  62
3
  10
 1546.8734719158
  20
 563.15875032108
  30
0.0
  11
 1546.8734719158
  21
 574.68292996735
  31
0.0
   0
LINE
   5
30B
 100
AcDbEntity
   8
LEVEL001
 370
25
 100
AcDbLine
   6
CONTINUOUS
  62
3
  10
 1533.0170723797
  20
 563.15875032108
  30
0.0
  11
 1533.0170723797
  21
 574.68292996735
  31
0.0
   0
LINE
   5
30C
 100
AcDbEntity
   8
LEVEL001
 370
25
 100
AcDbLine
   6
CONTINUOUS
  62
3
  10
 1526.0888649822
  20
 574.68292996735
  30
0.0
  11
 1526.0888649822
  21
 563.15875032108
  31
0.0
   0
LINE
   5
30D
 100
AcDbEntity
   8
LEVEL001
 370
25
 100
AcDbLine
   6
CONTINUOUS
  62
3
  10
 1553.8016793133
  20
 563.15875032108
  30
0.0
  11
 1553.8016793133
  21
 574.68292996735
  31
0.0
   0
ARC
   5
30E
 100
AcDbEntity
   8
LEVEL001
 370
25
   6
CONTINUOUS
  62
3
 100
AcDbCircle
  10
 1550.3375756146
  20
 566.48638050798
  30
0.0
  40
 4.8034505406353
 100
AcDbArc
  50
 223.84885005519
  51
 316.15114994481
   0
ARC
   5
30F
 100
AcDbEntity
   8
LEVEL001
 370
25
   6
CONTINUOUS
  62
3
 100
AcDbCircle
  10
 1539.9452797772
  20
 578.68292996735
  30
0.0
  40
 17.000000000002
 100
AcDbArc
  50
 245.94951339185
  51
 294.05043964541
   0
ARC
   5
310
 100
AcDbEntity
   8
LEVEL001
 370
25
   6
CONTINUOUS
  62
3
 100
AcDbCircle
  10
 1529.5529686810
  20
 566.48638050798
  30
0.0
  40
 4.8034505406354
 100
AcDbArc
  50
 223.84885005519
  51
 316.15121973590
   0
LWPOLYLINE
   5
311
 100
AcDbEntity
   8
LEVEL001
 370
25
   6
CONTINUOUS
  62
3
 100
AcDbPolyline
  90
6
  70
0
  10
 1547.9452797772
  20
 561.68292996735
  10
 1547.9452797772
  20
 547.44292828888
  10
 1546.1852700115
  20
 545.68292996735
  10
 1533.7052742840
  20
 545.68292996735
  10
 1531.9452797772
  20
 547.44292828888
  10
 1531.9452797772
  20
 561.68292996735
   0
LINE
   5
312
 100
AcDbEntity
   8
LEVEL001
 370
25
 100
AcDbLine
   6
CONTINUOUS
  62
3
  10
 1533.7052742840
  20
 545.68292996735
  30
0.0
  11
 1533.7052742840
  21
 561.68292996735
  31
0.0
   0
LINE
   5
313
 100
AcDbEntity
   8
LEVEL001
 370
25
 100
AcDbLine
   6
CONTINUOUS
  62
3
  10
 1546.1852700115
  20
 545.68292996735
  30
0.0
  11
 1546.1852700115
  21
 561.68292996735
  31
0.0
   0
LINE
   5
314
 100
AcDbEntity
   8
LEVEL001
 370
25
 100
AcDbLine
   6
CONTINUOUS
  62
3
  10
 1547.9452797772
  20
 547.44292828888
  30
0.0
  11
 1531.9452797772
  21
 547.44292828888
  31
0.0
   0
ENDBLK
   5
315
 100
AcDbEntity
   8
0
 100
AcDbBlockEnd
   0
BLOCK
   5
316
 100
AcDbEntity
   8
0
 100
AcDbBlockBegin
   2
BLOCK026
  70
64
  10
0.0
  20
0.0
  30
0.0
   3
BLOCK026
   0
LINE
   5
317
 100
AcDbEntity
   8
LEVEL001
 370
25
 100
AcDbLine
   6
CONTINUOUS
  62
3
  10
 1492.3375832440
  20
 607.68292996735
  30
0.0
  11
 1471.5529763104
  21
 607.68292996735
  31
0.0
   0
LINE
   5
318
 100
AcDbEntity
   8
LEVEL001
 370
25
 100
AcDbLine
   6
CONTINUOUS
  62
3
  10
 1488.8734719158
  20
 606.20710961362
  30
0.0
  11
 1488.8734719158
  21
 594.68292996735
  31
0.0
   0
LINE
   5
319
 100
AcDbEntity
   8
LEVEL001
 370
25
 100
AcDbLine
   6
CONTINUOUS
  62
3
  10
 1475.0170723797
  20
 606.20710961362
  30
0.0
  11
 1475.0170723797
  21
 594.68292996735
  31
0.0
   0
LINE
   5
31A
 100
AcDbEntity
   8
LEVEL001
 370
25
 100
AcDbLine
   6
CONTINUOUS
  62
3
  10
 1468.0888649822
  20
 594.68292996735
  30
0.0
  11
 1468.0888649822
  21
 606.20710961362
  31
0.0
   0
LINE
   5
31B
 100
AcDbEntity
   8
LEVEL001
 370
25
 100
AcDbLine
   6
CONTINUOUS
  62
3
  10
 1495.8016793133
  20
 606.20710961362
  30
0.0
  11
 1495.8016793133
  21
 594.68292996735
  31
0.0
   0
ARC
   5
31C
 100
AcDbEntity
   8
LEVEL001
 370
25
   6
CONTINUOUS
  62
3
 100
AcDbCircle
  10
 1492.3375756146
  20
 602.87947942672
  30
0.0
  40
 4.8034505406353
 100
AcDbArc
  50
 43.848850055191
  51
 136.15114994481
   0
ARC
   5
31D
 100
AcDbEntity
   8
LEVEL001
 370
25
   6
CONTINUOUS
  62
3
 100
AcDbCircle
  10
 1481.9452797772
  20
 590.68292996735
  30
0.0
  40
 17.000000000002
 100
AcDbArc
  50
 65.949560354587
  51
 114.05048660815
   0
ARC
   5
31E
 100
AcDbEntity
   8
LEVEL001
 370
25
   6
CONTINUOUS
  62
3
 100
AcDbCircle
  10
 1471.5529686810
  20
 602.87947942672
  30
0.0
  40
 4.8034505406354
 100
AcDbArc
  50
 43.848780264095
  51
 136.15114994481
   0
LWPOLYLINE
   5
31F
 100
AcDbEntity
   8
LEVEL001
 370
25
   6
CONTINUOUS
  62
3
 100
AcDbPolyline
  90
4
  70
0
  10
 1467.9452647447
  20
 666.68292996735
  10
 1467.9452647447
  20
 662.68292996735
  10
 1495.9452647447
  20
 662.68292996735
  10
 1495.9452647447
  20
 666.68292996735
   0
LINE
   5
320
 100
AcDbEntity
   8
LEVEL001
 370
25
 100
AcDbLine
   6
CONTINUOUS
  62
3
  10
 1484.2546672105
  20
 662.68292996735
  30
0.0
  11
 1481.9452647447
  21
 666.68292996735
  31
0.0
   0
LINE
   5
321
 100
AcDbEntity
   8
LEVEL001
 370
25
 100
AcDbLine
   6
CONTINUOUS
  62
3
  10
 1481.9452647447
  20
 662.68292996735
  30
0.0
  11
 1479.6358622789
  21
 666.68292996735
  31
0.0
   0
LINE
   5
322
 100
AcDbEntity
   8
LEVEL001
 370
25
 100
AcDbLine
   6
CONTINUOUS
  62
3
  10
 1488.8734568834
  20
 651.15875032108
  30
0.0
  11
 1488.8734568834
  21
 662.68292996735
  31
0.0
   0
LINE
   5
323
 100
AcDbEntity
   8
LEVEL001
 370
25
 100
AcDbLine
   6
CONTINUOUS
  62
3
  10
 1475.0170573472
  20
 651.15875032108
  30
0.0
  11
 1475.0170573472
  21
 662.68292996735
  31
0.0
   0
LINE
   5
324
 100
AcDbEntity
   8
LEVEL001
 370
25
 100
AcDbLine
   6
CONTINUOUS
  62
3
  10
 1468.0888499498
  20
 662.68292996735
  30
0.0
  11
 1468.0888499498
  21
 651.15875032108
  31
0.0
   0
LINE
   5
325
 100
AcDbEntity
   8
LEVEL001
 370
25
 100
AcDbLine
   6
CONTINUOUS
  62
3
  10
 1495.8016642808
  20
 651.15875032108
  30
0.0
  11
 1495.8016642808
  21
 662.68292996735
  31
0.0
   0
ARC
   5
326
 100
AcDbEntity
   8
LEVEL001
 370
25
   6
CONTINUOUS
  62
3
 100
AcDbCircle
  10
 1471.5529536485
  20
 654.48638050798
  30
0.0
  40
 4.8034505406354
 100
AcDbArc
  50
 223.84885005519
  51
 316.15121973591
   0
ARC
   5
327
 100
AcDbEntity
   8
LEVEL001
 370
25
   6
CONTINUOUS
  62
3
 100
AcDbCircle
  10
 1481.9452647447
  20
 666.68292996735
  30
0.0
  40
 17.000000000002
 100
AcDbArc
  50
 245.94951339185
  51
 294.05043964541
   0
ARC
   5
328
 100
AcDbEntity
   8
LEVEL001
 370
25
   6
CONTINUOUS
  62
3
 100
AcDbCircle
  10
 1492.3375605821
  20
 654.48638050798
  30
0.0
  40
 4.8034505406353
 100
AcDbArc
  50
 223.84885005519
  51
 316.15114994481
   0
LINE
   5
329
 100
AcDbEntity
   8
LEVEL001
 370
25
 100
AcDbLine
   6
CONTINUOUS
  62
3
  10
 1492.3375682115
  20
 649.68292996735
  30
0.0
  11
 1471.5529612779
  21
 649.68292996735
  31
0.0
   0
LINE
   5
32A
 100
AcDbEntity
   8
LEVEL001
 370
25
 100
AcDbLine
   6
CONTINUOUS
  62
3
  10
 1489.9452797772
  20
 607.68292996735
  30
0.0
  11
 1489.9452647447
  21
 649.68292996735
  31
0.0
   0
LINE
   5
32B
 100
AcDbEntity
   8
LEVEL001
 370
25
 100
AcDbLine
   6
CONTINUOUS
  62
3
  10
 1488.1852549791
  20
 649.68292996735
  30
0.0
  11
 1488.1852700115
  21
 607.68292996735
  31
0.0
   0
LINE
   5
32C
 100
AcDbEntity
   8
LEVEL001
 370
25
 100
AcDbLine
   6
CONTINUOUS
  62
3
  10
 1475.7052742840
  20
 607.68292996735
  30
0.0
  11
 1475.7052592515
  21
 649.68292996735
  31
0.0
   0
LINE
   5
32D
 100
AcDbEntity
   8
LEVEL001
 370
25
 100
AcDbLine
   6
CONTINUOUS
  62
3
  10
 1473.9452647447
  20
 649.68292996735
  30
0.0
  11
 1473.9452797772
  21
 607.68292996735
  31
0.0
   0
LINE
   5
32E
 100
AcDbEntity
   8
LEVEL001
 370
25
 100
AcDbLine
   6
DASHDOT
  62
3
  10
 1481.9452721478
  20
 535.84262375407
  30
0.0
  11
 1481.9452567195
  21
 685.67759747804
  31
0.0
   0
LWPOLYLINE
   5
32F
 100
AcDbEntity
   8
LEVEL001
 370
25
   6
CONTINUOUS
  62
3
 100
AcDbPolyline
  90
4
  70
0
  10
 1467.9452797772
  20
 578.68292996735
  10
 1467.9452797772
  20
 574.68292996735
  10
 1495.9452797772
  20
 574.68292996735
  10
 1495.9452797772
  20
 578.68292996735
   0
LINE
   5
330
 100
AcDbEntity
   8
LEVEL001
 370
25
 100
AcDbLine
   6
CONTINUOUS
  62
3
  10
 1484.2546822430
  20
 574.68292996735
  30
0.0
  11
 1481.9452797772
  21
 578.68292996735
  31
0.0
   0
LINE
   5
331
 100
AcDbEntity
   8
LEVEL001
 370
25
 100
AcDbLine
   6
CONTINUOUS
  62
3
  10
 1481.9452797772
  20
 574.68292996735
  30
0.0
  11
 1479.6358773113
  21
 578.68292996735
  31
0.0
   0
LINE
   5
332
 100
AcDbEntity
   8
LEVEL001
 370
25
 100
AcDbLine
   6
CONTINUOUS
  62
3
  10
 1492.3375832440
  20
 561.68292996735
  30
0.0
  11
 1471.5529763104
  21
 561.68292996735
  31
0.0
   0
LINE
   5
333
 100
AcDbEntity
   8
LEVEL001
 370
25
 100
AcDbLine
   6
CONTINUOUS
  62
3
  10
 1488.8734719158
  20
 563.15875032108
  30
0.0
  11
 1488.8734719158
  21
 574.68292996735
  31
0.0
   0
LINE
   5
334
 100
AcDbEntity
   8
LEVEL001
 370
25
 100
AcDbLine
   6
CONTINUOUS
  62
3
  10
 1475.0170723797
  20
 563.15875032108
  30
0.0
  11
 1475.0170723797
  21
 574.68292996735
  31
0.0
   0
LINE
   5
335
 100
AcDbEntity
   8
LEVEL001
 370
25
 100
AcDbLine
   6
CONTINUOUS
  62
3
  10
 1468.0888649822
  20
 574.68292996735
  30
0.0
  11
 1468.0888649822
  21
 563.15875032108
  31
0.0
   0
LINE
   5
336
 100
AcDbEntity
   8
LEVEL001
 370
25
 100
AcDbLine
   6
CONTINUOUS
  62
3
  10
 1495.8016793133
  20
 563.15875032108
  30
0.0
  11
 1495.8016793133
  21
 574.68292996735
  31
0.0
   0
ARC
   5
337
 100
AcDbEntity
   8
LEVEL001
 370
25
   6
CONTINUOUS
  62
3
 100
AcDbCircle
  10
 1492.3375756146
  20
 566.48638050798
  30
0.0
  40
 4.8034505406353
 100
AcDbArc
  50
 223.84885005519
  51
 316.15114994481
   0
ARC
   5
338
 100
AcDbEntity
   8
LEVEL001
 370
25
   6
CONTINUOUS
  62
3
 100
AcDbCircle
  10
 1481.9452797772
  20
 578.68292996735
  30
0.0
  40
 17.000000000002
 100
AcDbArc
  50
 245.94951339185
  51
 294.05043964541
   0
ARC
   5
339
 100
AcDbEntity
   8
LEVEL001
 370
25
   6
CONTINUOUS
  62
3
 100
AcDbCircle
  10
 1471.5529686810
  20
 566.48638050798
  30
0.0
  40
 4.8034505406354
 100
AcDbArc
  50
 223.84885005519
  51
 316.15121973590
   0
LWPOLYLINE
   5
33A
 100
AcDbEntity
   8
LEVEL001
 370
25
   6
CONTINUOUS
  62
3
 100
AcDbPolyline
  90
6
  70
0
  10
 1489.9452797772
  20
 561.68292996735
  10
 1489.9452797772
  20
 547.44292828888
  10
 1488.1852700115
  20
 545.68292996735
  10
 1475.7052742840
  20
 545.68292996735
  10
 1473.9452797772
  20
 547.44292828888
  10
 1473.9452797772
  20
 561.68292996735
   0
LINE
   5
33B
 100
AcDbEntity
   8
LEVEL001
 370
25
 100
AcDbLine
   6
CONTINUOUS
  62
3
  10
 1475.7052742840
  20
 545.68292996735
  30
0.0
  11
 1475.7052742840
  21
 561.68292996735
  31
0.0
   0
LINE
   5
33C
 100
AcDbEntity
   8
LEVEL001
 370
25
 100
AcDbLine
   6
CONTINUOUS
  62
3
  10
 1488.1852700115
  20
 545.68292996735
  30
0.0
  11
 1488.1852700115
  21
 561.68292996735
  31
0.0
   0
LINE
   5
33D
 100
AcDbEntity
   8
LEVEL001
 370
25
 100
AcDbLine
   6
CONTINUOUS
  62
3
  10
 1489.9452797772
  20
 547.44292828888
  30
0.0
  11
 1473.9452797772
  21
 547.44292828888
  31
0.0
   0
ENDBLK
   5
33E
 100
AcDbEntity
   8
0
 100
AcDbBlockEnd
   0
BLOCK
   5
33F
 100
AcDbEntity
   8
0
 100
AcDbBlockBegin
   2
BLOCK027
  70
64
  10
0.0
  20
0.0
  30
0.0
   3
BLOCK027
   0
LINE
   5
340
 100
AcDbEntity
   8
LEVEL001
 370
40
 100
AcDbLine
   6
CONTINUOUS
  62
7
  10
 1549.0952554745
  20
 578.68292996735
  30
0.0
  11
 1549.0952554745
  21
 423.68292996735
  31
0.0
   0
LINE
   5
341
 100
AcDbEntity
   8
LEVEL001
 370
25
 100
AcDbLine
   6
DOT
  62
3
  10
 1544.8952554745
  20
 578.68292996735
  30
0.0
  11
 1544.8952554745
  21
 423.68292996735
  31
0.0
   0
LINE
   5
342
 100
AcDbEntity
   8
LEVEL001
 370
40
 100
AcDbLine
   6
CONTINUOUS
  62
7
  10
 1472.7952554745
  20
 578.68292996735
  30
0.0
  11
 1472.7952554745
  21
 423.68292996735
  31
0.0
   0
LINE
   5
343
 100
AcDbEntity
   8
LEVEL001
 370
25
 100
AcDbLine
   6
DOT
  62
3
  10
 1476.9952554745
  20
 578.68292996735
  30
0.0
  11
 1476.9952554745
  21
 423.68292996735
  31
0.0
   0
LWPOLYLINE
   5
344
 100
AcDbEntity
   8
LEVEL001
 370
40
   6
CONTINUOUS
  62
7
 100
AcDbPolyline
  90
4
  70
1
  10
 1555.9452554745
  20
 578.68292996735
  10
 1465.9452554745
  20
 578.68292996735
  10
 1465.9452554745
  20
 594.68292996735
  10
 1555.9452554745
  20
 594.68292996735
   0
LWPOLYLINE
   5
345
 100
AcDbEntity
   8
LEVEL001
 370
40
   6
CONTINUOUS
  62
7
 100
AcDbPolyline
  90
4
  70
1
  10
 1555.9452554745
  20
 407.68292996735
  10
 1465.9452554745
  20
 407.68292996735
  10
 1465.9452554745
  20
 423.68292996735
  10
 1555.9452554745
  20
 423.68292996735
   0
ENDBLK
   5
346
 100
AcDbEntity
   8
0
 100
AcDbBlockEnd
   0
ENDSEC
   0
SECTION
   2
ENTITIES
   0
TEXT
   5
347
 100
AcDbEntity
   8
LEVEL001
 370
25
  62
3
 100
AcDbText
  10
-165.88128097853
  20
 120.26184844971
  30
0.0
  40
 2.5999999046326
   1
　
  41
 0.76923079744599
   7
STANDARD
 100
AcDbText
   0
TEXT
   5
348
 100
AcDbEntity
   8
LEVEL001
 370
25
  62
3
 100
AcDbText
  10
-149.23487289748
  20
 120.17190551758
  30
0.0
  40
 2.5999999046326
   1
　
  41
 0.42307690191551
   7
STANDARD
 100
AcDbText
   0
TEXT
   5
349
 100
AcDbEntity
   8
LEVEL001
 370
25
  62
3
 100
AcDbText
  10
-195.10787399611
  20
 126.32980531044
  30
0.0
  40
 3.5999999046326
   1
　
  41
 1.1111111405455
   7
STANDARD
 100
AcDbText
   0
TEXT
   5
34A
 100
AcDbEntity
   8
LEVEL001
 370
25
  62
3
 100
AcDbText
  10
-187.10787399611
  20
 126.32980531044
  30
0.0
  40
 3.5999999046326
   1
　
  41
 1.1111111405455
   7
STANDARD
 100
AcDbText
   0
TEXT
   5
34B
 100
AcDbEntity
   8
LEVEL001
 370
25
  62
3
 100
AcDbText
  10
-179.10787399611
  20
 126.32980531044
  30
0.0
  40
 3.5999999046326
   1
　
  41
 1.1111111405455
   7
STANDARD
 100
AcDbText
   0
TEXT
   5
34C
 100
AcDbEntity
   8
LEVEL001
 370
25
  62
3
 100
AcDbText
  10
-171.10787399611
  20
 126.32980531044
  30
0.0
  40
 3.5999999046326
   1
　
  41
 1.1111111405455
   7
STANDARD
 100
AcDbText
   0
TEXT
   5
34D
 100
AcDbEntity
   8
LEVEL001
 370
25
  62
3
 100
AcDbText
  10
-163.10787399611
  20
 126.32980531044
  30
0.0
  40
 3.5999999046326
   1
　
  41
 1.1111111405455
   7
STANDARD
 100
AcDbText
   0
TEXT
   5
34E
 100
AcDbEntity
   8
LEVEL001
 370
25
  62
3
 100
AcDbText
  10
-148.01046188674
  20
 128.45293610878
  30
0.0
  40
 3.5999999046326
   1
　
  41
 1.1111111405455
   7
STANDARD
 100
AcDbText
   0
TEXT
   5
34F
 100
AcDbEntity
   8
LEVEL001
 370
25
  62
3
 100
AcDbText
  10
-144.01046188674
  20
 128.45293610878
  30
0.0
  40
 3.5999999046326
   1
　
  41
 1.1111111405455
   7
STANDARD
 100
AcDbText
   0
TEXT
   5
350
 100
AcDbEntity
   8
LEVEL001
 370
25
  62
3
 100
AcDbText
  10
-140.01046188674
  20
 128.45293610878
  30
0.0
  40
 3.5999999046326
   1
　
  41
 1.1111111405455
   7
STANDARD
 100
AcDbText
   0
TEXT
   5
351
 100
AcDbEntity
   8
LEVEL001
 370
25
  62
3
 100
AcDbText
  10
-136.01046188674
  20
 128.45293610878
  30
0.0
  40
 3.5999999046326
   1
　
  41
 1.1111111405455
   7
STANDARD
 100
AcDbText
   0
TEXT
   5
352
 100
AcDbEntity
   8
LEVEL001
 370
25
  62
3
 100
AcDbText
  10
-195.78447922072
  20
-135.37816423588
  30
0.0
  40
 3.5000000000000
   1
　
  41
 1.1428571428571
   7
STANDARD
 100
AcDbText
   0
TEXT
   5
353
 100
AcDbEntity
   8
LEVEL001
 370
25
  62
3
 100
AcDbText
  10
-191.78447922072
  20
-135.37816423588
  30
0.0
  40
 3.5000000000000
   1
 
  41
 0.57142857142857
   7
STANDARD
 100
AcDbText
   0
TEXT
   5
354
 100
AcDbEntity
   8
LEVEL001
 370
25
  62
3
 100
AcDbText
  10
-185.78447922072
  20
-135.37816423588
  30
0.0
  40
 3.5000000000000
   1
　
  41
 1.1428571428571
   7
STANDARD
 100
AcDbText
   0
TEXT
   5
355
 100
AcDbEntity
   8
LEVEL001
 370
25
  62
3
 100
AcDbText
  10
-181.78447922072
  20
-135.37816423588
  30
0.0
  40
 3.5000000000000
   1
 
  41
 0.57142857142857
   7
STANDARD
 100
AcDbText
   0
TEXT
   5
356
 100
AcDbEntity
   8
LEVEL001
 370
25
  62
3
 100
AcDbText
  10
-199.12780197463
  20
-127.74216264896
  30
0.0
  40
 3.5000000000000
   1
 
  41
 0.45714286395482
   7
STANDARD
 100
AcDbText
   0
TEXT
   5
357
 100
AcDbEntity
   8
LEVEL001
 370
25
  62
3
 100
AcDbText
  10
-194.32779892287
  20
-127.74216264896
  30
0.0
  40
 3.5000000000000
   1
 
  41
 0.45714286395482
   7
STANDARD
 100
AcDbText
   0
TEXT
   5
358
 100
AcDbEntity
   8
LEVEL001
 370
25
  62
3
 100
AcDbText
  10
-182.35412033400
  20
-127.74216264896
  30
0.0
  40
 3.5000000000000
   1
 
  41
 0.45714286395482
   7
STANDARD
 100
AcDbText
   0
TEXT
   5
359
 100
AcDbEntity
   8
LEVEL001
 370
25
  62
3
 100
AcDbText
  10
-180.75411423049
  20
-127.74216264896
  30
0.0
  40
 3.5000000000000
   1
 
  41
 0.45714286395482
   7
STANDARD
 100
AcDbText
   0
TEXT
   5
35A
 100
AcDbEntity
   8
LEVEL001
 370
25
  62
3
 100
AcDbText
  10
-101.39085110030
  20
-145.43401152305
  30
0.0
  40
 4.0000000000000
   1
　
  41
 0.80000001192093
   7
STANDARD
 100
AcDbText
   0
TEXT
   5
35B
 100
AcDbEntity
   8
LEVEL001
 370
25
  62
3
 100
AcDbText
  10
-98.190854152058
  20
-145.43401152305
  30
0.0
  40
 4.0000000000000
   1
　
  41
 0.80000001192093
   7
STANDARD
 100
AcDbText
   0
TEXT
   5
35C
 100
AcDbEntity
   8
LEVEL001
 370
25
  62
3
 100
AcDbText
  10
-94.990849574421
  20
-145.43401152305
  30
0.0
  40
 4.0000000000000
   1
　
  41
 0.80000001192093
   7
STANDARD
 100
AcDbText
   0
TEXT
   5
35D
 100
AcDbEntity
   8
LEVEL001
 370
25
  62
3
 100
AcDbText
  10
-137.13345821700
  20
-135.44821733646
  30
0.0
  40
 3.5000000000000
   1
　
  41
 0.71428571428571
   7
STANDARD
 100
AcDbText
   0
TEXT
   5
35E
 100
AcDbEntity
   8
LEVEL001
 370
25
  62
3
 100
AcDbText
  10
-103.09236629805
  20
-135.48129839115
  30
0.0
  40
 3.5000000000000
   1
　
  41
 1.1428571428571
   7
STANDARD
 100
AcDbText
   0
TEXT
   5
35F
 100
AcDbEntity
   8
LEVEL001
 370
25
  62
3
 100
AcDbText
  10
-105.09236629805
  20
-135.48129839115
  30
0.0
  40
 3.5000000000000
   1
　
  41
 1.1428571428571
   7
STANDARD
 100
AcDbText
   0
TEXT
   5
360
 100
AcDbEntity
   8
LEVEL001
 370
25
  62
3
 100
AcDbText
  10
-105.09234627089
  20
-135.48129839115
  30
0.0
  40
 3.5000000000000
   1
　
  41
 1.1428571428571
   7
STANDARD
 100
AcDbText
   0
POINT
   5
361
 100
AcDbEntity
   8
LEVEL001
 100
AcDbPoint
  62
7
  10
-210.00003412603
  20
-148.50000836058
  30
0.0
   0
LINE
   5
362
 100
AcDbEntity
   8
LEVEL001
 370
25
 100
AcDbLine
   6
CONTINUOUS
  62
3
  10
-149.99993046353
  20
 61.499864799837
  30
0.0
  11
 1730.0000695365
  21
 61.499864799837
  31
0.0
   0
LINE
   5
363
 100
AcDbEntity
   8
LEVEL001
 370
25
 100
AcDbLine
   6
CONTINUOUS
  62
3
  10
 590.00006953647
  20
-38.500135200162
  30
0.0
  11
 590.00006953647
  21
-138.50013520016
  31
0.0
   0
LWPOLYLINE
   5
364
 100
AcDbEntity
   8
LEVEL001
 370
40
   6
CONTINUOUS
  62
7
 100
AcDbPolyline
  90
6
  70
1
  10
-149.99993046353
  20
-138.50013520016
  10
 1110.0000695365
  20
-138.50013520016
  10
 1110.0000695365
  20
-38.500135200162
  10
 1730.0000695365
  20
-38.500135200162
  10
 1730.0000695365
  20
 2661.4998647998
  10
-149.99993046353
  20
 2661.4998647998
   0
LINE
   5
365
 100
AcDbEntity
   8
LEVEL001
 370
25
 100
AcDbLine
   6
CONTINUOUS
  62
3
  10
 530.00006953647
  20
-38.500135200162
  30
0.0
  11
 1110.0000695365
  21
-38.500135200162
  31
0.0
   0
LINE
   5
366
 100
AcDbEntity
   8
LEVEL001
 370
25
 100
AcDbLine
   6
CONTINUOUS
  62
3
  10
 850.00019351413
  20
-38.500134008069
  30
0.0
  11
 850.00019351413
  21
-138.50013520016
  31
0.0
   0
LINE
   5
367
 100
AcDbEntity
   8
LEVEL001
 370
25
 100
AcDbLine
   6
CONTINUOUS
  62
3
  10
 790.00019351413
  20
-38.500134008069
  30
0.0
  11
 790.00019351413
  21
-138.50013520016
  31
0.0
   0
LINE
   5
368
 100
AcDbEntity
   8
LEVEL001
 370
25
 100
AcDbLine
   6
CONTINUOUS
  62
3
  10
 530.00006953647
  20
 61.499864799837
  30
0.0
  11
 530.00006953647
  21
-138.50013520016
  31
0.0
   0
INSERT
   5
369
 100
AcDbEntity
   8
0
 100
AcDbBlockReference
   2
BLOCK001
  10
0.0
  20
0.0
  30
0.0
   0
MTEXT
   5
36A
 100
AcDbEntity
   8
LEVEL001
 370
40
  62
7
 100
AcDbMText
  10
 543.68792811802
  20
-47.892176288314
  30
0.0
  40
 24.000000000000
  41
0.0
  71
1
  72
3
   1
日付
   7
GMM001
   0
MTEXT
   5
36B
 100
AcDbEntity
   8
LEVEL001
 370
40
  62
7
 100
AcDbMText
  10
 803.68805209568
  20
-48.920622801521
  30
0.0
  40
 24.000000000000
  41
0.0
  71
1
  72
3
   1
尺度
   7
GMM001
   0
LINE
   5
36C
 100
AcDbEntity
   8
LEVEL001
 370
25
 100
AcDbLine
   6
CONTINUOUS
  62
3
  10
 1110.0000695365
  20
 61.499864799837
  30
0.0
  11
 1110.0000695365
  21
-38.500135200162
  31
0.0
   0
LINE
   5
36D
 100
AcDbEntity
   8
LEVEL001
 370
25
 100
AcDbLine
   6
CONTINUOUS
  62
3
  10
 1170.0000695365
  20
 61.499864799837
  30
0.0
  11
 1170.0000695365
  21
-38.500135200162
  31
0.0
   0
MTEXT
   5
36E
 100
AcDbEntity
   8
LEVEL001
 370
40
  62
7
 100
AcDbMText
  10
 533.89528450723
  20
 25.207334352014
  30
0.0
  40
 24.000000000000
  41
0.0
  71
7
  72
1
   1
ワーク名称
   7
GMM002
   0
MTEXT
   5
36F
 100
AcDbEntity
   8
LEVEL001
 370
40
  62
7
 100
AcDbMText
  10
 1123.6879281180
  20
 49.521002732829
  30
0.0
  40
 24.000000000000
  41
0.0
  71
1
  72
3
   1
図番
   7
GMM001
   0
MTEXT
   5
370
 100
AcDbEntity
   8
LEVEL001
 370
40
  62
7
 100
AcDbMText
  10
 454.69234471207
  20
-43.222900930941
  30
0.0
  40
 35.000000000000
  41
0.0
  71
7
  72
1
   1
様
   7
GMM003
   0
LINE
   5
371
 100
AcDbEntity
   8
LEVEL001
 370
25
 100
AcDbLine
   6
CONTINUOUS
  62
3
  10
-149.99993046353
  20
-58.500135200162
  30
0.0
  11
 530.00006953647
  21
-58.500135200162
  31
0.0
   0
MTEXT
   5
372
 100
AcDbEntity
   8
LEVEL001
 370
40
  62
7
 100
AcDbMText
  10
-140.44366982897
  20
 25.207334352014
  30
0.0
  40
 24.000000000000
  41
0.0
  71
7
  72
1
   1
お客様
   7
GMM002
   0
MTEXT
   5
373
 100
AcDbEntity
   8
LEVEL001
 370
40
  62
7
 100
AcDbMText
  10
-140.44366982897
  20
-112.26121281294
  30
0.0
  40
 24.000000000000
  41
0.0
  71
7
  72
1
   1
仕様書番号
   7
GMM002
   0
MTEXT
   5
374
 100
AcDbEntity
   8
LEVEL001
 370
40
  62
7
 100
AcDbMText
  10
 857.90582263243
  20
-119.12078541604
  30
0.0
  40
 25.000000000000
  41
0.0
  71
4
  72
1
   1
Ａ４－１／１０\P
   7
GMM002
   0
INSERT
   5
375
 100
AcDbEntity
   8
0
 100
AcDbBlockReference
   2
BLOCK002
  10
0.0
  20
0.0
  30
0.0
   0
INSERT
   5
376
 100
AcDbEntity
   8
0
 100
AcDbBlockReference
   2
BLOCK003
  10
0.0
  20
0.0
  30
0.0
   0
LINE
   5
377
 100
AcDbEntity
   8
LEVEL001
 370
25
 100
AcDbLine
   6
DASHDOT
  62
3
  10
 990.12773722628
  20
 418.63572950447
  30
0.0
  11
 990.12773722628
  21
 378.18069345319
  31
0.0
   0
INSERT
   5
378
 100
AcDbEntity
   8
0
 100
AcDbBlockReference
   2
BLOCK004
  10
0.0
  20
0.0
  30
0.0
   0
MTEXT
   5
379
 100
AcDbEntity
   8
LEVEL001
 370
9
  62
11
 100
AcDbMText
  10
 374.72462648976
  20
 580.32591109606
  30
0.0
  40
 20.000000000000
  41
0.0
  71
7
  72
1
   1
ＳＴ－６
   7
GMM002
   0
LWPOLYLINE
   5
37A
 100
AcDbEntity
   8
LEVEL001
 370
40
   6
CONTINUOUS
  62
7
 100
AcDbPolyline
  90
4
  70
1
  10
 235.12773722628
  20
 407.68292996735
  10
 235.12773722628
  20
 388.68292996735
  10
 1015.1277372263
  20
 388.68292996735
  10
 1015.1277372263
  20
 407.68292996735
   0
LINE
   5
37B
 100
AcDbEntity
   8
LEVEL001
 370
25
 100
AcDbLine
   6
DASHDOT
  62
3
  10
 545.12773722628
  20
 1006.0874846668
  30
0.0
  11
 545.12773722628
  21
 371.36036275320
  31
0.0
   0
LWPOLYLINE
   5
37C
 100
AcDbEntity
   8
LEVEL001
 370
40
   6
CONTINUOUS
  62
7
 100
AcDbPolyline
  90
4
  70
1
  10
 375.12773722628
  20
 759.68292996735
  10
 715.12773722628
  20
 759.68292996735
  10
 715.12773722628
  20
 775.68292996735
  10
 375.12773722628
  20
 775.68292996735
   0
INSERT
   5
37D
 100
AcDbEntity
   8
0
 100
AcDbBlockReference
   2
BLOCK005
  10
0.0
  20
0.0
  30
0.0
   0
MTEXT
   5
37E
 100
AcDbEntity
   8
LEVEL001
 370
9
  62
11
 100
AcDbMText
  10
 378.08757410044
  20
 812.59934369297
  30
0.0
  40
 20.000000000000
  41
0.0
  71
4
  72
1
   1
Ｄ－１０\P
   7
GMM002
   0
DIMENSION
   5
37F
 100
AcDbEntity
   8
LEVEL001
 370
40
   6
CONTINUOUS
  62
7
 100
AcDbDimension
   2
*D1
  10
 870.12773722628
  20
 1118.5550338259
  30
0.0
  11
 545.12773722628
  21
 1118.5550338259
  31
0.0
  70
0
   3
GMM001
 100
AcDbAlignedDimension
  13
 220.12773722628
  23
 982.68292996735
  33
0.0
  14
 870.12773722628
  24
 982.68292996735
  34
0.0
 100
AcDbRotatedDimension
   0
DIMENSION
   5
380
 100
AcDbEntity
   8
LEVEL001
 370
40
   6
CONTINUOUS
  62
7
 100
AcDbDimension
   2
*D2
  10
 79.175438401282
  20
 982.68292996735
  30
0.0
  11
 79.175438401282
  21
 685.68292996735
  31
0.0
  70
0
   1
\A1;（５９４）
   3
GMM002
 100
AcDbAlignedDimension
  13
 235.12773722628
  23
 388.68292996735
  33
0.0
  14
 161.37773722628
  24
 982.68292996735
  34
0.0
  50
 90.000000000000
 100
AcDbRotatedDimension
   0
LINE
   5
382
 100
AcDbEntity
   8
LEVEL001
 370
40
 100
AcDbLine
   6
CONTINUOUS
  62
7
  10
 1025.1277372263
  20
 873.68292996735
  30
0.0
  11
 1025.1277372263
  21
 893.68292996735
  31
0.0
   0
INSERT
   5
383
 100
AcDbEntity
   8
0
 100
AcDbBlockReference
   2
BLOCK006
  10
0.0
  20
0.0
  30
0.0
   0
LWPOLYLINE
   5
384
 100
AcDbEntity
   8
LEVEL001
 370
40
   6
CONTINUOUS
  62
7
 100
AcDbPolyline
  90
4
  70
1
  10
 655.12773722628
  20
 893.68292996735
  10
 1335.1277372263
  20
 893.68292996735
  10
 1335.1277372263
  20
 918.68292996735
  10
 655.12773722628
  20
 918.68292996735
   0
MTEXT
   5
385
 100
AcDbEntity
   8
LEVEL001
 370
9
  62
11
 100
AcDbMText
  10
 827.21435180617
  20
 735.33672748295
  30
0.0
  40
 20.000000000000
  41
0.0
  71
7
  72
1
   1
ＳＨ－３０
   7
GMM002
   0
LWPOLYLINE
   5
386
 100
AcDbEntity
   8
LEVEL001
 370
40
   6
CONTINUOUS
  62
7
 100
AcDbPolyline
  90
4
  70
1
  10
 745.12773722628
  20
 666.68292996735
  10
 1005.1277372263
  20
 666.68292996735
  10
 1005.1277372263
  20
 678.68292996735
  10
 745.12773722628
  20
 678.68292996735
   0
INSERT
   5
387
 100
AcDbEntity
   8
0
 100
AcDbBlockReference
   2
BLOCK007
  10
0.0
  20
0.0
  30
0.0
   0
INSERT
   5
388
 100
AcDbEntity
   8
0
 100
AcDbBlockReference
   2
BLOCK008
  10
0.0
  20
0.0
  30
0.0
   0
DIMENSION
   5
389
 100
AcDbEntity
   8
LEVEL001
 370
40
   6
CONTINUOUS
  62
7
 100
AcDbDimension
   2
*D3
  10
 1128.0748675895
  20
 407.68292996735
  30
0.0
  11
 1128.0748675895
  21
 424.75721339266
  31
0.0
  70
128
   3
GMM003
 100
AcDbAlignedDimension
  13
 1015.1277372263
  23
 388.68292996735
  33
0.0
  14
 1015.1277372263
  24
 407.68292996735
  34
0.0
  50
 90.000000000000
 100
AcDbRotatedDimension
   0
DIMENSION
   5
38A
 100
AcDbEntity
   8
LEVEL001
 370
40
   6
CONTINUOUS
  62
7
 100
AcDbDimension
   2
*D4
  10
 1185.1470368969
  20
 918.68292996735
  30
0.0
  11
 1185.1470368969
  21
 653.68292996735
  31
0.0
  70
0
   3
GMM004
 100
AcDbAlignedDimension
  13
 1015.1277372263
  23
 388.68292996735
  33
0.0
  14
 1185.1470368969
  24
 918.68292996735
  34
0.0
  50
 90.000000000000
 100
AcDbRotatedDimension
   0
INSERT
   5
38B
 100
AcDbEntity
   8
0
 100
AcDbBlockReference
   2
BLOCK009
  10
0.0
  20
0.0
  30
0.0
   0
LINE
   5
38C
 100
AcDbEntity
   8
LEVEL001
 370
25
 100
AcDbLine
   6
DASHDOT
  62
3
  10
 875.12773722628
  20
 607.33889623048
  30
0.0
  11
 875.12773722628
  21
 392.61158091508
  31
0.0
   0
DIMENSION
   5
38D
 100
AcDbEntity
   8
LEVEL001
 370
40
   6
CONTINUOUS
  62
7
 100
AcDbDimension
   2
*D5
  10
 655.12773722628
  20
 1052.0093911341
  30
0.0
  11
 600.12773722628
  21
 1052.0093911341
  31
0.0
  70
0
   3
GMM004
 100
AcDbAlignedDimension
  13
 545.12773722628
  23
 1006.0874846668
  33
0.0
  14
 655.12773722628
  24
 918.68292996735
  34
0.0
 100
AcDbRotatedDimension
   0
DIMENSION
   5
38E
 100
AcDbEntity
   8
LEVEL001
 370
40
   6
CONTINUOUS
  62
7
 100
AcDbDimension
   2
*D6
  10
 1335.1277372263
  20
 1052.0093911341
  30
0.0
  11
 995.12773722628
  21
 1052.0093911341
  31
0.0
  70
0
   3
GMM004
 100
AcDbAlignedDimension
  13
 655.12773722628
  23
 918.68292996735
  33
0.0
  14
 1335.1277372263
  24
 918.68292996735
  34
0.0
 100
AcDbRotatedDimension
   0
INSERT
   5
38F
 100
AcDbEntity
   8
0
 100
AcDbBlockReference
   2
BLOCK010
  10
0.0
  20
0.0
  30
0.0
   0
INSERT
   5
390
 100
AcDbEntity
   8
0
 100
AcDbBlockReference
   2
BLOCK011
  10
0.0
  20
0.0
  30
0.0
   0
INSERT
   5
391
 100
AcDbEntity
   8
0
 100
AcDbBlockReference
   2
BLOCK012
  10
0.0
  20
0.0
  30
0.0
   0
INSERT
   5
392
 100
AcDbEntity
   8
0
 100
AcDbBlockReference
   2
BLOCK013
  10
0.0
  20
0.0
  30
0.0
   0
LWPOLYLINE
   5
393
 100
AcDbEntity
   8
LEVEL001
 370
9
   6
DOT
  62
11
 100
AcDbPolyline
  90
4
  70
1
  10
 1005.1277372263
  20
 2068.1058394161
  10
 1005.1277372263
  20
 1978.1058394161
  10
 745.12773722628
  20
 1978.1058394161
  10
 745.12773722628
  20
 2068.1058394161
   0
INSERT
   5
394
 100
AcDbEntity
   8
0
 100
AcDbBlockReference
   2
BLOCK014
  10
0.0
  20
0.0
  30
0.0
   0
LINE
   5
395
 100
AcDbEntity
   8
LEVEL001
 370
9
 100
AcDbLine
   6
DOT
  62
11
  10
 775.12773722628
  20
 1978.1058394161
  30
0.0
  11
 775.12773722628
  21
 2068.1058394161
  31
0.0
   0
LINE
   5
396
 100
AcDbEntity
   8
LEVEL001
 370
9
 100
AcDbLine
   6
DOT
  62
11
  10
 975.12774485567
  20
 1978.1058394161
  30
0.0
  11
 975.12774485567
  21
 2068.1058394161
  31
0.0
   0
INSERT
   5
397
 100
AcDbEntity
   8
0
 100
AcDbBlockReference
   2
BLOCK015
  10
0.0
  20
0.0
  30
0.0
   0
INSERT
   5
398
 100
AcDbEntity
   8
0
 100
AcDbBlockReference
   2
BLOCK016
  10
0.0
  20
0.0
  30
0.0
   0
INSERT
   5
399
 100
AcDbEntity
   8
0
 100
AcDbBlockReference
   2
BLOCK017
  10
0.0
  20
0.0
  30
0.0
   0
INSERT
   5
39A
 100
AcDbEntity
   8
0
 100
AcDbBlockReference
   2
BLOCK018
  10
0.0
  20
0.0
  30
0.0
   0
CIRCLE
   5
39B
 100
AcDbEntity
   8
LEVEL001
 370
40
 100
AcDbCircle
   6
CONTINUOUS
  62
7
  10
 990.12773722628
  20
 2088.1058394161
  30
0.0
  40
 7.0000000000000
   0
LINE
   5
39C
 100
AcDbEntity
   8
LEVEL001
 370
25
 100
AcDbLine
   6
DASHDOT
  62
3
  10
 990.12773722628
  20
 2076.1058394161
  30
0.0
  11
 990.12773722628
  21
 2100.1058394161
  31
0.0
   0
LINE
   5
39D
 100
AcDbEntity
   8
LEVEL001
 370
25
 100
AcDbLine
   6
DASHDOT
  62
3
  10
 1002.1277372263
  20
 2088.1058394161
  30
0.0
  11
 978.12773722628
  21
 2088.1058394161
  31
0.0
   0
LINE
   5
39E
 100
AcDbEntity
   8
LEVEL001
 370
25
 100
AcDbLine
   6
DOT
  62
3
  10
 1015.1277372263
  20
 1973.1058394161
  30
0.0
  11
 1015.1277372263
  21
 2073.1058394161
  31
0.0
   0
CIRCLE
   5
39F
 100
AcDbEntity
   8
LEVEL001
 370
40
 100
AcDbCircle
   6
CONTINUOUS
  62
7
  10
 260.12773722628
  20
 2088.1058394161
  30
0.0
  40
 7.0000000000000
   0
LINE
   5
3A0
 100
AcDbEntity
   8
LEVEL001
 370
25
 100
AcDbLine
   6
DASHDOT
  62
3
  10
 260.12773722628
  20
 2076.1058394161
  30
0.0
  11
 260.12773722628
  21
 2100.1058394161
  31
0.0
   0
LINE
   5
3A1
 100
AcDbEntity
   8
LEVEL001
 370
25
 100
AcDbLine
   6
DASHDOT
  62
3
  10
 272.12773722628
  20
 2088.1058394161
  30
0.0
  11
 248.12773722628
  21
 2088.1058394161
  31
0.0
   0
DIMENSION
   5
3A2
 100
AcDbEntity
   8
LEVEL001
 370
40
   6
CONTINUOUS
  62
7
 100
AcDbDimension
   2
*D7
  10
 990.12773722628
  20
 2208.6800195609
  30
0.0
  11
 625.12773722628
  21
 2208.6800195609
  31
0.0
  70
0
   3
GMM004
 100
AcDbAlignedDimension
  13
 260.12773722628
  23
 2100.1058394161
  33
0.0
  14
 990.12773722628
  24
 2100.1058394161
  34
0.0
 100
AcDbRotatedDimension
   0
DIMENSION
   5
3A3
 100
AcDbEntity
   8
LEVEL001
 370
40
   6
CONTINUOUS
  62
7
 100
AcDbDimension
   2
*D8
  10
 1015.1277372263
  20
 2208.6800195609
  30
0.0
  11
 1040.4287152840
  21
 2208.6800195609
  31
0.0
  70
128
   3
GMM005
 100
AcDbAlignedDimension
  13
 990.12773722628
  23
 2100.1058394161
  33
0.0
  14
 1015.1277372263
  24
 2113.1058394161
  34
0.0
 100
AcDbRotatedDimension
   0
LEADER
   5
3A4
 100
AcDbEntity
   8
LEVEL001
 370
40
   6
CONTINUOUS
  62
3
 100
AcDbLeader
   3
GMM006
  73
0
  74
0
  75
0
  40
 25.000000000000
  41
 313.90087719711
  76
2
  10
 254.18719957273
  20
 2096.5570557902
  30
0.0
  10
 44.037158403062
  20
 2358.2801985045
  30
0.0
  77
3
 340
3A6
 213
0.0
 223
-10.714285714286
 233
0.0
   0
MTEXT
   5
3A6
 102
{ACAD_REACTORS
 330
3A5
 102
}
 100
AcDbEntity
   8
LEVEL001
 370
40
  62
7
 100
AcDbMText
  10
 77.938035600170
  20
 2368.9944842188
  30
0.0
  40
 25.000000000000
  41
0.0
  71
7
  72
1
   1
\A1;４－φ１４取付穴
   7
GMM003
   0
LWPOLYLINE
   5
3A7
 100
AcDbEntity
   8
LEVEL001
 370
40
   6
CONTINUOUS
  62
7
 100
AcDbPolyline
  90
4
  70
1
  10
 655.12773722628
  20
 2003.1058394161
  10
 655.12773722628
  20
 2043.1058394161
  10
 1335.1277372263
  20
 2043.1058394161
  10
 1335.1277372263
  20
 2003.1058394161
   0
LINE
   5
3A8
 100
AcDbEntity
   8
LEVEL001
 370
25
 100
AcDbLine
   6
DASHDOT
  62
3
  10
 1370.6989941250
  20
 2023.1058394161
  30
0.0
  11
 545.12773722628
  21
 2023.1058394161
  31
0.0
   0
DIMENSION
   5
3A9
 100
AcDbEntity
   8
LEVEL001
 370
40
   6
CONTINUOUS
  62
7
 100
AcDbDimension
   2
*D10
  10
 1015.1277372263
  20
 2277.1258647629
  30
0.0
  11
 625.12773722628
  21
 2277.1258647629
  31
0.0
  70
0
   3
GMM004
 100
AcDbAlignedDimension
  13
 235.12773722628
  23
 2113.1058394161
  33
0.0
  14
 1015.1277372263
  24
 2113.1058394161
  34
0.0
 100
AcDbRotatedDimension
   0
DIMENSION
   5
3AA
 100
AcDbEntity
   8
LEVEL001
 370
40
   6
CONTINUOUS
  62
7
 100
AcDbDimension
   2
*D11
  10
 1335.1277372263
  20
 2277.1258647629
  30
0.0
  11
 1175.1277372263
  21
 2277.1258647629
  31
0.0
  70
0
   3
GMM004
 100
AcDbAlignedDimension
  13
 1015.1277372263
  23
 2113.1058394161
  33
0.0
  14
 1335.1277372263
  24
 2043.1058394161
  34
0.0
 100
AcDbRotatedDimension
   0
INSERT
   5
3AB
 100
AcDbEntity
   8
0
 100
AcDbBlockReference
   2
BLOCK019
  10
0.0
  20
0.0
  30
0.0
   0
LINE
   5
3AC
 100
AcDbEntity
   8
LEVEL001
 370
25
 100
AcDbLine
   6
DASHDOT
  62
3
  10
 1061.7495382322
  20
 1633.1058394161
  30
0.0
  11
 154.19763663878
  21
 1633.1058394161
  31
0.0
   0
INSERT
   5
3AD
 100
AcDbEntity
   8
0
 100
AcDbBlockReference
   2
BLOCK020
  10
0.0
  20
0.0
  30
0.0
   0
INSERT
   5
3AE
 100
AcDbEntity
   8
0
 100
AcDbBlockReference
   2
BLOCK021
  10
0.0
  20
0.0
  30
0.0
   0
DIMENSION
   5
3AF
 100
AcDbEntity
   8
LEVEL001
 370
40
   6
CONTINUOUS
  62
7
 100
AcDbDimension
   2
*D12
  10
 1185.1470368969
  20
 2023.1058394161
  30
0.0
  11
 1185.1470368969
  21
 2126.7069356193
  31
0.0
  70
128
   3
GMM007
 100
AcDbAlignedDimension
  13
 1015.1277372263
  23
 2113.1058394161
  33
0.0
  14
 1165.3518837903
  24
 2023.1058394161
  34
0.0
  50
 270.00000000000
 100
AcDbRotatedDimension
   0
DIMENSION
   5
3B0
 100
AcDbEntity
   8
LEVEL001
 370
40
   6
CONTINUOUS
  62
7
 100
AcDbDimension
   2
*D13
  10
 1185.1470368969
  20
 1633.1058394161
  30
0.0
  11
 1185.1470368969
  21
 1828.1058394161
  31
0.0
  70
0
   3
GMM004
 100
AcDbAlignedDimension
  13
 1165.3518837903
  23
 2023.1058394161
  33
0.0
  14
 1061.7495382322
  24
 1633.1058394161
  34
0.0
  50
 270.00000000000
 100
AcDbRotatedDimension
   0
CIRCLE
   5
3B1
 100
AcDbEntity
   8
LEVEL001
 370
40
 100
AcDbCircle
   6
CONTINUOUS
  62
7
  10
 990.12773722628
  20
 1378.1058394161
  30
0.0
  40
 7.0000000000000
   0
LINE
   5
3B2
 100
AcDbEntity
   8
LEVEL001
 370
25
 100
AcDbLine
   6
DASHDOT
  62
3
  10
 990.12773722628
  20
 1366.1058394161
  30
0.0
  11
 990.12773722628
  21
 1390.1058394161
  31
0.0
   0
LINE
   5
3B3
 100
AcDbEntity
   8
LEVEL001
 370
25
 100
AcDbLine
   6
DASHDOT
  62
3
  10
 1002.1277372263
  20
 1378.1058394161
  30
0.0
  11
 978.12773722628
  21
 1378.1058394161
  31
0.0
   0
CIRCLE
   5
3B4
 100
AcDbEntity
   8
LEVEL001
 370
40
 100
AcDbCircle
   6
CONTINUOUS
  62
7
  10
 260.12773722628
  20
 1378.1058394161
  30
0.0
  40
 7.0000000000000
   0
LINE
   5
3B5
 100
AcDbEntity
   8
LEVEL001
 370
25
 100
AcDbLine
   6
DASHDOT
  62
3
  10
 260.12773722628
  20
 1366.1058394161
  30
0.0
  11
 260.12773722628
  21
 1390.1058394161
  31
0.0
   0
LINE
   5
3B6
 100
AcDbEntity
   8
LEVEL001
 370
25
 100
AcDbLine
   6
DASHDOT
  62
3
  10
 272.12773722628
  20
 1378.1058394161
  30
0.0
  11
 248.12773722628
  21
 1378.1058394161
  31
0.0
   0
LWPOLYLINE
   5
3B7
 100
AcDbEntity
   8
LEVEL001
 370
40
   6
CONTINUOUS
  62
7
 100
AcDbPolyline
  90
3
  70
0
  10
 1015.1277372263
  20
 1973.1058394161
  10
 1015.1277372263
  20
 1353.1058394161
  10
 736.74910868573
  20
 1353.1058394161
   0
LINE
   5
3B8
 100
AcDbEntity
   8
LEVEL001
 370
25
 100
AcDbLine
   6
DOT
  62
3
  10
 335.21704192944
  20
 1353.1058394161
  30
0.0
  11
 736.74910868573
  21
 1353.1058394161
  31
0.0
   0
LWPOLYLINE
   5
3B9
 100
AcDbEntity
   8
LEVEL001
 370
40
   6
CONTINUOUS
  62
7
 100
AcDbPolyline
  90
4
  70
0
  10
 235.12773722628
  20
 1900.5505840500
  10
 235.12773722628
  20
 2113.1058394161
  10
 1015.1277372263
  20
 2113.1058394161
  10
 1015.1277372263
  20
 2073.1058394161
   0
LWPOLYLINE
   5
3BA
 100
AcDbEntity
   8
LEVEL001
 370
40
   6
CONTINUOUS
  62
7
 100
AcDbPolyline
  90
3
  70
0
  10
 335.21704192944
  20
 1353.1058394161
  10
 235.12773722628
  20
 1353.1058394161
  10
 235.12773722628
  20
 1448.1610947821
   0
LINE
   5
3BB
 100
AcDbEntity
   8
LEVEL001
 370
25
 100
AcDbLine
   6
DOT
  62
3
  10
 235.12773722628
  20
 1448.1610947821
  30
0.0
  11
 235.12773722628
  21
 1900.5505840500
  31
0.0
   0
DIMENSION
   5
3BC
 100
AcDbEntity
   8
LEVEL001
 370
40
   6
CONTINUOUS
  62
7
 100
AcDbDimension
   2
*D14
  10
 4.2578889976858
  20
 1353.1058394161
  30
0.0
  11
 4.2578889976858
  21
 1733.1058394161
  31
0.0
  70
0
   3
GMM004
 100
AcDbAlignedDimension
  13
 235.12773722628
  23
 2113.1058394161
  33
0.0
  14
 235.12773722628
  24
 1353.1058394161
  34
0.0
  50
 270.00000000000
 100
AcDbRotatedDimension
   0
DIMENSION
   5
3BD
 100
AcDbEntity
   8
LEVEL001
 370
40
   6
CONTINUOUS
  62
7
 100
AcDbDimension
   2
*D15
  10
 79.175438401282
  20
 2088.1058394161
  30
0.0
  11
 79.175438401282
  21
 2136.7477158400
  31
0.0
  70
128
   3
GMM008
 100
AcDbAlignedDimension
  13
 235.12773722628
  23
 2113.1058394161
  33
0.0
  14
 248.12773722628
  24
 2088.1058394161
  34
0.0
  50
 270.00000000000
 100
AcDbRotatedDimension
   0
DIMENSION
   5
3BE
 100
AcDbEntity
   8
LEVEL001
 370
40
   6
CONTINUOUS
  62
7
 100
AcDbDimension
   2
*D16
  10
 79.175438401282
  20
 1378.1058394161
  30
0.0
  11
 79.175438401282
  21
 1733.1058394161
  31
0.0
  70
0
   3
GMM004
 100
AcDbAlignedDimension
  13
 248.12773722628
  23
 2088.1058394161
  33
0.0
  14
 248.12773722628
  24
 1378.1058394161
  34
0.0
  50
 270.00000000000
 100
AcDbRotatedDimension
   0
LINE
   5
3BF
 100
AcDbEntity
   8
LEVEL001
 370
25
 100
AcDbLine
   6
DASHDOT
  62
3
  10
 545.12773722628
  20
 1228.1058394161
  30
0.0
  11
 545.12773722628
  21
 2088.2732744122
  31
0.0
   0
INSERT
   5
3C0
 100
AcDbEntity
   8
0
 100
AcDbBlockReference
   2
BLOCK022
  10
0.0
  20
0.0
  30
0.0
   0
INSERT
   5
3C1
 100
AcDbEntity
   8
0
 100
AcDbBlockReference
   2
BLOCK023
  10
0.0
  20
0.0
  30
0.0
   0
LWPOLYLINE
   5
3C2
 100
AcDbEntity
   8
LEVEL001
 370
40
   6
CONTINUOUS
  62
7
 100
AcDbPolyline
  90
4
  70
0
  10
 1394.6608509881
  20
 407.68292996735
  10
 1600.9452554745
  20
 407.68292996735
  10
 1600.9452554745
  20
 388.68292996735
  10
 1394.6608509881
  20
 388.68292996735
   0
INSERT
   5
3C3
 100
AcDbEntity
   8
0
 100
AcDbBlockReference
   2
BLOCK024
  10
0.0
  20
0.0
  30
0.0
   0
LWPOLYLINE
   5
3C4
 100
AcDbEntity
   8
LEVEL001
 370
40
   6
CONTINUOUS
  62
7
 100
AcDbPolyline
  90
4
  70
1
  10
 1560.9452554745
  20
 873.68292996735
  10
 1460.9452554745
  20
 873.68292996735
  10
 1460.9452554745
  20
 893.68292996735
  10
 1560.9452554745
  20
 893.68292996735
   0
LWPOLYLINE
   5
3C5
 100
AcDbEntity
   8
LEVEL001
 370
40
   6
CONTINUOUS
  62
7
 100
AcDbPolyline
  90
4
  70
1
  10
 1530.9452554745
  20
 893.68292996735
  10
 1490.9452554745
  20
 893.68292996735
  10
 1490.9452554745
  20
 918.68292996735
  10
 1530.9452554745
  20
 918.68292996735
   0
LWPOLYLINE
   5
3C6
 100
AcDbEntity
   8
LEVEL001
 370
40
   6
CONTINUOUS
  62
7
 100
AcDbPolyline
  90
4
  70
1
  10
 1465.9452554745
  20
 678.68292996735
  10
 1555.9452554745
  20
 678.68292996735
  10
 1555.9452554745
  20
 666.68292996735
  10
 1465.9452554745
  20
 666.68292996735
   0
INSERT
   5
3C7
 100
AcDbEntity
   8
0
 100
AcDbBlockReference
   2
BLOCK025
  10
0.0
  20
0.0
  30
0.0
   0
INSERT
   5
3C8
 100
AcDbEntity
   8
0
 100
AcDbBlockReference
   2
BLOCK026
  10
0.0
  20
0.0
  30
0.0
   0
LINE
   5
3C9
 100
AcDbEntity
   8
LEVEL001
 370
25
 100
AcDbLine
   6
DASHDOT
  62
3
  10
 1510.9452554745
  20
 946.76020340039
  30
0.0
  11
 1510.9452554745
  21
 364.17689916799
  31
0.0
   0
INSERT
   5
3CA
 100
AcDbEntity
   8
0
 100
AcDbBlockReference
   2
BLOCK027
  10
0.0
  20
0.0
  30
0.0
   0
LINE
   5
3CB
 100
AcDbEntity
   8
LEVEL001
 370
40
 100
AcDbLine
   6
CONTINUOUS
  62
7
  10
 755.12773722628
  20
 873.68292996735
  30
0.0
  11
 755.12773722628
  21
 893.68292996735
  31
0.0
   0
MTEXT
   5
3CC
 100
AcDbEntity
   8
LEVEL001
 370
40
  62
7
 100
AcDbMText
  10
 1195.3350869210
  20
-8.4943132830715
  30
0.0
  40
 30.000000000000
  41
0.0
  71
7
  72
1
   1
ＳＴ６Ｒｄ１０／ＳＨ３０
   7
GMM002
   0
ENDSEC
  0
SECTION
  2
OBJECTS
  0
DICTIONARY
  5
C
100
AcDbDictionary
  3
ACAD_GROUP
350
D
  3
ACAD_MLINESTYLE
350
1B
  0
DICTIONARY
  5
D
102
{ACAD_REACTORS
330
C
102
}
100
AcDbDictionary
  0
DICTIONARY
  5
1B
102
{ACAD_REACTORS
330
C
102
}
100
AcDbDictionary
  3
STANDARD
350
1C
  0
MLINESTYLE
  5
1C
102
{ACAD_REACTORS
330
1B
102
}
100
AcDbMlineStyle
  2
STANDARD
 70
     0
  3

 62
   256
 51
90.0
 52
90.0
 71
     2
 49
0.5
 62
   256
  6
BYLAYER
 49
-0.5
 62
   256
  6
BYLAYER
  0
ENDSEC
   0
EOF
