   0
SECTION
   2
HEADER
   9
$ACADVER
   1
AC1015
   9
$DWGCODEPAGE
   3
ANSI_932
   9
$LIMMIN
  10
-210.00000000000
  20
-148.50000000000
   9
$LIMMAX
  10
 1470.0000000000
  20
 2227.5000000000
   9
$EXTMIN
  10
-210.00000000000
  20
-148.50000000000
  30
0.0
   9
$EXTMAX
  10
 1470.0000000000
  20
 2227.5000000000
  30
0.0
   9
$LTSCALE
  40
 47.520000000000
   9
$HANDSEED
   5
3BA
   0
ENDSEC
   0
SECTION
   2
TABLES
  0
TABLE
  2
VPORT
  5
8
100
AcDbSymbolTable
 70
     1
  0
VPORT
  5
3B9
100
AcDbSymbolTableRecord
100
AcDbViewportTableRecord
  2
*ACTIVE
 70
     0
 10
0.0
 20
0.0
 11
1.0
 21
1.0
  12
 630.00000000000
  22
 1039.5000000000
 13
0.0
 23
0.0
 14
1.0
 24
1.0
 15
0.0
 25
0.0
 16
0.0
 26
0.0
 36
1.0
 17
0.0
 27
0.0
 37
0.0
  40
 2376.0000000000
  41
 1.4787878787879
 42
50.0
 43
0.0
 44
0.0
 50
0.0
 51
0.0
 71
     0
 72
   100
 73
     1
 74
     1
 75
     0
 76
     0
 77
     0
 78
     0
  0
ENDTAB
  0
TABLE
  2
LTYPE
  5
5
100
AcDbSymbolTable
 70
    25
  0
LTYPE
  5
12
100
AcDbSymbolTableRecord
100
AcDbLinetypeTableRecord
  2
BYBLOCK
 70
     0
  3

 72
    65
 73
     0
 40
0.0
  0
LTYPE
  5
13
100
AcDbSymbolTableRecord
100
AcDbLinetypeTableRecord
  2
BYLAYER
 70
     0
  3

 72
    65
 73
     0
 40
0.0
  0
LTYPE
  5
14
100
AcDbSymbolTableRecord
100
AcDbLinetypeTableRecord
  2
CONTINUOUS
 70
     0
  3
Solid line
 72
    65
 73
     0
 40
0.0
  0
LTYPE
  5
20
100
AcDbSymbolTableRecord
100
AcDbLinetypeTableRecord
  2
BORDER
 70
     0
  3
__ __ . __ __ . __ __ . __ __ . __ __ . __ __ .
 72
    65
 73
     6
 40
1.75
 49
0.5
 74
     0
 49
-0.25
 74
     0
 49
0.5
 74
     0
 49
-0.25
 74
     0
 49
0.0
 74
     0
 49
-0.25
 74
     0
  0
LTYPE
  5
21
100
AcDbSymbolTableRecord
100
AcDbLinetypeTableRecord
  2
BORDER2
 70
     0
  3
__.__.__.__.__.__.__.__.__.__.__.__.__.__.__.__
 72
    65
 73
     6
 40
0.875
 49
0.25
 74
     0
 49
-0.125
 74
     0
 49
0.25
 74
     0
 49
-0.125
 74
     0
 49
0.0
 74
     0
 49
-0.125
 74
     0
  0
LTYPE
  5
22
100
AcDbSymbolTableRecord
100
AcDbLinetypeTableRecord
  2
BORDERX2
 70
     0
  3
____  ____  .  ____  ____  .  ____  ____  .  __
 72
    65
 73
     6
 40
3.5
 49
1.0
 74
     0
 49
-0.5
 74
     0
 49
1.0
 74
     0
 49
-0.5
 74
     0
 49
0.0
 74
     0
 49
-0.5
 74
     0
  0
LTYPE
  5
23
100
AcDbSymbolTableRecord
100
AcDbLinetypeTableRecord
  2
CENTER
 70
     0
  3
____ _ ____ _ ____ _ ____ _ ____ _ ____ _ ____ 
 72
    65
 73
     4
 40
2.0
 49
1.25
 74
     0
 49
-0.25
 74
     0
 49
0.25
 74
     0
 49
-0.25
 74
     0
  0
LTYPE
  5
24
100
AcDbSymbolTableRecord
100
AcDbLinetypeTableRecord
  2
CENTER2
 70
     0
  3
___ _ ___ _ ___ _ ___ _ ___ _ ___ _ ___ _ ___ _
 72
    65
 73
     4
 40
1.125
 49
0.75
 74
     0
 49
-0.125
 74
     0
 49
0.125
 74
     0
 49
-0.125
 74
     0
  0
LTYPE
  5
25
100
AcDbSymbolTableRecord
100
AcDbLinetypeTableRecord
  2
CENTERX2
 70
     0
  3
________  __  ________  __  ________  __  _____
 72
    65
 73
     4
 40
4.0
 49
2.5
 74
     0
 49
-0.5
 74
     0
 49
0.5
 74
     0
 49
-0.5
 74
     0
  0
LTYPE
  5
26
100
AcDbSymbolTableRecord
100
AcDbLinetypeTableRecord
  2
DASHDOT
 70
     0
  3
__ . __ . __ . __ . __ . __ . __ . __ . __ . __
 72
    65
 73
     4
 40
1.0
 49
0.5
 74
     0
 49
-0.25
 74
     0
 49
0.0
 74
     0
 49
-0.25
 74
     0
  0
LTYPE
  5
27
100
AcDbSymbolTableRecord
100
AcDbLinetypeTableRecord
  2
DASHDOT2
 70
     0
  3
_._._._._._._._._._._._._._._._._._._._._._._._
 72
    65
 73
     4
 40
0.5
 49
0.25
 74
     0
 49
-0.125
 74
     0
 49
0.0
 74
     0
 49
-0.125
 74
     0
  0
LTYPE
  5
28
100
AcDbSymbolTableRecord
100
AcDbLinetypeTableRecord
  2
DASHDOTX2
 70
     0
  3
____  .  ____  .  ____  .  ____  .  ____  .  __
 72
    65
 73
     4
 40
2.0
 49
1.0
 74
     0
 49
-0.5
 74
     0
 49
0.0
 74
     0
 49
-0.5
 74
     0
  0
LTYPE
  5
29
100
AcDbSymbolTableRecord
100
AcDbLinetypeTableRecord
  2
DASHED
 70
     0
  3
__ __ __ __ __ __ __ __ __ __ __ __ __ __ __ __
 72
    65
 73
     2
 40
0.75
 49
0.5
 74
     0
 49
-0.25
 74
     0
  0
LTYPE
  5
2A
100
AcDbSymbolTableRecord
100
AcDbLinetypeTableRecord
  2
DASHED2
 70
     0
  3
_ _ _ _ _ _ _ _ _ _ _ _ _ _ _ _ _ _ _ _ _ _ _ _
 72
    65
 73
     2
 40
0.375
 49
0.25
 74
     0
 49
-0.125
 74
     0
  0
LTYPE
  5
2B
100
AcDbSymbolTableRecord
100
AcDbLinetypeTableRecord
  2
DASHEDX2
 70
     0
  3
____  ____  ____  ____  ____  ____  ____  ____ 
 72
    65
 73
     2
 40
1.5
 49
1.0
 74
     0
 49
-0.5
 74
     0
  0
LTYPE
  5
2C
100
AcDbSymbolTableRecord
100
AcDbLinetypeTableRecord
  2
DIVIDE
 70
     0
  3
____ . . ____ . . ____ . . ____ . . ____ . . __
 72
    65
 73
     6
 40
1.25
 49
0.5
 74
     0
 49
-0.25
 74
     0
 49
0.0
 74
     0
 49
-0.25
 74
     0
 49
0.0
 74
     0
 49
-0.25
 74
     0
  0
LTYPE
  5
2D
100
AcDbSymbolTableRecord
100
AcDbLinetypeTableRecord
  2
DIVIDE2
 70
     0
  3
__..__..__..__..__..__..__..__..__..__..__..__.
 72
    65
 73
     6
 40
0.625
 49
0.25
 74
     0
 49
-0.125
 74
     0
 49
0.0
 74
     0
 49
-0.125
 74
     0
 49
0.0
 74
     0
 49
-0.125
 74
     0
  0
LTYPE
  5
2E
100
AcDbSymbolTableRecord
100
AcDbLinetypeTableRecord
  2
DIVIDEX2
 70
     0
  3
________  .  .  ________  .  .  ________  .  . 
 72
    65
 73
     6
 40
2.5
 49
1.0
 74
     0
 49
-0.5
 74
     0
 49
0.0
 74
     0
 49
-0.5
 74
     0
 49
0.0
 74
     0
 49
-0.5
 74
     0
  0
LTYPE
  5
2F
100
AcDbSymbolTableRecord
100
AcDbLinetypeTableRecord
  2
DOT
 70
     0
  3
. . . . . . . . . . . . . . . . . . . . . . . .
 72
    65
 73
     2
 40
0.25
 49
0.0
 74
     0
 49
-0.25
 74
     0
  0
LTYPE
  5
30
100
AcDbSymbolTableRecord
100
AcDbLinetypeTableRecord
  2
DOT2
 70
     0
  3
...............................................
 72
    65
 73
     2
 40
0.125
 49
0.0
 74
     0
 49
-0.125
 74
     0
  0
LTYPE
  5
31
100
AcDbSymbolTableRecord
100
AcDbLinetypeTableRecord
  2
DOTX2
 70
     0
  3
.  .  .  .  .  .  .  .  .  .  .  .  .  .  .  . 
 72
    65
 73
     2
 40
0.5
 49
0.0
 74
     0
 49
-0.5
 74
     0
  0
LTYPE
  5
32
100
AcDbSymbolTableRecord
100
AcDbLinetypeTableRecord
  2
HIDDEN
 70
     0
  3
__ __ __ __ __ __ __ __ __ __ __ __ __ __ __ __
 72
    65
 73
     2
 40
0.375
 49
0.25
 74
     0
 49
-0.125
 74
     0
  0
LTYPE
  5
33
100
AcDbSymbolTableRecord
100
AcDbLinetypeTableRecord
  2
HIDDEN2
 70
     0
  3
_ _ _ _ _ _ _ _ _ _ _ _ _ _ _ _ _ _ _ _ _ _ _ _
 72
    65
 73
     2
 40
0.1875
 49
0.125
 74
     0
 49
-0.0625
 74
     0
  0
LTYPE
  5
34
100
AcDbSymbolTableRecord
100
AcDbLinetypeTableRecord
  2
HIDDENX2
 70
     0
  3
____ ____ ____ ____ ____ ____ ____ ____ ____ __
 72
    65
 73
     2
 40
0.75
 49
0.5
 74
     0
 49
-0.25
 74
     0
  0
LTYPE
  5
35
100
AcDbSymbolTableRecord
100
AcDbLinetypeTableRecord
  2
PHANTOM
 70
     0
  3
______  __  __  ______  __  __  ______  __  __ 
 72
    65
 73
     6
 40
2.5
 49
1.25
 74
     0
 49
-0.25
 74
     0
 49
0.25
 74
     0
 49
-0.25
 74
     0
 49
0.25
 74
     0
 49
-0.25
 74
     0
  0
LTYPE
  5
36
100
AcDbSymbolTableRecord
100
AcDbLinetypeTableRecord
  2
PHANTOM2
 70
     0
  3
___ _ _ ___ _ _ ___ _ _ ___ _ _ ___ _ _ ___ _ _
 72
    65
 73
     6
 40
1.25
 49
0.625
 74
     0
 49
-0.125
 74
     0
 49
0.125
 74
     0
 49
-0.125
 74
     0
 49
0.125
 74
     0
 49
-0.125
 74
     0
  0
LTYPE
  5
37
100
AcDbSymbolTableRecord
100
AcDbLinetypeTableRecord
  2
PHANTOMX2
 70
     0
  3
____________    ____    ____    ____________   
 72
    65
 73
     6
 40
5.0
 49
2.5
 74
     0
 49
-0.5
 74
     0
 49
0.5
 74
     0
 49
-0.5
 74
     0
 49
0.5
 74
     0
 49
-0.5
 74
     0
  0
ENDTAB
   0
TABLE
   2
LAYER
   5
2
 100
AcDbSymbolTable
  70
2
   0
LAYER
   5
E
 100
AcDbSymbolTableRecord
 100
AcDbLayerTableRecord
   2
0
  70
0
  62
7
   6
CONTINUOUS
 390
30
   0
LAYER
   5
39
 100
AcDbSymbolTableRecord
 100
AcDbLayerTableRecord
   2
LEVEL001
  70
0
  62
7
   6
CONTINUOUS
 390
30
   0
ENDTAB
  0
TABLE
  2
STYLE
  5
3
100
AcDbSymbolTable
  70
5
  0
STYLE
  5
F
100
AcDbSymbolTableRecord
100
AcDbTextStyleTableRecord
  2
STANDARD
 70
     0
 40
0.0
 41
1.0
 50
0.0
 71
     0
 42
0.2
  3
TXT
  4
BIGFONT
  0
STYLE
  5
38
100
AcDbSymbolTableRecord
100
AcDbTextStyleTableRecord
  2
STANDARD1
 70
     4
 40
0.0
 41
1.0
 50
0.0
 71
     0
 42
0.2
  3
TXT
  4
BIGFONT
   0
STYLE
   5
3A
 100
AcDbSymbolTableRecord
 100
AcDbTextStyleTableRecord
   2
GMM001
  70
4
  40
0.0
  41
 1.0000000000000
  50
0.0
  71
     0
  42
1.0
   3

   4

1001
ACAD
1000
ＭＳ 明朝
1071
32785
   0
STYLE
   5
3B
 100
AcDbSymbolTableRecord
 100
AcDbTextStyleTableRecord
   2
GMM002
  70
0
  40
0.0
  41
 1.0000000000000
  50
0.0
  71
     0
  42
1.0
   3

   4

1001
ACAD
1000
ＭＳ 明朝
1071
32785
   0
STYLE
   5
3C
 100
AcDbSymbolTableRecord
 100
AcDbTextStyleTableRecord
   2
GMM003
  70
0
  40
0.0
  41
 1.0000000000000
  50
0.0
  71
     0
  42
1.0
   3

   4

1001
ACAD
1000
ＭＳ ゴシック
1071
32817
   0
ENDTAB
  0
TABLE
  2
VIEW
  5
6
100
AcDbSymbolTable
 70
     0
  0
ENDTAB
  0
TABLE
  2
UCS
  5
7
100
AcDbSymbolTable
 70
     0
  0
ENDTAB
  0
TABLE
  2
APPID
  5
9
100
AcDbSymbolTable
 70
     1
  0
APPID
  5
10
100
AcDbSymbolTableRecord
100
AcDbRegAppTableRecord
  2
ACAD
 70
     0
  0
ENDTAB
   0
TABLE
   2
DIMSTYLE
   5
A
 100
AcDbSymbolTable
  70
9
 100
AcDbDimStyleTable
  0
DIMSTYLE
105
1D
100
AcDbSymbolTableRecord
100
AcDbDimStyleTableRecord
  2
STANDARD
 70
     0
  3

  4

  5

  6

  7

 40
1.0
 41
0.18
 42
0.0625
 43
0.38
 44
0.18
 45
0.0
 46
0.0
 47
0.0
 48
0.0
140
0.18
141
0.09
142
0.0
143
25.4
144
1.0
145
0.0
146
1.0
147
0.09
 71
     0
 72
     0
 73
     1
 74
     1
 75
     0
 76
     0
 77
     0
 78
     0
170
     0
171
     2
172
     0
173
     0
174
     0
175
     0
176
     0
177
     0
178
     0
270
     2
271
     4
272
     4
273
     2
274
     2
340
F
275
     0
280
     0
281
     0
282
     0
283
     1
284
     0
285
     0
286
     0
287
     3
288
     0
   0
DIMSTYLE
 105
3D
 100
AcDbSymbolTableRecord
 100
AcDbDimStyleTableRecord
   2
GMM001
  70
0
   3
（<>
   4

   5

   6
_OPEN30
   7
_OPEN30
  40
 1.0000000000000
  41
 16.000000000000
  42
 8.0000000000000
  43
 64.000000000000
  44
 12.000000000000
  45
0.0
  46
0.0
  47
0.0
  48
0.0
 140
 20.000000000000
 141
 8.0000000000000
 142
0.0
 143
 0.39400000000000E-1
 144
 1.0000000000000
 145
0.0
 146
 1.0000000000000
 147
 8.5714285714286
  71
0
  72
0
  73
0
  74
0
  75
0
  76
0
  77
3
  78
8
 170
0
 171
2
 172
1
 173
1
 174
0
 175
0
 176
3
 177
3
 178
7
 270
2
 271
6
 272
0
 273
2
 274
2
 340
3C
 275
0
 280
0
 281
0
 282
0
 283
1
 284
0
 285
0
 286
0
 287
3
 288
0
   0
DIMSTYLE
 105
3E
 100
AcDbSymbolTableRecord
 100
AcDbDimStyleTableRecord
   2
GMM002
  70
0
   3

   4

   5

   6
_OPEN30
   7
_OPEN30
  40
 1.0000000000000
  41
 16.000000000000
  42
 8.0000000000000
  43
 64.000000000000
  44
 12.000000000000
  45
0.0
  46
0.0
  47
0.0
  48
0.0
 140
 20.000000000000
 141
 8.0000000000000
 142
0.0
 143
 0.39400000000000E-1
 144
 1.0000000000000
 145
0.0
 146
 1.0000000000000
 147
 8.5714285714286
  71
0
  72
0
  73
0
  74
0
  75
0
  76
0
  77
3
  78
8
 170
0
 171
2
 172
1
 173
1
 174
0
 175
0
 176
3
 177
3
 178
7
 270
2
 271
6
 272
0
 273
2
 274
2
 340
3C
 275
0
 280
0
 281
0
 282
0
 283
1
 284
0
 285
0
 286
0
 287
3
 288
0
   0
DIMSTYLE
 105
3F
 100
AcDbSymbolTableRecord
 100
AcDbDimStyleTableRecord
   2
GMM003
  70
0
   3

   4

   5

   6
_OPEN30
   7
_OPEN30
  40
 1.0000000000000
  41
 16.000000000000
  42
 8.0000000000000
  43
 64.000000000000
  44
 12.000000000000
  45
0.0
  46
0.0
  47
0.0
  48
0.0
 140
 20.000000000000
 141
 8.0000000000000
 142
0.0
 143
 0.39400000000000E-1
 144
 1.0000000000000
 145
0.0
 146
 1.0000000000000
 147
 9.6726903611357
  71
0
  72
0
  73
0
  74
0
  75
0
  76
0
  77
3
  78
8
 170
0
 171
2
 172
1
 173
1
 174
0
 175
0
 176
3
 177
3
 178
7
 270
2
 271
6
 272
0
 273
2
 274
2
 340
3C
 275
0
 280
0
 281
0
 282
0
 283
1
 284
0
 285
0
 286
0
 287
3
 288
1
   0
DIMSTYLE
 105
40
 100
AcDbSymbolTableRecord
 100
AcDbDimStyleTableRecord
   2
GMM004
  70
0
   3

   4

   5

   6
_OPEN30
   7
_NONE
  40
 1.0000000000000
  41
 16.000000000000
  42
 8.0000000000000
  43
 64.000000000000
  44
 12.000000000000
  45
0.0
  46
0.0
  47
0.0
  48
0.0
 140
 20.000000000000
 141
 8.0000000000000
 142
0.0
 143
 0.39400000000000E-1
 144
 1.0000000000000
 145
0.0
 146
 1.0000000000000
 147
 5.2439739227404
  71
0
  72
0
  73
0
  74
0
  75
0
  76
0
  77
3
  78
8
 170
0
 171
2
 172
1
 173
1
 174
0
 175
0
 176
3
 177
3
 178
7
 270
2
 271
6
 272
0
 273
2
 274
2
 340
3C
 275
0
 280
0
 281
0
 282
0
 283
1
 284
0
 285
0
 286
0
 287
3
 288
1
   0
DIMSTYLE
 105
41
 100
AcDbSymbolTableRecord
 100
AcDbDimStyleTableRecord
   2
GMM005
  70
0
   3

   4

   5

   6
_NONE
   7
_OPEN30
  40
 1.0000000000000
  41
 16.000000000000
  42
 8.0000000000000
  43
 64.000000000000
  44
 12.000000000000
  45
0.0
  46
0.0
  47
0.0
  48
0.0
 140
 20.000000000000
 141
 8.0000000000000
 142
0.0
 143
 0.39400000000000E-1
 144
 1.0000000000000
 145
0.0
 146
 1.0000000000000
 147
 6.1016927343951
  71
0
  72
0
  73
0
  74
0
  75
0
  76
0
  77
3
  78
8
 170
0
 171
2
 172
1
 173
1
 174
0
 175
0
 176
3
 177
3
 178
7
 270
2
 271
6
 272
0
 273
2
 274
2
 340
3C
 275
0
 280
0
 281
0
 282
0
 283
1
 284
0
 285
0
 286
0
 287
3
 288
1
   0
DIMSTYLE
 105
42
 100
AcDbSymbolTableRecord
 100
AcDbDimStyleTableRecord
   2
GMM006
  70
0
   3

   4

   5

   6
_OPEN30
   7
_OPEN30
  40
 1.0000000000000
  41
 16.000000000000
  42
 8.0000000000000
  43
 64.000000000000
  44
 12.000000000000
  45
0.0
  46
0.0
  47
0.0
  48
0.0
 140
 20.000000000000
 141
 8.0000000000000
 142
0.0
 143
 0.39400000000000E-1
 144
 1.0000000000000
 145
0.0
 146
 1.0000000000000
 147
 9.1398007033995
  71
0
  72
0
  73
0
  74
0
  75
0
  76
0
  77
3
  78
8
 170
0
 171
2
 172
1
 173
1
 174
0
 175
0
 176
3
 177
3
 178
7
 270
2
 271
6
 272
0
 273
2
 274
2
 340
3C
 275
0
 280
0
 281
0
 282
0
 283
1
 284
0
 285
0
 286
0
 287
3
 288
1
   0
DIMSTYLE
 105
43
 100
AcDbSymbolTableRecord
 100
AcDbDimStyleTableRecord
   2
GMM007
  70
0
   3

   4

   5

   6
_OPEN30
   7
_OPEN30
  40
 1.0000000000000
  41
 16.000000000000
  42
 8.0000000000000
  43
 64.000000000000
  44
 12.000000000000
  45
0.0
  46
0.0
  47
0.0
  48
0.0
 140
 20.000000000000
 141
 8.0000000000000
 142
0.0
 143
 0.39400000000000E-1
 144
 1.0000000000000
 145
0.0
 146
 1.0000000000000
 147
0.0
  71
0
  72
0
  73
0
  74
0
  75
0
  76
0
  77
1
  78
8
 170
0
 171
2
 172
1
 173
1
 174
0
 175
0
 176
3
 177
3
 178
7
 270
2
 271
6
 272
0
 273
2
 274
2
 340
3C
 275
0
 280
0
 281
0
 282
0
 283
1
 284
0
 285
0
 286
0
 287
3
 288
0
   0
ENDTAB
  0
TABLE
  2
BLOCK_RECORD
  5
1
100
AcDbSymbolTable
 70
     0
  0
BLOCK_RECORD
  5
18
100
AcDbSymbolTableRecord
100
AcDbBlockTableRecord
  2
*MODEL_SPACE
  0
BLOCK_RECORD
  5
15
100
AcDbSymbolTableRecord
100
AcDbBlockTableRecord
  2
*PAPER_SPACE
   0
BLOCK_RECORD
   5
44
 100
AcDbSymbolTableRecord
 100
AcDbBlockTableRecord
   2
BLOCK001
   0
BLOCK_RECORD
   5
45
 100
AcDbSymbolTableRecord
 100
AcDbBlockTableRecord
   2
BLOCK002
   0
BLOCK_RECORD
   5
46
 100
AcDbSymbolTableRecord
 100
AcDbBlockTableRecord
   2
BLOCK003
   0
BLOCK_RECORD
   5
47
 100
AcDbSymbolTableRecord
 100
AcDbBlockTableRecord
   2
BLOCK004
   0
BLOCK_RECORD
   5
48
 100
AcDbSymbolTableRecord
 100
AcDbBlockTableRecord
   2
BLOCK005
   0
BLOCK_RECORD
   5
49
 100
AcDbSymbolTableRecord
 100
AcDbBlockTableRecord
   2
BLOCK006
   0
BLOCK_RECORD
   5
4A
 100
AcDbSymbolTableRecord
 100
AcDbBlockTableRecord
   2
BLOCK007
   0
BLOCK_RECORD
   5
4B
 100
AcDbSymbolTableRecord
 100
AcDbBlockTableRecord
   2
BLOCK008
   0
BLOCK_RECORD
   5
4C
 100
AcDbSymbolTableRecord
 100
AcDbBlockTableRecord
   2
BLOCK009
   0
BLOCK_RECORD
   5
4D
 100
AcDbSymbolTableRecord
 100
AcDbBlockTableRecord
   2
BLOCK010
   0
BLOCK_RECORD
   5
4E
 100
AcDbSymbolTableRecord
 100
AcDbBlockTableRecord
   2
BLOCK011
   0
BLOCK_RECORD
   5
4F
 100
AcDbSymbolTableRecord
 100
AcDbBlockTableRecord
   2
BLOCK012
   0
BLOCK_RECORD
   5
50
 100
AcDbSymbolTableRecord
 100
AcDbBlockTableRecord
   2
BLOCK013
   0
BLOCK_RECORD
   5
51
 100
AcDbSymbolTableRecord
 100
AcDbBlockTableRecord
   2
BLOCK014
   0
BLOCK_RECORD
   5
52
 100
AcDbSymbolTableRecord
 100
AcDbBlockTableRecord
   2
BLOCK015
   0
BLOCK_RECORD
   5
53
 100
AcDbSymbolTableRecord
 100
AcDbBlockTableRecord
   2
*D1
   0
BLOCK_RECORD
   5
54
 100
AcDbSymbolTableRecord
 100
AcDbBlockTableRecord
   2
*D2
   0
BLOCK_RECORD
   5
55
 100
AcDbSymbolTableRecord
 100
AcDbBlockTableRecord
   2
*D3
   0
BLOCK_RECORD
   5
56
 100
AcDbSymbolTableRecord
 100
AcDbBlockTableRecord
   2
*D4
   0
BLOCK_RECORD
   5
57
 100
AcDbSymbolTableRecord
 100
AcDbBlockTableRecord
   2
*D5
   0
BLOCK_RECORD
   5
58
 100
AcDbSymbolTableRecord
 100
AcDbBlockTableRecord
   2
BLOCK016
   0
BLOCK_RECORD
   5
59
 100
AcDbSymbolTableRecord
 100
AcDbBlockTableRecord
   2
BLOCK017
   0
BLOCK_RECORD
   5
5A
 100
AcDbSymbolTableRecord
 100
AcDbBlockTableRecord
   2
BLOCK018
   0
BLOCK_RECORD
   5
5B
 100
AcDbSymbolTableRecord
 100
AcDbBlockTableRecord
   2
BLOCK019
   0
BLOCK_RECORD
   5
5C
 100
AcDbSymbolTableRecord
 100
AcDbBlockTableRecord
   2
BLOCK020
   0
BLOCK_RECORD
   5
5D
 100
AcDbSymbolTableRecord
 100
AcDbBlockTableRecord
   2
BLOCK021
   0
BLOCK_RECORD
   5
5E
 100
AcDbSymbolTableRecord
 100
AcDbBlockTableRecord
   2
BLOCK022
   0
BLOCK_RECORD
   5
5F
 100
AcDbSymbolTableRecord
 100
AcDbBlockTableRecord
   2
*D6
   0
BLOCK_RECORD
   5
60
 100
AcDbSymbolTableRecord
 100
AcDbBlockTableRecord
   2
*D7
   0
BLOCK_RECORD
   5
61
 100
AcDbSymbolTableRecord
 100
AcDbBlockTableRecord
   2
*D8
   0
BLOCK_RECORD
   5
62
 100
AcDbSymbolTableRecord
 100
AcDbBlockTableRecord
   2
BLOCK023
   0
BLOCK_RECORD
   5
63
 100
AcDbSymbolTableRecord
 100
AcDbBlockTableRecord
   2
BLOCK024
   0
BLOCK_RECORD
   5
64
 100
AcDbSymbolTableRecord
 100
AcDbBlockTableRecord
   2
*D9
   0
BLOCK_RECORD
   5
65
 100
AcDbSymbolTableRecord
 100
AcDbBlockTableRecord
   2
*D10
   0
BLOCK_RECORD
   5
66
 100
AcDbSymbolTableRecord
 100
AcDbBlockTableRecord
   2
*D11
   0
BLOCK_RECORD
   5
67
 100
AcDbSymbolTableRecord
 100
AcDbBlockTableRecord
   2
*D12
   0
BLOCK_RECORD
   5
68
 100
AcDbSymbolTableRecord
 100
AcDbBlockTableRecord
   2
*D13
   0
BLOCK_RECORD
   5
69
 100
AcDbSymbolTableRecord
 100
AcDbBlockTableRecord
   2
*D14
   0
BLOCK_RECORD
   5
6A
 100
AcDbSymbolTableRecord
 100
AcDbBlockTableRecord
   2
_ARCHTICK
   0
BLOCK_RECORD
   5
6B
 100
AcDbSymbolTableRecord
 100
AcDbBlockTableRecord
   2
_BOXBLANK
   0
BLOCK_RECORD
   5
6C
 100
AcDbSymbolTableRecord
 100
AcDbBlockTableRecord
   2
_BOXFILLED
   0
BLOCK_RECORD
   5
6D
 100
AcDbSymbolTableRecord
 100
AcDbBlockTableRecord
   2
_CLOSED
   0
BLOCK_RECORD
   5
6E
 100
AcDbSymbolTableRecord
 100
AcDbBlockTableRecord
   2
_CLOSEDBLANK
   0
BLOCK_RECORD
   5
6F
 100
AcDbSymbolTableRecord
 100
AcDbBlockTableRecord
   2
_DATUMBLANK
   0
BLOCK_RECORD
   5
70
 100
AcDbSymbolTableRecord
 100
AcDbBlockTableRecord
   2
_DATUMFILLED
   0
BLOCK_RECORD
   5
71
 100
AcDbSymbolTableRecord
 100
AcDbBlockTableRecord
   2
_DOT
   0
BLOCK_RECORD
   5
72
 100
AcDbSymbolTableRecord
 100
AcDbBlockTableRecord
   2
_DOTBLANK
   0
BLOCK_RECORD
   5
73
 100
AcDbSymbolTableRecord
 100
AcDbBlockTableRecord
   2
_DOTSMALL
   0
BLOCK_RECORD
   5
74
 100
AcDbSymbolTableRecord
 100
AcDbBlockTableRecord
   2
_INTEGRAL
   0
BLOCK_RECORD
   5
75
 100
AcDbSymbolTableRecord
 100
AcDbBlockTableRecord
   2
_NONE
   0
BLOCK_RECORD
   5
76
 100
AcDbSymbolTableRecord
 100
AcDbBlockTableRecord
   2
_OBLIQUE
   0
BLOCK_RECORD
   5
77
 100
AcDbSymbolTableRecord
 100
AcDbBlockTableRecord
   2
_OPEN
   0
BLOCK_RECORD
   5
78
 100
AcDbSymbolTableRecord
 100
AcDbBlockTableRecord
   2
_OPEN30
   0
BLOCK_RECORD
   5
79
 100
AcDbSymbolTableRecord
 100
AcDbBlockTableRecord
   2
_OPEN90
   0
BLOCK_RECORD
   5
7A
 100
AcDbSymbolTableRecord
 100
AcDbBlockTableRecord
   2
_ORIGIN
   0
ENDTAB
   0
ENDSEC
  0
SECTION
  2
BLOCKS
  0
BLOCK
  5
19
100
AcDbEntity
  8
0
100
AcDbBlockBegin
  2
*MODEL_SPACE
 70
     0
 10
0.0
 20
0.0
 30
0.0
  3
*MODEL_SPACE
  1

  0
ENDBLK
  5
1A
100
AcDbEntity
  8
0
100
AcDbBlockEnd
  0
BLOCK
  5
16
100
AcDbEntity
 67
     1
  8
0
100
AcDbBlockBegin
  2
*PAPER_SPACE
 70
     0
 10
0.0
 20
0.0
 30
0.0
  3
*PAPER_SPACE
  1

  0
ENDBLK
  5
17
100
AcDbEntity
 67
     1
  8
0
100
AcDbBlockEnd
   0
BLOCK
   5
7B
 100
AcDbEntity
   8
0
 100
AcDbBlockBegin
   2
_ARCHTICK
  70
0
  10
0.0
  20
0.0
  30
0.0
   3
_ARCHTICK
   0
POLYLINE
   5
7C
 100
AcDbEntity
   8
0
 370
-2
   6
BYBLOCK
  62
0
 100
AcDb2dPolyline
  66
1
  10
0.0
  20
0.0
  30
0.0
  70
1
  40
 0.15000000000000
  41
 0.15000000000000
   0
VERTEX
   5
7D
 100
AcDbEntity
   8
0
   6
BYBLOCK
  62
0
 100
AcDbVertex
 100
AcDb2dVertex
  10
-0.50000000000000
  20
-0.50000000000000
  30
0.0
  40
 0.15000000000000
  41
 0.15000000000000
   0
VERTEX
   5
7E
 100
AcDbEntity
   8
0
   6
BYBLOCK
  62
0
 100
AcDbVertex
 100
AcDb2dVertex
  10
 0.50000000000000
  20
 0.50000000000000
  30
0.0
  40
 0.15000000000000
  41
 0.15000000000000
   0
SEQEND
   5
7F
 100
AcDbEntity
   8
0
   6
BYBLOCK
  62
0
   0
ENDBLK
   5
80
 100
AcDbEntity
   8
0
 100
AcDbBlockEnd
   0
BLOCK
   5
81
 100
AcDbEntity
   8
0
 100
AcDbBlockBegin
   2
_OBLIQUE
  70
0
  10
0.0
  20
0.0
  30
0.0
   3
_OBLIQUE
   0
LINE
   5
82
 100
AcDbEntity
   8
0
 370
-2
 100
AcDbLine
   6
BYBLOCK
  62
0
  10
-0.50000000000000
  20
-0.50000000000000
  30
0.0
  11
 0.50000000000000
  21
 0.50000000000000
  31
0.0
   0
ENDBLK
   5
83
 100
AcDbEntity
   8
0
 100
AcDbBlockEnd
   0
BLOCK
   5
84
 100
AcDbEntity
   8
0
 100
AcDbBlockBegin
   2
_BOXBLANK
  70
0
  10
0.0
  20
0.0
  30
0.0
   3
_BOXBLANK
   0
LINE
   5
85
 100
AcDbEntity
   8
0
 370
-2
 100
AcDbLine
   6
BYBLOCK
  62
0
  10
-0.50000000000000
  20
-0.50000000000000
  30
0.0
  11
 0.50000000000000
  21
-0.50000000000000
  31
0.0
   0
LINE
   5
86
 100
AcDbEntity
   8
0
 370
-2
 100
AcDbLine
   6
BYBLOCK
  62
0
  10
 0.50000000000000
  20
-0.50000000000000
  30
0.0
  11
 0.50000000000000
  21
 0.50000000000000
  31
0.0
   0
LINE
   5
87
 100
AcDbEntity
   8
0
 370
-2
 100
AcDbLine
   6
BYBLOCK
  62
0
  10
 0.50000000000000
  20
 0.50000000000000
  30
0.0
  11
-0.50000000000000
  21
 0.50000000000000
  31
0.0
   0
LINE
   5
88
 100
AcDbEntity
   8
0
 370
-2
 100
AcDbLine
   6
BYBLOCK
  62
0
  10
-0.50000000000000
  20
 0.50000000000000
  30
0.0
  11
-0.50000000000000
  21
-0.50000000000000
  31
0.0
   0
LINE
   5
89
 100
AcDbEntity
   8
0
 370
-2
 100
AcDbLine
   6
BYBLOCK
  62
0
  10
-0.50000000000000
  20
0.0
  30
0.0
  11
-1.0000000000000
  21
0.0
  31
0.0
   0
ENDBLK
   5
8A
 100
AcDbEntity
   8
0
 100
AcDbBlockEnd
   0
BLOCK
   5
8B
 100
AcDbEntity
   8
0
 100
AcDbBlockBegin
   2
_BOXFILLED
  70
0
  10
0.0
  20
0.0
  30
0.0
   3
_BOXFILLED
   0
SOLID
   5
8C
 100
AcDbEntity
   8
0
 100
AcDbTrace
   6
BYBLOCK
  62
0
  10
-0.50000000000000
  20
 0.50000000000000
  30
0.0
  11
 0.50000000000000
  21
 0.50000000000000
  31
0.0
  12
-0.50000000000000
  22
-0.50000000000000
  32
0.0
  13
 0.50000000000000
  23
-0.50000000000000
  33
0.0
   0
LINE
   5
8D
 100
AcDbEntity
   8
0
 370
-2
 100
AcDbLine
   6
BYBLOCK
  62
0
  10
-0.50000000000000
  20
0.0
  30
0.0
  11
-1.0000000000000
  21
0.0
  31
0.0
   0
ENDBLK
   5
8E
 100
AcDbEntity
   8
0
 100
AcDbBlockEnd
   0
BLOCK
   5
8F
 100
AcDbEntity
   8
0
 100
AcDbBlockBegin
   2
_CLOSED
  70
0
  10
0.0
  20
0.0
  30
0.0
   3
_CLOSED
   0
LINE
   5
90
 100
AcDbEntity
   8
0
 370
-2
 100
AcDbLine
   6
BYBLOCK
  62
0
  10
-1.0000000000000
  20
 0.16666666666667
  30
0.0
  11
0.0
  21
0.0
  31
0.0
   0
LINE
   5
91
 100
AcDbEntity
   8
0
 370
-2
 100
AcDbLine
   6
BYBLOCK
  62
0
  10
0.0
  20
0.0
  30
0.0
  11
-1.0000000000000
  21
-0.16666666666667
  31
0.0
   0
LINE
   5
92
 100
AcDbEntity
   8
0
 370
-2
 100
AcDbLine
   6
BYBLOCK
  62
0
  10
-1.0000000000000
  20
 0.16666666666667
  30
0.0
  11
-1.0000000000000
  21
-0.16666666666667
  31
0.0
   0
LINE
   5
93
 100
AcDbEntity
   8
0
 370
-2
 100
AcDbLine
   6
BYBLOCK
  62
0
  10
0.0
  20
0.0
  30
0.0
  11
-1.0000000000000
  21
0.0
  31
0.0
   0
ENDBLK
   5
94
 100
AcDbEntity
   8
0
 100
AcDbBlockEnd
   0
BLOCK
   5
95
 100
AcDbEntity
   8
0
 100
AcDbBlockBegin
   2
_OPEN
  70
0
  10
0.0
  20
0.0
  30
0.0
   3
_OPEN
   0
LINE
   5
96
 100
AcDbEntity
   8
0
 370
-2
 100
AcDbLine
   6
BYBLOCK
  62
0
  10
-1.0000000000000
  20
 0.16666666666667
  30
0.0
  11
0.0
  21
0.0
  31
0.0
   0
LINE
   5
97
 100
AcDbEntity
   8
0
 370
-2
 100
AcDbLine
   6
BYBLOCK
  62
0
  10
0.0
  20
0.0
  30
0.0
  11
-1.0000000000000
  21
-0.16666666666667
  31
0.0
   0
LINE
   5
98
 100
AcDbEntity
   8
0
 370
-2
 100
AcDbLine
   6
BYBLOCK
  62
0
  10
0.0
  20
0.0
  30
0.0
  11
-1.0000000000000
  21
0.0
  31
0.0
   0
ENDBLK
   5
99
 100
AcDbEntity
   8
0
 100
AcDbBlockEnd
   0
BLOCK
   5
9A
 100
AcDbEntity
   8
0
 100
AcDbBlockBegin
   2
_OPEN30
  70
0
  10
0.0
  20
0.0
  30
0.0
   3
_OPEN30
   0
LINE
   5
9B
 100
AcDbEntity
   8
0
 370
-2
 100
AcDbLine
   6
BYBLOCK
  62
0
  10
-1.0000000000000
  20
 0.26794919243110
  30
0.0
  11
0.0
  21
0.0
  31
0.0
   0
LINE
   5
9C
 100
AcDbEntity
   8
0
 370
-2
 100
AcDbLine
   6
BYBLOCK
  62
0
  10
0.0
  20
0.0
  30
0.0
  11
-1.0000000000000
  21
-0.26794919243110
  31
0.0
   0
LINE
   5
9D
 100
AcDbEntity
   8
0
 370
-2
 100
AcDbLine
   6
BYBLOCK
  62
0
  10
0.0
  20
0.0
  30
0.0
  11
-1.0000000000000
  21
0.0
  31
0.0
   0
ENDBLK
   5
9E
 100
AcDbEntity
   8
0
 100
AcDbBlockEnd
   0
BLOCK
   5
9F
 100
AcDbEntity
   8
0
 100
AcDbBlockBegin
   2
_OPEN90
  70
0
  10
0.0
  20
0.0
  30
0.0
   3
_OPEN90
   0
LINE
   5
A0
 100
AcDbEntity
   8
0
 370
-2
 100
AcDbLine
   6
BYBLOCK
  62
0
  10
-0.50000000000000
  20
 0.50000000000000
  30
0.0
  11
0.0
  21
0.0
  31
0.0
   0
LINE
   5
A1
 100
AcDbEntity
   8
0
 370
-2
 100
AcDbLine
   6
BYBLOCK
  62
0
  10
0.0
  20
0.0
  30
0.0
  11
-0.50000000000000
  21
-0.50000000000000
  31
0.0
   0
LINE
   5
A2
 100
AcDbEntity
   8
0
 370
-2
 100
AcDbLine
   6
BYBLOCK
  62
0
  10
0.0
  20
0.0
  30
0.0
  11
-1.0000000000000
  21
0.0
  31
0.0
   0
ENDBLK
   5
A3
 100
AcDbEntity
   8
0
 100
AcDbBlockEnd
   0
BLOCK
   5
A4
 100
AcDbEntity
   8
0
 100
AcDbBlockBegin
   2
_CLOSEDBLANK
  70
0
  10
0.0
  20
0.0
  30
0.0
   3
_CLOSEDBLANK
   0
LINE
   5
A5
 100
AcDbEntity
   8
0
 370
-2
 100
AcDbLine
   6
BYBLOCK
  62
0
  10
-1.0000000000000
  20
 0.16666666666667
  30
0.0
  11
0.0
  21
0.0
  31
0.0
   0
LINE
   5
A6
 100
AcDbEntity
   8
0
 370
-2
 100
AcDbLine
   6
BYBLOCK
  62
0
  10
0.0
  20
0.0
  30
0.0
  11
-1.0000000000000
  21
-0.16666666666667
  31
0.0
   0
LINE
   5
A7
 100
AcDbEntity
   8
0
 370
-2
 100
AcDbLine
   6
BYBLOCK
  62
0
  10
-1.0000000000000
  20
 0.16666666666667
  30
0.0
  11
-1.0000000000000
  21
-0.16666666666667
  31
0.0
   0
ENDBLK
   5
A8
 100
AcDbEntity
   8
0
 100
AcDbBlockEnd
   0
BLOCK
   5
A9
 100
AcDbEntity
   8
0
 100
AcDbBlockBegin
   2
_DOT
  70
0
  10
0.0
  20
0.0
  30
0.0
   3
_DOT
   0
POLYLINE
   5
AA
 100
AcDbEntity
   8
0
 370
-2
   6
BYBLOCK
  62
0
 100
AcDb2dPolyline
  66
1
  10
0.0
  20
0.0
  30
0.0
  70
1
  40
 0.50000000000000
  41
 0.50000000000000
   0
VERTEX
   5
AB
 100
AcDbEntity
   8
0
   6
BYBLOCK
  62
0
 100
AcDbVertex
 100
AcDb2dVertex
  10
-0.25000000000000
  20
0.0
  30
0.0
  42
 1.0000000000000
  40
 0.50000000000000
  41
 0.50000000000000
   0
VERTEX
   5
AC
 100
AcDbEntity
   8
0
   6
BYBLOCK
  62
0
 100
AcDbVertex
 100
AcDb2dVertex
  10
 0.25000000000000
  20
0.0
  30
0.0
  42
 1.0000000000000
  40
 0.50000000000000
  41
 0.50000000000000
   0
SEQEND
   5
AD
 100
AcDbEntity
   8
0
   6
BYBLOCK
  62
0
   0
LINE
   5
AE
 100
AcDbEntity
   8
0
 370
-2
 100
AcDbLine
   6
BYBLOCK
  62
0
  10
-0.50000000000000
  20
0.0
  30
0.0
  11
-1.0000000000000
  21
0.0
  31
0.0
   0
ENDBLK
   5
AF
 100
AcDbEntity
   8
0
 100
AcDbBlockEnd
   0
BLOCK
   5
B0
 100
AcDbEntity
   8
0
 100
AcDbBlockBegin
   2
_DOTSMALL
  70
0
  10
0.0
  20
0.0
  30
0.0
   3
_DOTSMALL
   0
POLYLINE
   5
B1
 100
AcDbEntity
   8
0
 370
-2
   6
BYBLOCK
  62
0
 100
AcDb2dPolyline
  66
1
  10
0.0
  20
0.0
  30
0.0
  70
1
  40
 0.50000000000000
  41
 0.50000000000000
   0
VERTEX
   5
B2
 100
AcDbEntity
   8
0
   6
BYBLOCK
  62
0
 100
AcDbVertex
 100
AcDb2dVertex
  10
-0.62500000000000E-1
  20
0.0
  30
0.0
  42
 1.0000000000000
  40
 0.50000000000000
  41
 0.50000000000000
   0
VERTEX
   5
B3
 100
AcDbEntity
   8
0
   6
BYBLOCK
  62
0
 100
AcDbVertex
 100
AcDb2dVertex
  10
 0.62500000000000E-1
  20
0.0
  30
0.0
  42
 1.0000000000000
  40
 0.50000000000000
  41
 0.50000000000000
   0
SEQEND
   5
B4
 100
AcDbEntity
   8
0
   6
BYBLOCK
  62
0
   0
ENDBLK
   5
B5
 100
AcDbEntity
   8
0
 100
AcDbBlockEnd
   0
BLOCK
   5
B6
 100
AcDbEntity
   8
0
 100
AcDbBlockBegin
   2
_DATUMBLANK
  70
0
  10
0.0
  20
0.0
  30
0.0
   3
_DATUMBLANK
   0
LINE
   5
B7
 100
AcDbEntity
   8
0
 370
-2
 100
AcDbLine
   6
BYBLOCK
  62
0
  10
0.0
  20
 0.57735027000000
  30
0.0
  11
-1.0000000000000
  21
0.0
  31
0.0
   0
LINE
   5
B8
 100
AcDbEntity
   8
0
 370
-2
 100
AcDbLine
   6
BYBLOCK
  62
0
  10
-1.0000000000000
  20
0.0
  30
0.0
  11
0.0
  21
-0.57735027000000
  31
0.0
   0
LINE
   5
B9
 100
AcDbEntity
   8
0
 370
-2
 100
AcDbLine
   6
BYBLOCK
  62
0
  10
0.0
  20
-0.57735027000000
  30
0.0
  11
0.0
  21
 0.57735027000000
  31
0.0
   0
ENDBLK
   5
BA
 100
AcDbEntity
   8
0
 100
AcDbBlockEnd
   0
BLOCK
   5
BB
 100
AcDbEntity
   8
0
 100
AcDbBlockBegin
   2
_DATUMFILLED
  70
0
  10
0.0
  20
0.0
  30
0.0
   3
_DATUMFILLED
   0
SOLID
   5
BC
 100
AcDbEntity
   8
0
 100
AcDbTrace
   6
BYBLOCK
  62
0
  10
0.0
  20
 0.57735027000000
  30
0.0
  11
-1.0000000000000
  21
0.0
  31
0.0
  12
0.0
  22
-0.57735027000000
  32
0.0
  13
0.0
  23
-0.57735027000000
  33
0.0
   0
ENDBLK
   5
BD
 100
AcDbEntity
   8
0
 100
AcDbBlockEnd
   0
BLOCK
   5
BE
 100
AcDbEntity
   8
0
 100
AcDbBlockBegin
   2
_ORIGIN
  70
0
  10
0.0
  20
0.0
  30
0.0
   3
_ORIGIN
   0
CIRCLE
   5
BF
 100
AcDbEntity
   8
0
 370
-2
 100
AcDbCircle
   6
BYBLOCK
  62
0
  10
0.0
  20
0.0
  30
0.0
  40
 0.50000000000000
   0
LINE
   5
C0
 100
AcDbEntity
   8
0
 370
-2
 100
AcDbLine
   6
BYBLOCK
  62
0
  10
0.0
  20
0.0
  30
0.0
  11
-1.0000000000000
  21
0.0
  31
0.0
   0
ENDBLK
   5
C1
 100
AcDbEntity
   8
0
 100
AcDbBlockEnd
   0
BLOCK
   5
C2
 100
AcDbEntity
   8
0
 100
AcDbBlockBegin
   2
_NONE
  70
0
  10
0.0
  20
0.0
  30
0.0
   3
_NONE
   0
CIRCLE
   5
C3
 100
AcDbEntity
   8
0
 370
-2
 100
AcDbCircle
   6
BYBLOCK
  62
0
  10
0.0
  20
0.0
  30
0.0
  40
 0.25000000000000
   0
ENDBLK
   5
C4
 100
AcDbEntity
   8
0
 100
AcDbBlockEnd
   0
BLOCK
   5
C5
 100
AcDbEntity
   8
0
 100
AcDbBlockBegin
   2
_DOTBLANK
  70
0
  10
0.0
  20
0.0
  30
0.0
   3
_DOTBLANK
   0
CIRCLE
   5
C6
 100
AcDbEntity
   8
0
 370
-2
 100
AcDbCircle
   6
BYBLOCK
  62
0
  10
0.0
  20
0.0
  30
0.0
  40
 0.50000000000000
   0
LINE
   5
C7
 100
AcDbEntity
   8
0
 370
-2
 100
AcDbLine
   6
BYBLOCK
  62
0
  10
-0.50000000000000
  20
0.0
  30
0.0
  11
-1.0000000000000
  21
0.0
  31
0.0
   0
ENDBLK
   5
C8
 100
AcDbEntity
   8
0
 100
AcDbBlockEnd
   0
BLOCK
   5
C9
 100
AcDbEntity
   8
0
 100
AcDbBlockBegin
   2
_INTEGRAL
  70
0
  10
0.0
  20
0.0
  30
0.0
   3
_INTEGRAL
   0
ARC
   5
CA
 100
AcDbEntity
   8
0
 370
-2
   6
BYBLOCK
  62
0
 100
AcDbCircle
  10
 0.44488800000000
  20
-0.91335000000000E-1
  30
0.0
  40
 0.45416700000000
 100
AcDbArc
  50
 102.00000000000
  51
 168.00000000000
   0
ARC
   5
CB
 100
AcDbEntity
   8
0
 370
-2
   6
BYBLOCK
  62
0
 100
AcDbCircle
  10
-0.44488800000000
  20
 0.91335000000000E-1
  30
0.0
  40
 0.45416700000000
 100
AcDbArc
  50
 282.00000000000
  51
 348.00000000000
   0
ENDBLK
   5
CC
 100
AcDbEntity
   8
0
 100
AcDbBlockEnd
   0
BLOCK
   5
CD
 100
AcDbEntity
   8
0
 100
AcDbBlockBegin
   2
BLOCK001
  70
64
  10
0.0
  20
0.0
  30
0.0
   3
BLOCK001
   0
MTEXT
   5
CE
 100
AcDbEntity
   8
LEVEL001
 370
40
  62
7
 100
AcDbMText
  10
 1060.1717165629
  20
-130.29883714822
  30
0.0
  40
 32.000000000000
  41
0.0
  71
7
  72
1
   1
シマテック
   7
GMM003
   0
MTEXT
   5
CF
 100
AcDbEntity
   8
LEVEL001
 370
40
  62
7
 100
AcDbMText
  10
 1062.2647981396
  20
-130.29883714822
  30
0.0
  40
 32.000000000000
  41
0.0
  71
7
  72
1
   1
シマテック
   7
GMM003
   0
MTEXT
   5
D0
 100
AcDbEntity
   8
LEVEL001
 370
40
  62
7
 100
AcDbMText
  10
 873.08066518087
  20
-127.43187932661
  30
0.0
  40
 24.000000000000
  41
0.0
  71
7
  72
1
   1
株式会社
   7
GMM003
   0
ENDBLK
   5
D1
 100
AcDbEntity
   8
0
 100
AcDbBlockEnd
   0
BLOCK
   5
D2
 100
AcDbEntity
   8
0
 100
AcDbBlockBegin
   2
BLOCK002
  70
64
  10
0.0
  20
0.0
  30
0.0
   3
BLOCK002
   0
LWPOLYLINE
   5
D3
 100
AcDbEntity
   8
LEVEL001
 370
40
   6
CONTINUOUS
  62
7
 100
AcDbPolyline
  90
4
  70
1
  10
 538.75526228479
  20
 625.77549824150
  10
 768.75526228479
  20
 625.77549824150
  10
 768.75526228479
  20
 663.77549824150
  10
 538.75526228479
  20
 663.77549824150
   0
LWPOLYLINE
   5
D4
 100
AcDbEntity
   8
LEVEL001
 370
40
   6
CONTINUOUS
  62
7
 100
AcDbPolyline
  90
4
  70
1
  10
 420.75526228479
  20
 559.77549824150
  10
 520.75526228479
  20
 559.77549824150
  10
 520.75526228479
  20
 619.77549824150
  10
 420.75526228479
  20
 619.77549824150
   0
LWPOLYLINE
   5
D5
 100
AcDbEntity
   8
LEVEL001
 370
25
   6
CONTINUOUS
  62
3
 100
AcDbPolyline
  90
4
  70
1
  10
 546.75526228479
  20
 527.77549824150
  10
 562.75526228479
  20
 527.77549824150
  10
 562.75526228479
  20
 529.37549824150
  10
 546.75526228479
  20
 529.37549824150
   0
LWPOLYLINE
   5
D6
 100
AcDbEntity
   8
LEVEL001
 370
25
   6
CONTINUOUS
  62
3
 100
AcDbPolyline
  90
4
  70
0
  10
 546.75526228479
  20
 543.77549824150
  10
 546.75526228479
  20
 542.17549824150
  10
 562.75526228479
  20
 542.17549824150
  10
 562.75526228479
  20
 543.77549824150
   0
LINE
   5
D7
 100
AcDbEntity
   8
LEVEL001
 370
25
 100
AcDbLine
   6
CONTINUOUS
  62
3
  10
 548.25526228479
  20
 540.67549824150
  30
0.0
  11
 548.25526228479
  21
 530.87549824150
  31
0.0
   0
LINE
   5
D8
 100
AcDbEntity
   8
LEVEL001
 370
25
 100
AcDbLine
   6
CONTINUOUS
  62
3
  10
 561.25526228479
  20
 540.67549824150
  30
0.0
  11
 561.25526228479
  21
 530.87549824150
  31
0.0
   0
ARC
   5
D9
 100
AcDbEntity
   8
LEVEL001
 370
25
   6
CONTINUOUS
  62
3
 100
AcDbCircle
  10
 562.75526228479
  20
 540.67549824150
  30
0.0
  40
 1.5000000000000
 100
AcDbArc
  50
 90.000000000000
  51
 180.00000000000
   0
ARC
   5
DA
 100
AcDbEntity
   8
LEVEL001
 370
25
   6
CONTINUOUS
  62
3
 100
AcDbCircle
  10
 546.75526228479
  20
 540.67549824150
  30
0.0
  40
 1.5000000000000
 100
AcDbArc
  50
0.0
  51
 90.000000000000
   0
ARC
   5
DB
 100
AcDbEntity
   8
LEVEL001
 370
25
   6
CONTINUOUS
  62
3
 100
AcDbCircle
  10
 546.75526228479
  20
 530.87549824150
  30
0.0
  40
 1.5000000000000
 100
AcDbArc
  50
 270.00000000000
  51
0.0
   0
ARC
   5
DC
 100
AcDbEntity
   8
LEVEL001
 370
25
   6
CONTINUOUS
  62
3
 100
AcDbCircle
  10
 562.75526228479
  20
 530.87549824150
  30
0.0
  40
 1.5000000000000
 100
AcDbArc
  50
 180.00000000000
  51
 270.00000000000
   0
LINE
   5
DD
 100
AcDbEntity
   8
LEVEL001
 370
25
 100
AcDbLine
   6
CONTINUOUS
  62
3
  10
 557.75526228479
  20
 510.37548908623
  30
0.0
  11
 551.75526228479
  21
 510.37548908623
  31
0.0
   0
LINE
   5
DE
 100
AcDbEntity
   8
LEVEL001
 370
25
 100
AcDbLine
   6
CONTINUOUS
  62
3
  10
 551.75526228479
  20
 525.77549824150
  30
0.0
  11
 557.75526228479
  21
 525.77549824150
  31
0.0
   0
LWPOLYLINE
   5
DF
 100
AcDbEntity
   8
LEVEL001
 370
25
   6
CONTINUOUS
  62
3
 100
AcDbPolyline
  90
4
  70
0
  10
 560.85526228479
  20
 518.77549824150
  10
 560.85526228479
  20
 517.27549824150
  10
 548.65526228479
  20
 517.27549824150
  10
 548.65526228479
  20
 518.77549824150
   0
LINE
   5
E0
 100
AcDbEntity
   8
LEVEL001
 370
25
 100
AcDbLine
   6
CONTINUOUS
  62
3
  10
 555.62128768858
  20
 517.27549824150
  30
0.0
  11
 554.75526228479
  21
 518.77549824150
  31
0.0
   0
LINE
   5
E1
 100
AcDbEntity
   8
LEVEL001
 370
25
 100
AcDbLine
   6
CONTINUOUS
  62
3
  10
 554.75526228479
  20
 517.27549824150
  30
0.0
  11
 553.88923688108
  21
 518.77549824150
  31
0.0
   0
LINE
   5
E2
 100
AcDbEntity
   8
LEVEL001
 370
25
 100
AcDbLine
   6
CONTINUOUS
  62
3
  10
 550.42513526601
  20
 512.27549824150
  30
0.0
  11
 559.08538930382
  21
 512.27549824150
  31
0.0
   0
LINE
   5
E3
 100
AcDbEntity
   8
LEVEL001
 370
25
 100
AcDbLine
   6
CONTINUOUS
  62
3
  10
 557.64201363086
  20
 512.95169650501
  30
0.0
  11
 557.64201363086
  21
 517.27549824150
  31
0.0
   0
LINE
   5
E4
 100
AcDbEntity
   8
LEVEL001
 370
25
 100
AcDbLine
   6
CONTINUOUS
  62
3
  10
 551.86851093897
  20
 512.95169650501
  30
0.0
  11
 551.86851093897
  21
 517.27549824150
  31
0.0
   0
LINE
   5
E5
 100
AcDbEntity
   8
LEVEL001
 370
25
 100
AcDbLine
   6
CONTINUOUS
  62
3
  10
 560.52876497677
  20
 512.95169650501
  30
0.0
  11
 560.52876497677
  21
 517.27549824150
  31
0.0
   0
LINE
   5
E6
 100
AcDbEntity
   8
LEVEL001
 370
25
 100
AcDbLine
   6
CONTINUOUS
  62
3
  10
 548.98175959306
  20
 517.27549824150
  30
0.0
  11
 548.98175959306
  21
 512.95169650501
  31
0.0
   0
ARC
   5
E7
 100
AcDbEntity
   8
LEVEL001
 370
25
   6
CONTINUOUS
  62
3
 100
AcDbCircle
  10
 559.08538930382
  20
 514.15407259014
  30
0.0
  40
 1.8785743486438
 100
AcDbArc
  50
 219.79533255711
  51
 320.20466744289
   0
ARC
   5
E8
 100
AcDbEntity
   8
LEVEL001
 370
25
   6
CONTINUOUS
  62
3
 100
AcDbCircle
  10
 554.75526228479
  20
 518.77549824150
  30
0.0
  40
 6.5000000000000
 100
AcDbArc
  50
 243.63323154779
  51
 296.36676845411
   0
ARC
   5
E9
 100
AcDbEntity
   8
LEVEL001
 370
25
   6
CONTINUOUS
  62
3
 100
AcDbCircle
  10
 550.42513526601
  20
 514.15407259014
  30
0.0
  40
 1.8785743486438
 100
AcDbArc
  50
 219.79533255711
  51
 320.20466744289
   0
LINE
   5
EA
 100
AcDbEntity
   8
LEVEL001
 370
25
 100
AcDbLine
   6
CONTINUOUS
  62
3
  10
 552.35526075892
  20
 525.77549824150
  30
0.0
  11
 552.35526075892
  21
 518.77549824150
  31
0.0
   0
LINE
   5
EB
 100
AcDbEntity
   8
LEVEL001
 370
25
 100
AcDbLine
   6
CONTINUOUS
  62
3
  10
 552.35526075892
  20
 512.27549824150
  30
0.0
  11
 552.35526075892
  21
 509.77549824150
  31
0.0
   0
LINE
   5
EC
 100
AcDbEntity
   8
LEVEL001
 370
25
 100
AcDbLine
   6
CONTINUOUS
  62
3
  10
 551.75526228479
  20
 527.77549824150
  30
0.0
  11
 551.75526228479
  21
 518.77549824150
  31
0.0
   0
LINE
   5
ED
 100
AcDbEntity
   8
LEVEL001
 370
25
 100
AcDbLine
   6
CONTINUOUS
  62
3
  10
 557.15526381067
  20
 509.77549824150
  30
0.0
  11
 557.15526381067
  21
 512.27549824150
  31
0.0
   0
LINE
   5
EE
 100
AcDbEntity
   8
LEVEL001
 370
25
 100
AcDbLine
   6
CONTINUOUS
  62
3
  10
 557.15526381067
  20
 518.77549824150
  30
0.0
  11
 557.15526381067
  21
 525.77549824150
  31
0.0
   0
LWPOLYLINE
   5
EF
 100
AcDbEntity
   8
LEVEL001
 370
25
   6
CONTINUOUS
  62
3
 100
AcDbPolyline
  90
6
  70
0
  10
 551.75526228479
  20
 512.27549824150
  10
 551.75526228479
  20
 510.37548908623
  10
 552.35526075892
  20
 509.77549824150
  10
 557.15526381067
  20
 509.77549824150
  10
 557.75526228479
  20
 510.37548908623
  10
 557.75526228479
  20
 512.27549824150
   0
LINE
   5
F0
 100
AcDbEntity
   8
LEVEL001
 370
25
 100
AcDbLine
   6
CONTINUOUS
  62
3
  10
 557.75526228479
  20
 518.77549824150
  30
0.0
  11
 557.75526228479
  21
 527.77549824150
  31
0.0
   0
LWPOLYLINE
   5
F1
 100
AcDbEntity
   8
LEVEL001
 370
25
   6
CONTINUOUS
  62
3
 100
AcDbPolyline
  90
4
  70
1
  10
 726.75526228479
  20
 527.77549824150
  10
 742.75526228479
  20
 527.77549824150
  10
 742.75526228479
  20
 529.37549824150
  10
 726.75526228479
  20
 529.37549824150
   0
LWPOLYLINE
   5
F2
 100
AcDbEntity
   8
LEVEL001
 370
25
   6
CONTINUOUS
  62
3
 100
AcDbPolyline
  90
4
  70
0
  10
 726.75526228479
  20
 543.77549824150
  10
 726.75526228479
  20
 542.17549824150
  10
 742.75526228479
  20
 542.17549824150
  10
 742.75526228479
  20
 543.77549824150
   0
LINE
   5
F3
 100
AcDbEntity
   8
LEVEL001
 370
25
 100
AcDbLine
   6
CONTINUOUS
  62
3
  10
 728.25526228479
  20
 540.67549824150
  30
0.0
  11
 728.25526228479
  21
 530.87549824150
  31
0.0
   0
LINE
   5
F4
 100
AcDbEntity
   8
LEVEL001
 370
25
 100
AcDbLine
   6
CONTINUOUS
  62
3
  10
 741.25526228479
  20
 540.67549824150
  30
0.0
  11
 741.25526228479
  21
 530.87549824150
  31
0.0
   0
ARC
   5
F5
 100
AcDbEntity
   8
LEVEL001
 370
25
   6
CONTINUOUS
  62
3
 100
AcDbCircle
  10
 742.75526228479
  20
 540.67549824150
  30
0.0
  40
 1.5000000000000
 100
AcDbArc
  50
 90.000000000000
  51
 180.00000000000
   0
ARC
   5
F6
 100
AcDbEntity
   8
LEVEL001
 370
25
   6
CONTINUOUS
  62
3
 100
AcDbCircle
  10
 726.75526228479
  20
 540.67549824150
  30
0.0
  40
 1.5000000000000
 100
AcDbArc
  50
0.0
  51
 90.000000000000
   0
ARC
   5
F7
 100
AcDbEntity
   8
LEVEL001
 370
25
   6
CONTINUOUS
  62
3
 100
AcDbCircle
  10
 726.75526228479
  20
 530.87549824150
  30
0.0
  40
 1.5000000000000
 100
AcDbArc
  50
 270.00000000000
  51
0.0
   0
ARC
   5
F8
 100
AcDbEntity
   8
LEVEL001
 370
25
   6
CONTINUOUS
  62
3
 100
AcDbCircle
  10
 742.75526228479
  20
 530.87549824150
  30
0.0
  40
 1.5000000000000
 100
AcDbArc
  50
 180.00000000000
  51
 270.00000000000
   0
LINE
   5
F9
 100
AcDbEntity
   8
LEVEL001
 370
25
 100
AcDbLine
   6
DASHDOT
  62
3
  10
 554.75526228479
  20
 550.79896102467
  30
0.0
  11
 554.75526228479
  21
 503.28136393729
  31
0.0
   0
LINE
   5
FA
 100
AcDbEntity
   8
LEVEL001
 370
25
 100
AcDbLine
   6
DASHDOT
  62
3
  10
 734.75526228479
  20
 550.79896102467
  30
0.0
  11
 734.75526228479
  21
 503.28136393729
  31
0.0
   0
LINE
   5
FB
 100
AcDbEntity
   8
LEVEL001
 370
25
 100
AcDbLine
   6
CONTINUOUS
  62
3
  10
 737.75526228479
  20
 510.37548908623
  30
0.0
  11
 731.75526228479
  21
 510.37548908623
  31
0.0
   0
LINE
   5
FC
 100
AcDbEntity
   8
LEVEL001
 370
25
 100
AcDbLine
   6
CONTINUOUS
  62
3
  10
 731.75526228479
  20
 525.77549824150
  30
0.0
  11
 737.75526228479
  21
 525.77549824150
  31
0.0
   0
LWPOLYLINE
   5
FD
 100
AcDbEntity
   8
LEVEL001
 370
25
   6
CONTINUOUS
  62
3
 100
AcDbPolyline
  90
4
  70
0
  10
 740.85526228479
  20
 518.77549824150
  10
 740.85526228479
  20
 517.27549824150
  10
 728.65526228479
  20
 517.27549824150
  10
 728.65526228479
  20
 518.77549824150
   0
LINE
   5
FE
 100
AcDbEntity
   8
LEVEL001
 370
25
 100
AcDbLine
   6
CONTINUOUS
  62
3
  10
 735.62128768858
  20
 517.27549824150
  30
0.0
  11
 734.75526228479
  21
 518.77549824150
  31
0.0
   0
LINE
   5
FF
 100
AcDbEntity
   8
LEVEL001
 370
25
 100
AcDbLine
   6
CONTINUOUS
  62
3
  10
 734.75526228479
  20
 517.27549824150
  30
0.0
  11
 733.88923688108
  21
 518.77549824150
  31
0.0
   0
LINE
   5
100
 100
AcDbEntity
   8
LEVEL001
 370
25
 100
AcDbLine
   6
CONTINUOUS
  62
3
  10
 730.42513526601
  20
 512.27549824150
  30
0.0
  11
 739.08538930382
  21
 512.27549824150
  31
0.0
   0
LINE
   5
101
 100
AcDbEntity
   8
LEVEL001
 370
25
 100
AcDbLine
   6
CONTINUOUS
  62
3
  10
 737.64201363086
  20
 512.95169650501
  30
0.0
  11
 737.64201363086
  21
 517.27549824150
  31
0.0
   0
LINE
   5
102
 100
AcDbEntity
   8
LEVEL001
 370
25
 100
AcDbLine
   6
CONTINUOUS
  62
3
  10
 731.86851093897
  20
 512.95169650501
  30
0.0
  11
 731.86851093897
  21
 517.27549824150
  31
0.0
   0
LINE
   5
103
 100
AcDbEntity
   8
LEVEL001
 370
25
 100
AcDbLine
   6
CONTINUOUS
  62
3
  10
 740.52876497677
  20
 512.95169650501
  30
0.0
  11
 740.52876497677
  21
 517.27549824150
  31
0.0
   0
LINE
   5
104
 100
AcDbEntity
   8
LEVEL001
 370
25
 100
AcDbLine
   6
CONTINUOUS
  62
3
  10
 728.98175959306
  20
 517.27549824150
  30
0.0
  11
 728.98175959306
  21
 512.95169650501
  31
0.0
   0
ARC
   5
105
 100
AcDbEntity
   8
LEVEL001
 370
25
   6
CONTINUOUS
  62
3
 100
AcDbCircle
  10
 739.08538930382
  20
 514.15407259014
  30
0.0
  40
 1.8785743486438
 100
AcDbArc
  50
 219.79533255711
  51
 320.20466744289
   0
ARC
   5
106
 100
AcDbEntity
   8
LEVEL001
 370
25
   6
CONTINUOUS
  62
3
 100
AcDbCircle
  10
 734.75526228479
  20
 518.77549824150
  30
0.0
  40
 6.5000000000000
 100
AcDbArc
  50
 243.63323154779
  51
 296.36676845411
   0
ARC
   5
107
 100
AcDbEntity
   8
LEVEL001
 370
25
   6
CONTINUOUS
  62
3
 100
AcDbCircle
  10
 730.42513526601
  20
 514.15407259014
  30
0.0
  40
 1.8785743486438
 100
AcDbArc
  50
 219.79533255711
  51
 320.20466744289
   0
LINE
   5
108
 100
AcDbEntity
   8
LEVEL001
 370
25
 100
AcDbLine
   6
CONTINUOUS
  62
3
  10
 732.35526075892
  20
 525.77549824150
  30
0.0
  11
 732.35526075892
  21
 518.77549824150
  31
0.0
   0
LINE
   5
109
 100
AcDbEntity
   8
LEVEL001
 370
25
 100
AcDbLine
   6
CONTINUOUS
  62
3
  10
 732.35526075892
  20
 512.27549824150
  30
0.0
  11
 732.35526075892
  21
 509.77549824150
  31
0.0
   0
LINE
   5
10A
 100
AcDbEntity
   8
LEVEL001
 370
25
 100
AcDbLine
   6
CONTINUOUS
  62
3
  10
 731.75526228479
  20
 527.77549824150
  30
0.0
  11
 731.75526228479
  21
 518.77549824150
  31
0.0
   0
LINE
   5
10B
 100
AcDbEntity
   8
LEVEL001
 370
25
 100
AcDbLine
   6
CONTINUOUS
  62
3
  10
 737.15526381067
  20
 509.77549824150
  30
0.0
  11
 737.15526381067
  21
 512.27549824150
  31
0.0
   0
LINE
   5
10C
 100
AcDbEntity
   8
LEVEL001
 370
25
 100
AcDbLine
   6
CONTINUOUS
  62
3
  10
 737.15526381067
  20
 518.77549824150
  30
0.0
  11
 737.15526381067
  21
 525.77549824150
  31
0.0
   0
LWPOLYLINE
   5
10D
 100
AcDbEntity
   8
LEVEL001
 370
25
   6
CONTINUOUS
  62
3
 100
AcDbPolyline
  90
6
  70
0
  10
 731.75526228479
  20
 512.27549824150
  10
 731.75526228479
  20
 510.37548908623
  10
 732.35526075892
  20
 509.77549824150
  10
 737.15526381067
  20
 509.77549824150
  10
 737.75526228479
  20
 510.37548908623
  10
 737.75526228479
  20
 512.27549824150
   0
LINE
   5
10E
 100
AcDbEntity
   8
LEVEL001
 370
25
 100
AcDbLine
   6
CONTINUOUS
  62
3
  10
 737.75526228479
  20
 518.77549824150
  30
0.0
  11
 737.75526228479
  21
 527.77549824150
  31
0.0
   0
LWPOLYLINE
   5
10F
 100
AcDbEntity
   8
LEVEL001
 370
40
   6
CONTINUOUS
  62
7
 100
AcDbPolyline
  90
8
  70
0
  10
 538.75526228479
  20
 559.77549824150
  10
 470.75526228479
  20
 559.77549824150
  10
 470.75526228479
  20
 543.77549824150
  10
 787.75526228479
  20
 543.77549824150
  10
 787.75526228479
  20
 563.77549824150
  10
 768.75526228479
  20
 619.77549824150
  10
 538.75526228479
  20
 619.77549824150
  10
 538.75526228479
  20
 543.77549824150
   0
LINE
   5
110
 100
AcDbEntity
   8
LEVEL001
 370
25
 100
AcDbLine
   6
DOT
  62
3
  10
 538.75526228479
  20
 660.27549824150
  30
0.0
  11
 768.75526228479
  21
 660.27549824150
  31
0.0
   0
ENDBLK
   5
111
 100
AcDbEntity
   8
0
 100
AcDbBlockEnd
   0
BLOCK
   5
112
 100
AcDbEntity
   8
0
 100
AcDbBlockBegin
   2
BLOCK003
  70
64
  10
0.0
  20
0.0
  30
0.0
   3
BLOCK003
   0
LINE
   5
113
 100
AcDbEntity
   8
LEVEL001
 370
40
 100
AcDbLine
   6
CONTINUOUS
  62
7
  10
 1097.8194607268
  20
 559.77549824150
  30
0.0
  11
 1157.8194607268
  21
 559.77549824150
  31
0.0
   0
LWPOLYLINE
   5
114
 100
AcDbEntity
   8
LEVEL001
 370
25
   6
CONTINUOUS
  62
3
 100
AcDbPolyline
  90
4
  70
1
  10
 1139.8194607268
  20
 527.77549824150
  10
 1155.8194607268
  20
 527.77549824150
  10
 1155.8194607268
  20
 529.37549824150
  10
 1139.8194607268
  20
 529.37549824150
   0
LWPOLYLINE
   5
115
 100
AcDbEntity
   8
LEVEL001
 370
25
   6
CONTINUOUS
  62
3
 100
AcDbPolyline
  90
4
  70
0
  10
 1139.8194607268
  20
 543.77549824150
  10
 1139.8194607268
  20
 542.17549824150
  10
 1155.8194607268
  20
 542.17549824150
  10
 1155.8194607268
  20
 543.77549824150
   0
LINE
   5
116
 100
AcDbEntity
   8
LEVEL001
 370
25
 100
AcDbLine
   6
CONTINUOUS
  62
3
  10
 1141.3194607268
  20
 540.67549824150
  30
0.0
  11
 1141.3194607268
  21
 530.87549824150
  31
0.0
   0
LINE
   5
117
 100
AcDbEntity
   8
LEVEL001
 370
25
 100
AcDbLine
   6
CONTINUOUS
  62
3
  10
 1154.3194607268
  20
 540.67549824150
  30
0.0
  11
 1154.3194607268
  21
 530.87549824150
  31
0.0
   0
ARC
   5
118
 100
AcDbEntity
   8
LEVEL001
 370
25
   6
CONTINUOUS
  62
3
 100
AcDbCircle
  10
 1155.8194607268
  20
 540.67549824150
  30
0.0
  40
 1.5000000000000
 100
AcDbArc
  50
 90.000000000000
  51
 180.00000000000
   0
ARC
   5
119
 100
AcDbEntity
   8
LEVEL001
 370
25
   6
CONTINUOUS
  62
3
 100
AcDbCircle
  10
 1139.8194607268
  20
 540.67549824150
  30
0.0
  40
 1.5000000000000
 100
AcDbArc
  50
0.0
  51
 90.000000000000
   0
ARC
   5
11A
 100
AcDbEntity
   8
LEVEL001
 370
25
   6
CONTINUOUS
  62
3
 100
AcDbCircle
  10
 1139.8194607268
  20
 530.87549824150
  30
0.0
  40
 1.5000000000000
 100
AcDbArc
  50
 270.00000000000
  51
0.0
   0
ARC
   5
11B
 100
AcDbEntity
   8
LEVEL001
 370
25
   6
CONTINUOUS
  62
3
 100
AcDbCircle
  10
 1155.8194607268
  20
 530.87549824150
  30
0.0
  40
 1.5000000000000
 100
AcDbArc
  50
 180.00000000000
  51
 270.00000000000
   0
LINE
   5
11C
 100
AcDbEntity
   8
LEVEL001
 370
25
 100
AcDbLine
   6
DASHDOT
  62
3
  10
 1147.8194607268
  20
 550.79896102467
  30
0.0
  11
 1147.8194607268
  21
 503.28136393729
  31
0.0
   0
LINE
   5
11D
 100
AcDbEntity
   8
LEVEL001
 370
25
 100
AcDbLine
   6
CONTINUOUS
  62
3
  10
 1150.8194607268
  20
 510.37548908623
  30
0.0
  11
 1144.8194607268
  21
 510.37548908623
  31
0.0
   0
LINE
   5
11E
 100
AcDbEntity
   8
LEVEL001
 370
25
 100
AcDbLine
   6
CONTINUOUS
  62
3
  10
 1144.8194607268
  20
 525.77549824150
  30
0.0
  11
 1150.8194607268
  21
 525.77549824150
  31
0.0
   0
LWPOLYLINE
   5
11F
 100
AcDbEntity
   8
LEVEL001
 370
25
   6
CONTINUOUS
  62
3
 100
AcDbPolyline
  90
4
  70
0
  10
 1153.9194607268
  20
 518.77549824150
  10
 1153.9194607268
  20
 517.27549824150
  10
 1141.7194607268
  20
 517.27549824150
  10
 1141.7194607268
  20
 518.77549824150
   0
LINE
   5
120
 100
AcDbEntity
   8
LEVEL001
 370
25
 100
AcDbLine
   6
CONTINUOUS
  62
3
  10
 1148.6854861306
  20
 517.27549824150
  30
0.0
  11
 1147.8194607268
  21
 518.77549824150
  31
0.0
   0
LINE
   5
121
 100
AcDbEntity
   8
LEVEL001
 370
25
 100
AcDbLine
   6
CONTINUOUS
  62
3
  10
 1147.8194607268
  20
 517.27549824150
  30
0.0
  11
 1146.9534353231
  21
 518.77549824150
  31
0.0
   0
LINE
   5
122
 100
AcDbEntity
   8
LEVEL001
 370
25
 100
AcDbLine
   6
CONTINUOUS
  62
3
  10
 1143.4893337081
  20
 512.27549824150
  30
0.0
  11
 1152.1495877459
  21
 512.27549824150
  31
0.0
   0
LINE
   5
123
 100
AcDbEntity
   8
LEVEL001
 370
25
 100
AcDbLine
   6
CONTINUOUS
  62
3
  10
 1150.7062120729
  20
 512.95169650501
  30
0.0
  11
 1150.7062120729
  21
 517.27549824150
  31
0.0
   0
LINE
   5
124
 100
AcDbEntity
   8
LEVEL001
 370
25
 100
AcDbLine
   6
CONTINUOUS
  62
3
  10
 1144.9327093810
  20
 512.95169650501
  30
0.0
  11
 1144.9327093810
  21
 517.27549824150
  31
0.0
   0
LINE
   5
125
 100
AcDbEntity
   8
LEVEL001
 370
25
 100
AcDbLine
   6
CONTINUOUS
  62
3
  10
 1153.5929634188
  20
 512.95169650501
  30
0.0
  11
 1153.5929634188
  21
 517.27549824150
  31
0.0
   0
LINE
   5
126
 100
AcDbEntity
   8
LEVEL001
 370
25
 100
AcDbLine
   6
CONTINUOUS
  62
3
  10
 1142.0459580351
  20
 517.27549824150
  30
0.0
  11
 1142.0459580351
  21
 512.95169650501
  31
0.0
   0
ARC
   5
127
 100
AcDbEntity
   8
LEVEL001
 370
25
   6
CONTINUOUS
  62
3
 100
AcDbCircle
  10
 1152.1495877459
  20
 514.15407259014
  30
0.0
  40
 1.8785743486438
 100
AcDbArc
  50
 219.79533255711
  51
 320.20466744289
   0
ARC
   5
128
 100
AcDbEntity
   8
LEVEL001
 370
25
   6
CONTINUOUS
  62
3
 100
AcDbCircle
  10
 1147.8194607268
  20
 518.77549824150
  30
0.0
  40
 6.5000000000000
 100
AcDbArc
  50
 243.63323154779
  51
 296.36676845411
   0
ARC
   5
129
 100
AcDbEntity
   8
LEVEL001
 370
25
   6
CONTINUOUS
  62
3
 100
AcDbCircle
  10
 1143.4893337081
  20
 514.15407259014
  30
0.0
  40
 1.8785743486438
 100
AcDbArc
  50
 219.79533255711
  51
 320.20466744289
   0
LINE
   5
12A
 100
AcDbEntity
   8
LEVEL001
 370
25
 100
AcDbLine
   6
CONTINUOUS
  62
3
  10
 1145.4194592010
  20
 525.77549824150
  30
0.0
  11
 1145.4194592010
  21
 518.77549824150
  31
0.0
   0
LINE
   5
12B
 100
AcDbEntity
   8
LEVEL001
 370
25
 100
AcDbLine
   6
CONTINUOUS
  62
3
  10
 1145.4194592010
  20
 512.27549824150
  30
0.0
  11
 1145.4194592010
  21
 509.77549824150
  31
0.0
   0
LINE
   5
12C
 100
AcDbEntity
   8
LEVEL001
 370
25
 100
AcDbLine
   6
CONTINUOUS
  62
3
  10
 1144.8194607268
  20
 527.77549824150
  30
0.0
  11
 1144.8194607268
  21
 518.77549824150
  31
0.0
   0
LINE
   5
12D
 100
AcDbEntity
   8
LEVEL001
 370
25
 100
AcDbLine
   6
CONTINUOUS
  62
3
  10
 1150.2194622527
  20
 509.77549824150
  30
0.0
  11
 1150.2194622527
  21
 512.27549824150
  31
0.0
   0
LINE
   5
12E
 100
AcDbEntity
   8
LEVEL001
 370
25
 100
AcDbLine
   6
CONTINUOUS
  62
3
  10
 1150.2194622527
  20
 518.77549824150
  30
0.0
  11
 1150.2194622527
  21
 525.77549824150
  31
0.0
   0
LWPOLYLINE
   5
12F
 100
AcDbEntity
   8
LEVEL001
 370
25
   6
CONTINUOUS
  62
3
 100
AcDbPolyline
  90
6
  70
0
  10
 1144.8194607268
  20
 512.27549824150
  10
 1144.8194607268
  20
 510.37548908623
  10
 1145.4194592010
  20
 509.77549824150
  10
 1150.2194622527
  20
 509.77549824150
  10
 1150.8194607268
  20
 510.37548908623
  10
 1150.8194607268
  20
 512.27549824150
   0
LINE
   5
130
 100
AcDbEntity
   8
LEVEL001
 370
25
 100
AcDbLine
   6
CONTINUOUS
  62
3
  10
 1150.8194607268
  20
 518.77549824150
  30
0.0
  11
 1150.8194607268
  21
 527.77549824150
  31
0.0
   0
LWPOLYLINE
   5
131
 100
AcDbEntity
   8
LEVEL001
 370
25
   6
CONTINUOUS
  62
3
 100
AcDbPolyline
  90
4
  70
1
  10
 1099.8194607268
  20
 527.77549824150
  10
 1115.8194607268
  20
 527.77549824150
  10
 1115.8194607268
  20
 529.37549824150
  10
 1099.8194607268
  20
 529.37549824150
   0
LWPOLYLINE
   5
132
 100
AcDbEntity
   8
LEVEL001
 370
25
   6
CONTINUOUS
  62
3
 100
AcDbPolyline
  90
4
  70
0
  10
 1099.8194607268
  20
 543.77549824150
  10
 1099.8194607268
  20
 542.17549824150
  10
 1115.8194607268
  20
 542.17549824150
  10
 1115.8194607268
  20
 543.77549824150
   0
LINE
   5
133
 100
AcDbEntity
   8
LEVEL001
 370
25
 100
AcDbLine
   6
CONTINUOUS
  62
3
  10
 1101.3194607268
  20
 540.67549824150
  30
0.0
  11
 1101.3194607268
  21
 530.87549824150
  31
0.0
   0
LINE
   5
134
 100
AcDbEntity
   8
LEVEL001
 370
25
 100
AcDbLine
   6
CONTINUOUS
  62
3
  10
 1114.3194607268
  20
 540.67549824150
  30
0.0
  11
 1114.3194607268
  21
 530.87549824150
  31
0.0
   0
ARC
   5
135
 100
AcDbEntity
   8
LEVEL001
 370
25
   6
CONTINUOUS
  62
3
 100
AcDbCircle
  10
 1115.8194607268
  20
 540.67549824150
  30
0.0
  40
 1.5000000000000
 100
AcDbArc
  50
 90.000000000000
  51
 180.00000000000
   0
ARC
   5
136
 100
AcDbEntity
   8
LEVEL001
 370
25
   6
CONTINUOUS
  62
3
 100
AcDbCircle
  10
 1099.8194607268
  20
 540.67549824150
  30
0.0
  40
 1.5000000000000
 100
AcDbArc
  50
0.0
  51
 90.000000000000
   0
ARC
   5
137
 100
AcDbEntity
   8
LEVEL001
 370
25
   6
CONTINUOUS
  62
3
 100
AcDbCircle
  10
 1099.8194607268
  20
 530.87549824150
  30
0.0
  40
 1.5000000000000
 100
AcDbArc
  50
 270.00000000000
  51
0.0
   0
ARC
   5
138
 100
AcDbEntity
   8
LEVEL001
 370
25
   6
CONTINUOUS
  62
3
 100
AcDbCircle
  10
 1115.8194607268
  20
 530.87549824150
  30
0.0
  40
 1.5000000000000
 100
AcDbArc
  50
 180.00000000000
  51
 270.00000000000
   0
LINE
   5
139
 100
AcDbEntity
   8
LEVEL001
 370
25
 100
AcDbLine
   6
DASHDOT
  62
3
  10
 1107.8194607268
  20
 550.79896102467
  30
0.0
  11
 1107.8194607268
  21
 503.28136393729
  31
0.0
   0
LINE
   5
13A
 100
AcDbEntity
   8
LEVEL001
 370
25
 100
AcDbLine
   6
CONTINUOUS
  62
3
  10
 1110.8194607268
  20
 510.37548908623
  30
0.0
  11
 1104.8194607268
  21
 510.37548908623
  31
0.0
   0
LINE
   5
13B
 100
AcDbEntity
   8
LEVEL001
 370
25
 100
AcDbLine
   6
CONTINUOUS
  62
3
  10
 1104.8194607268
  20
 525.77549824150
  30
0.0
  11
 1110.8194607268
  21
 525.77549824150
  31
0.0
   0
LWPOLYLINE
   5
13C
 100
AcDbEntity
   8
LEVEL001
 370
25
   6
CONTINUOUS
  62
3
 100
AcDbPolyline
  90
4
  70
0
  10
 1113.9194607268
  20
 518.77549824150
  10
 1113.9194607268
  20
 517.27549824150
  10
 1101.7194607268
  20
 517.27549824150
  10
 1101.7194607268
  20
 518.77549824150
   0
LINE
   5
13D
 100
AcDbEntity
   8
LEVEL001
 370
25
 100
AcDbLine
   6
CONTINUOUS
  62
3
  10
 1108.6854861306
  20
 517.27549824150
  30
0.0
  11
 1107.8194607268
  21
 518.77549824150
  31
0.0
   0
LINE
   5
13E
 100
AcDbEntity
   8
LEVEL001
 370
25
 100
AcDbLine
   6
CONTINUOUS
  62
3
  10
 1107.8194607268
  20
 517.27549824150
  30
0.0
  11
 1106.9534353231
  21
 518.77549824150
  31
0.0
   0
LINE
   5
13F
 100
AcDbEntity
   8
LEVEL001
 370
25
 100
AcDbLine
   6
CONTINUOUS
  62
3
  10
 1103.4893337081
  20
 512.27549824150
  30
0.0
  11
 1112.1495877459
  21
 512.27549824150
  31
0.0
   0
LINE
   5
140
 100
AcDbEntity
   8
LEVEL001
 370
25
 100
AcDbLine
   6
CONTINUOUS
  62
3
  10
 1110.7062120729
  20
 512.95169650501
  30
0.0
  11
 1110.7062120729
  21
 517.27549824150
  31
0.0
   0
LINE
   5
141
 100
AcDbEntity
   8
LEVEL001
 370
25
 100
AcDbLine
   6
CONTINUOUS
  62
3
  10
 1104.9327093810
  20
 512.95169650501
  30
0.0
  11
 1104.9327093810
  21
 517.27549824150
  31
0.0
   0
LINE
   5
142
 100
AcDbEntity
   8
LEVEL001
 370
25
 100
AcDbLine
   6
CONTINUOUS
  62
3
  10
 1113.5929634188
  20
 512.95169650501
  30
0.0
  11
 1113.5929634188
  21
 517.27549824150
  31
0.0
   0
LINE
   5
143
 100
AcDbEntity
   8
LEVEL001
 370
25
 100
AcDbLine
   6
CONTINUOUS
  62
3
  10
 1102.0459580351
  20
 517.27549824150
  30
0.0
  11
 1102.0459580351
  21
 512.95169650501
  31
0.0
   0
ARC
   5
144
 100
AcDbEntity
   8
LEVEL001
 370
25
   6
CONTINUOUS
  62
3
 100
AcDbCircle
  10
 1112.1495877459
  20
 514.15407259014
  30
0.0
  40
 1.8785743486438
 100
AcDbArc
  50
 219.79533255711
  51
 320.20466744289
   0
ARC
   5
145
 100
AcDbEntity
   8
LEVEL001
 370
25
   6
CONTINUOUS
  62
3
 100
AcDbCircle
  10
 1107.8194607268
  20
 518.77549824150
  30
0.0
  40
 6.5000000000000
 100
AcDbArc
  50
 243.63323154779
  51
 296.36676845411
   0
ARC
   5
146
 100
AcDbEntity
   8
LEVEL001
 370
25
   6
CONTINUOUS
  62
3
 100
AcDbCircle
  10
 1103.4893337081
  20
 514.15407259014
  30
0.0
  40
 1.8785743486438
 100
AcDbArc
  50
 219.79533255711
  51
 320.20466744289
   0
LINE
   5
147
 100
AcDbEntity
   8
LEVEL001
 370
25
 100
AcDbLine
   6
CONTINUOUS
  62
3
  10
 1105.4194592010
  20
 525.77549824150
  30
0.0
  11
 1105.4194592010
  21
 518.77549824150
  31
0.0
   0
LINE
   5
148
 100
AcDbEntity
   8
LEVEL001
 370
25
 100
AcDbLine
   6
CONTINUOUS
  62
3
  10
 1105.4194592010
  20
 512.27549824150
  30
0.0
  11
 1105.4194592010
  21
 509.77549824150
  31
0.0
   0
LINE
   5
149
 100
AcDbEntity
   8
LEVEL001
 370
25
 100
AcDbLine
   6
CONTINUOUS
  62
3
  10
 1104.8194607268
  20
 527.77549824150
  30
0.0
  11
 1104.8194607268
  21
 518.77549824150
  31
0.0
   0
LINE
   5
14A
 100
AcDbEntity
   8
LEVEL001
 370
25
 100
AcDbLine
   6
CONTINUOUS
  62
3
  10
 1110.2194622527
  20
 509.77549824150
  30
0.0
  11
 1110.2194622527
  21
 512.27549824150
  31
0.0
   0
LINE
   5
14B
 100
AcDbEntity
   8
LEVEL001
 370
25
 100
AcDbLine
   6
CONTINUOUS
  62
3
  10
 1110.2194622527
  20
 518.77549824150
  30
0.0
  11
 1110.2194622527
  21
 525.77549824150
  31
0.0
   0
LWPOLYLINE
   5
14C
 100
AcDbEntity
   8
LEVEL001
 370
25
   6
CONTINUOUS
  62
3
 100
AcDbPolyline
  90
6
  70
0
  10
 1104.8194607268
  20
 512.27549824150
  10
 1104.8194607268
  20
 510.37548908623
  10
 1105.4194592010
  20
 509.77549824150
  10
 1110.2194622527
  20
 509.77549824150
  10
 1110.8194607268
  20
 510.37548908623
  10
 1110.8194607268
  20
 512.27549824150
   0
LINE
   5
14D
 100
AcDbEntity
   8
LEVEL001
 370
25
 100
AcDbLine
   6
CONTINUOUS
  62
3
  10
 1110.8194607268
  20
 518.77549824150
  30
0.0
  11
 1110.8194607268
  21
 527.77549824150
  31
0.0
   0
LWPOLYLINE
   5
14E
 100
AcDbEntity
   8
LEVEL001
 370
40
   6
CONTINUOUS
  62
7
 100
AcDbPolyline
  90
8
  70
1
  10
 1094.3194607268
  20
 625.77549824150
  10
 1094.3194607268
  20
 663.77549824150
  10
 1161.3194607268
  20
 663.77549824150
  10
 1161.3194607268
  20
 625.77549824150
  10
 1157.8194607268
  20
 625.77549824150
  10
 1157.8194607268
  20
 660.27549824150
  10
 1097.8194607268
  20
 660.27549824150
  10
 1097.8194607268
  20
 625.77549824150
   0
LWPOLYLINE
   5
14F
 100
AcDbEntity
   8
LEVEL001
 370
40
   6
CONTINUOUS
  62
7
 100
AcDbPolyline
  90
4
  70
1
  10
 1094.3194607268
  20
 543.77549824150
  10
 1097.8194607268
  20
 543.77549824150
  10
 1097.8194607268
  20
 619.77549824150
  10
 1094.3194607268
  20
 619.77549824150
   0
LWPOLYLINE
   5
150
 100
AcDbEntity
   8
LEVEL001
 370
40
   6
CONTINUOUS
  62
7
 100
AcDbPolyline
  90
4
  70
1
  10
 1157.8194607268
  20
 543.77549824150
  10
 1161.3194607268
  20
 543.77549824150
  10
 1161.3194607268
  20
 619.77549824150
  10
 1157.8194607268
  20
 619.77549824150
   0
LINE
   5
151
 100
AcDbEntity
   8
LEVEL001
 370
40
 100
AcDbLine
   6
CONTINUOUS
  62
7
  10
 1097.8194607268
  20
 543.77549824150
  30
0.0
  11
 1157.8194607268
  21
 543.77549824150
  31
0.0
   0
LINE
   5
152
 100
AcDbEntity
   8
LEVEL001
 370
40
 100
AcDbLine
   6
CONTINUOUS
  62
7
  10
 1097.8194607268
  20
 644.77549824150
  30
0.0
  11
 1157.8194607268
  21
 644.77549824150
  31
0.0
   0
LINE
   5
153
 100
AcDbEntity
   8
LEVEL001
 370
40
 100
AcDbLine
   6
CONTINUOUS
  62
7
  10
 1097.8194607268
  20
 625.77549824150
  30
0.0
  11
 1102.8194607268
  21
 625.77549824150
  31
0.0
   0
LINE
   5
154
 100
AcDbEntity
   8
LEVEL001
 370
40
 100
AcDbLine
   6
CONTINUOUS
  62
7
  10
 1152.8194607268
  20
 625.77549824150
  30
0.0
  11
 1157.8194607268
  21
 625.77549824150
  31
0.0
   0
LINE
   5
155
 100
AcDbEntity
   8
LEVEL001
 370
40
 100
AcDbLine
   6
CONTINUOUS
  62
7
  10
 1097.8194607268
  20
 619.77549824150
  30
0.0
  11
 1102.8194607268
  21
 619.77549824150
  31
0.0
   0
LINE
   5
156
 100
AcDbEntity
   8
LEVEL001
 370
40
 100
AcDbLine
   6
CONTINUOUS
  62
7
  10
 1152.8194607268
  20
 619.77549824150
  30
0.0
  11
 1157.8194607268
  21
 619.77549824150
  31
0.0
   0
LWPOLYLINE
   5
157
 100
AcDbEntity
   8
LEVEL001
 370
40
   6
CONTINUOUS
  62
7
 100
AcDbPolyline
  90
4
  70
0
  10
 1152.8194607268
  20
 575.77549824150
  10
 1152.8194607268
  20
 641.77549824150
  10
 1102.8194607268
  20
 641.77549824150
  10
 1102.8194607268
  20
 575.77549824150
   0
LINE
   5
158
 100
AcDbEntity
   8
LEVEL001
 370
40
 100
AcDbLine
   6
CONTINUOUS
  62
7
  10
 1097.8194607268
  20
 575.77549824150
  30
0.0
  11
 1157.8194607268
  21
 575.77549824150
  31
0.0
   0
LINE
   5
159
 100
AcDbEntity
   8
LEVEL001
 370
40
 100
AcDbLine
   6
CONTINUOUS
  62
7
  10
 1097.8194607268
  20
 591.77549824150
  30
0.0
  11
 1102.8194607268
  21
 591.77549824150
  31
0.0
   0
LINE
   5
15A
 100
AcDbEntity
   8
LEVEL001
 370
40
 100
AcDbLine
   6
CONTINUOUS
  62
7
  10
 1152.8194607268
  20
 591.77549824150
  30
0.0
  11
 1157.8194607268
  21
 591.77549824150
  31
0.0
   0
ENDBLK
   5
15B
 100
AcDbEntity
   8
0
 100
AcDbBlockEnd
   0
BLOCK
   5
15C
 100
AcDbEntity
   8
0
 100
AcDbBlockBegin
   2
BLOCK004
  70
64
  10
0.0
  20
0.0
  30
0.0
   3
BLOCK004
   0
LINE
   5
15D
 100
AcDbEntity
   8
LEVEL001
 370
25
 100
AcDbLine
   6
CONTINUOUS
  62
3
  10
 590.50526228479
  20
 518.77549824150
  30
0.0
  11
 590.50526228479
  21
 515.77549824150
  31
0.0
   0
LINE
   5
15E
 100
AcDbEntity
   8
LEVEL001
 370
25
 100
AcDbLine
   6
CONTINUOUS
  62
3
  10
 568.78561201624
  20
 515.77549824150
  30
0.0
  11
 590.72492781214
  21
 515.77549824150
  31
0.0
   0
LINE
   5
15F
 100
AcDbEntity
   8
LEVEL001
 370
25
 100
AcDbLine
   6
CONTINUOUS
  62
3
  10
 569.00526228479
  20
 515.77549824150
  30
0.0
  11
 569.00526228479
  21
 518.77549824150
  31
0.0
   0
LINE
   5
160
 100
AcDbEntity
   8
LEVEL001
 370
25
 100
AcDbLine
   6
CONTINUOUS
  62
3
  10
 578.02320662073
  20
 515.77549824150
  30
0.0
  11
 579.75526228479
  21
 518.77549824150
  31
0.0
   0
LINE
   5
161
 100
AcDbEntity
   8
LEVEL001
 370
25
 100
AcDbLine
   6
CONTINUOUS
  62
3
  10
 579.75526228479
  20
 515.77549824150
  30
0.0
  11
 581.48731794886
  21
 518.77549824150
  31
0.0
   0
LINE
   5
162
 100
AcDbEntity
   8
LEVEL001
 370
25
 100
AcDbLine
   6
CONTINUOUS
  62
3
  10
 574.27044477991
  20
 506.98920478132
  30
0.0
  11
 574.27044477991
  21
 515.77549824150
  31
0.0
   0
LINE
   5
163
 100
AcDbEntity
   8
LEVEL001
 370
25
 100
AcDbLine
   6
CONTINUOUS
  62
3
  10
 585.24009504847
  20
 506.98920478132
  30
0.0
  11
 585.24009504847
  21
 515.77549824150
  31
0.0
   0
LINE
   5
164
 100
AcDbEntity
   8
LEVEL001
 370
25
 100
AcDbLine
   6
CONTINUOUS
  62
3
  10
 568.78561201624
  20
 506.98920478132
  30
0.0
  11
 568.78561201624
  21
 515.77549824150
  31
0.0
   0
LINE
   5
165
 100
AcDbEntity
   8
LEVEL001
 370
25
 100
AcDbLine
   6
CONTINUOUS
  62
3
  10
 590.72492781214
  20
 515.77549824150
  30
0.0
  11
 590.72492781214
  21
 506.98920478132
  31
0.0
   0
ARC
   5
166
 100
AcDbEntity
   8
LEVEL001
 370
25
   6
CONTINUOUS
  62
3
 100
AcDbCircle
  10
 587.98251143030
  20
 509.48064890235
  30
0.0
  40
 3.7051506608504
 100
AcDbArc
  50
 222.25457128816
  51
 317.74532444163
   0
ARC
   5
167
 100
AcDbEntity
   8
LEVEL001
 370
25
   6
CONTINUOUS
  62
3
 100
AcDbCircle
  10
 579.75526228479
  20
 518.77549824150
  30
0.0
  40
 12.999997561209
 100
AcDbArc
  50
 245.04482311550
  51
 294.95522901974
   0
ARC
   5
168
 100
AcDbEntity
   8
LEVEL001
 370
25
   6
CONTINUOUS
  62
3
 100
AcDbCircle
  10
 571.52802839808
  20
 509.48064890235
  30
0.0
  40
 3.7051506608504
 100
AcDbArc
  50
 222.25467555837
  51
 317.74532444163
   0
LINE
   5
169
 100
AcDbEntity
   8
LEVEL001
 370
25
 100
AcDbLine
   6
CONTINUOUS
  62
3
  10
 571.52802839808
  20
 505.77549824150
  30
0.0
  11
 587.98251143030
  21
 505.77549824150
  31
0.0
   0
LINE
   5
16A
 100
AcDbEntity
   8
LEVEL001
 370
25
 100
AcDbLine
   6
CONTINUOUS
  62
3
  10
 571.52802839808
  20
 478.77549824150
  30
0.0
  11
 587.98251143030
  21
 478.77549824150
  31
0.0
   0
LINE
   5
16B
 100
AcDbEntity
   8
LEVEL001
 370
25
 100
AcDbLine
   6
CONTINUOUS
  62
3
  10
 574.27044477991
  20
 477.56179170168
  30
0.0
  11
 574.27044477991
  21
 468.77549824150
  31
0.0
   0
LINE
   5
16C
 100
AcDbEntity
   8
LEVEL001
 370
25
 100
AcDbLine
   6
CONTINUOUS
  62
3
  10
 585.24009504847
  20
 477.56179170168
  30
0.0
  11
 585.24009504847
  21
 468.77549824150
  31
0.0
   0
LINE
   5
16D
 100
AcDbEntity
   8
LEVEL001
 370
25
 100
AcDbLine
   6
CONTINUOUS
  62
3
  10
 568.78561201624
  20
 477.56179170168
  30
0.0
  11
 568.78561201624
  21
 468.77549824150
  31
0.0
   0
LINE
   5
16E
 100
AcDbEntity
   8
LEVEL001
 370
25
 100
AcDbLine
   6
CONTINUOUS
  62
3
  10
 590.72492781214
  20
 468.77549824150
  30
0.0
  11
 590.72492781214
  21
 477.56179170168
  31
0.0
   0
ARC
   5
16F
 100
AcDbEntity
   8
LEVEL001
 370
25
   6
CONTINUOUS
  62
3
 100
AcDbCircle
  10
 571.52802839808
  20
 475.07034758065
  30
0.0
  40
 3.7051506608504
 100
AcDbArc
  50
 42.254675558368
  51
 137.74532444163
   0
ARC
   5
170
 100
AcDbEntity
   8
LEVEL001
 370
25
   6
CONTINUOUS
  62
3
 100
AcDbCircle
  10
 579.75526228479
  20
 465.77549824150
  30
0.0
  40
 12.999997561209
 100
AcDbArc
  50
 65.044770980260
  51
 114.95517688450
   0
ARC
   5
171
 100
AcDbEntity
   8
LEVEL001
 370
25
   6
CONTINUOUS
  62
3
 100
AcDbCircle
  10
 587.98251143030
  20
 475.07034758065
  30
0.0
  40
 3.7051506608504
 100
AcDbArc
  50
 42.254675558367
  51
 137.74542871184
   0
LINE
   5
172
 100
AcDbEntity
   8
LEVEL001
 370
25
 100
AcDbLine
   6
CONTINUOUS
  62
3
  10
 573.75526228479
  20
 478.77549824150
  30
0.0
  11
 573.75526228479
  21
 505.77549824150
  31
0.0
   0
LINE
   5
173
 100
AcDbEntity
   8
LEVEL001
 370
25
 100
AcDbLine
   6
CONTINUOUS
  62
3
  10
 575.07526960901
  20
 505.77549824150
  30
0.0
  11
 575.07526960901
  21
 478.77549824150
  31
0.0
   0
LINE
   5
174
 100
AcDbEntity
   8
LEVEL001
 370
25
 100
AcDbLine
   6
CONTINUOUS
  62
3
  10
 584.43527021936
  20
 478.77549824150
  30
0.0
  11
 584.43527021936
  21
 505.77549824150
  31
0.0
   0
LINE
   5
175
 100
AcDbEntity
   8
LEVEL001
 370
25
 100
AcDbLine
   6
CONTINUOUS
  62
3
  10
 585.75526228479
  20
 505.77549824150
  30
0.0
  11
 585.75526228479
  21
 478.77549824150
  31
0.0
   0
LINE
   5
176
 100
AcDbEntity
   8
LEVEL001
 370
25
 100
AcDbLine
   6
DASHDOT
  62
3
  10
 579.75526228479
  20
 424.89924618673
  30
0.0
  11
 579.75526228479
  21
 525.37257135379
  31
0.0
   0
LINE
   5
177
 100
AcDbEntity
   8
LEVEL001
 370
25
 100
AcDbLine
   6
CONTINUOUS
  62
3
  10
 590.50526228479
  20
 456.77549824150
  30
0.0
  11
 590.50526228479
  21
 453.77549824150
  31
0.0
   0
LINE
   5
178
 100
AcDbEntity
   8
LEVEL001
 370
25
 100
AcDbLine
   6
CONTINUOUS
  62
3
  10
 568.78561201624
  20
 453.77549824150
  30
0.0
  11
 590.72492781214
  21
 453.77549824150
  31
0.0
   0
LINE
   5
179
 100
AcDbEntity
   8
LEVEL001
 370
25
 100
AcDbLine
   6
CONTINUOUS
  62
3
  10
 569.00526228479
  20
 453.77549824150
  30
0.0
  11
 569.00526228479
  21
 456.77549824150
  31
0.0
   0
LINE
   5
17A
 100
AcDbEntity
   8
LEVEL001
 370
25
 100
AcDbLine
   6
CONTINUOUS
  62
3
  10
 578.02320662073
  20
 453.77549824150
  30
0.0
  11
 579.75526228479
  21
 456.77549824150
  31
0.0
   0
LINE
   5
17B
 100
AcDbEntity
   8
LEVEL001
 370
25
 100
AcDbLine
   6
CONTINUOUS
  62
3
  10
 579.75526228479
  20
 453.77549824150
  30
0.0
  11
 581.48731794886
  21
 456.77549824150
  31
0.0
   0
LINE
   5
17C
 100
AcDbEntity
   8
LEVEL001
 370
25
 100
AcDbLine
   6
CONTINUOUS
  62
3
  10
 571.52802839808
  20
 443.77549824150
  30
0.0
  11
 587.98251143030
  21
 443.77549824150
  31
0.0
   0
LINE
   5
17D
 100
AcDbEntity
   8
LEVEL001
 370
25
 100
AcDbLine
   6
CONTINUOUS
  62
3
  10
 574.27044477991
  20
 444.98920478132
  30
0.0
  11
 574.27044477991
  21
 453.77549824150
  31
0.0
   0
LINE
   5
17E
 100
AcDbEntity
   8
LEVEL001
 370
25
 100
AcDbLine
   6
CONTINUOUS
  62
3
  10
 585.24009504847
  20
 444.98920478132
  30
0.0
  11
 585.24009504847
  21
 453.77549824150
  31
0.0
   0
LINE
   5
17F
 100
AcDbEntity
   8
LEVEL001
 370
25
 100
AcDbLine
   6
CONTINUOUS
  62
3
  10
 568.78561201624
  20
 444.98920478132
  30
0.0
  11
 568.78561201624
  21
 453.77549824150
  31
0.0
   0
LINE
   5
180
 100
AcDbEntity
   8
LEVEL001
 370
25
 100
AcDbLine
   6
CONTINUOUS
  62
3
  10
 590.72492781214
  20
 453.77549824150
  30
0.0
  11
 590.72492781214
  21
 444.98920478132
  31
0.0
   0
ARC
   5
181
 100
AcDbEntity
   8
LEVEL001
 370
25
   6
CONTINUOUS
  62
3
 100
AcDbCircle
  10
 571.52802839808
  20
 447.48064890235
  30
0.0
  40
 3.7051506608504
 100
AcDbArc
  50
 222.25467555837
  51
 317.74532444163
   0
ARC
   5
182
 100
AcDbEntity
   8
LEVEL001
 370
25
   6
CONTINUOUS
  62
3
 100
AcDbCircle
  10
 579.75526228479
  20
 456.77549824150
  30
0.0
  40
 12.999997561209
 100
AcDbArc
  50
 245.04482311550
  51
 294.95522901974
   0
ARC
   5
183
 100
AcDbEntity
   8
LEVEL001
 370
25
   6
CONTINUOUS
  62
3
 100
AcDbCircle
  10
 587.98251143030
  20
 447.48064890235
  30
0.0
  40
 3.7051506608504
 100
AcDbArc
  50
 222.25457128816
  51
 317.74532444163
   0
LINE
   5
184
 100
AcDbEntity
   8
LEVEL001
 370
25
 100
AcDbLine
   6
CONTINUOUS
  62
3
  10
 573.75526228479
  20
 433.09549793632
  30
0.0
  11
 585.75526228479
  21
 433.09549793632
  31
0.0
   0
LWPOLYLINE
   5
185
 100
AcDbEntity
   8
LEVEL001
 370
25
   6
CONTINUOUS
  62
3
 100
AcDbPolyline
  90
6
  70
0
  10
 573.75526228479
  20
 443.77549824150
  10
 573.75526228479
  20
 433.09549793632
  10
 575.07526960901
  20
 431.77549824150
  10
 584.43527021936
  20
 431.77549824150
  10
 585.75526228479
  20
 433.09549793632
  10
 585.75526228479
  20
 443.77549824150
   0
LINE
   5
186
 100
AcDbEntity
   8
LEVEL001
 370
25
 100
AcDbLine
   6
CONTINUOUS
  62
3
  10
 575.07526960901
  20
 431.77549824150
  30
0.0
  11
 575.07526960901
  21
 443.77549824150
  31
0.0
   0
LINE
   5
187
 100
AcDbEntity
   8
LEVEL001
 370
25
 100
AcDbLine
   6
CONTINUOUS
  62
3
  10
 584.43527021936
  20
 431.77549824150
  30
0.0
  11
 584.43527021936
  21
 443.77549824150
  31
0.0
   0
ENDBLK
   5
188
 100
AcDbEntity
   8
0
 100
AcDbBlockEnd
   0
BLOCK
   5
189
 100
AcDbEntity
   8
0
 100
AcDbBlockBegin
   2
BLOCK005
  70
64
  10
0.0
  20
0.0
  30
0.0
   3
BLOCK005
   0
LINE
   5
18A
 100
AcDbEntity
   8
LEVEL001
 370
25
 100
AcDbLine
   6
CONTINUOUS
  62
3
  10
 720.50526228479
  20
 518.77549824150
  30
0.0
  11
 720.50526228479
  21
 515.77549824150
  31
0.0
   0
LINE
   5
18B
 100
AcDbEntity
   8
LEVEL001
 370
25
 100
AcDbLine
   6
CONTINUOUS
  62
3
  10
 698.78561201624
  20
 515.77549824150
  30
0.0
  11
 720.72492781214
  21
 515.77549824150
  31
0.0
   0
LINE
   5
18C
 100
AcDbEntity
   8
LEVEL001
 370
25
 100
AcDbLine
   6
CONTINUOUS
  62
3
  10
 699.00526228479
  20
 515.77549824150
  30
0.0
  11
 699.00526228479
  21
 518.77549824150
  31
0.0
   0
LINE
   5
18D
 100
AcDbEntity
   8
LEVEL001
 370
25
 100
AcDbLine
   6
CONTINUOUS
  62
3
  10
 708.02320662073
  20
 515.77549824150
  30
0.0
  11
 709.75526228479
  21
 518.77549824150
  31
0.0
   0
LINE
   5
18E
 100
AcDbEntity
   8
LEVEL001
 370
25
 100
AcDbLine
   6
CONTINUOUS
  62
3
  10
 709.75526228479
  20
 515.77549824150
  30
0.0
  11
 711.48731794886
  21
 518.77549824150
  31
0.0
   0
LINE
   5
18F
 100
AcDbEntity
   8
LEVEL001
 370
25
 100
AcDbLine
   6
CONTINUOUS
  62
3
  10
 704.27044477991
  20
 506.98920478132
  30
0.0
  11
 704.27044477991
  21
 515.77549824150
  31
0.0
   0
LINE
   5
190
 100
AcDbEntity
   8
LEVEL001
 370
25
 100
AcDbLine
   6
CONTINUOUS
  62
3
  10
 715.24009504847
  20
 506.98920478132
  30
0.0
  11
 715.24009504847
  21
 515.77549824150
  31
0.0
   0
LINE
   5
191
 100
AcDbEntity
   8
LEVEL001
 370
25
 100
AcDbLine
   6
CONTINUOUS
  62
3
  10
 698.78561201624
  20
 506.98920478132
  30
0.0
  11
 698.78561201624
  21
 515.77549824150
  31
0.0
   0
LINE
   5
192
 100
AcDbEntity
   8
LEVEL001
 370
25
 100
AcDbLine
   6
CONTINUOUS
  62
3
  10
 720.72492781214
  20
 515.77549824150
  30
0.0
  11
 720.72492781214
  21
 506.98920478132
  31
0.0
   0
ARC
   5
193
 100
AcDbEntity
   8
LEVEL001
 370
25
   6
CONTINUOUS
  62
3
 100
AcDbCircle
  10
 717.98251143030
  20
 509.48064890235
  30
0.0
  40
 3.7051506608504
 100
AcDbArc
  50
 222.25457128816
  51
 317.74532444163
   0
ARC
   5
194
 100
AcDbEntity
   8
LEVEL001
 370
25
   6
CONTINUOUS
  62
3
 100
AcDbCircle
  10
 709.75526228479
  20
 518.77549824150
  30
0.0
  40
 12.999997561209
 100
AcDbArc
  50
 245.04482311550
  51
 294.95522901974
   0
ARC
   5
195
 100
AcDbEntity
   8
LEVEL001
 370
25
   6
CONTINUOUS
  62
3
 100
AcDbCircle
  10
 701.52802839808
  20
 509.48064890235
  30
0.0
  40
 3.7051506608504
 100
AcDbArc
  50
 222.25467555837
  51
 317.74532444163
   0
LINE
   5
196
 100
AcDbEntity
   8
LEVEL001
 370
25
 100
AcDbLine
   6
CONTINUOUS
  62
3
  10
 701.52802839808
  20
 505.77549824150
  30
0.0
  11
 717.98251143030
  21
 505.77549824150
  31
0.0
   0
LINE
   5
197
 100
AcDbEntity
   8
LEVEL001
 370
25
 100
AcDbLine
   6
CONTINUOUS
  62
3
  10
 701.52802839808
  20
 478.77549824150
  30
0.0
  11
 717.98251143030
  21
 478.77549824150
  31
0.0
   0
LINE
   5
198
 100
AcDbEntity
   8
LEVEL001
 370
25
 100
AcDbLine
   6
CONTINUOUS
  62
3
  10
 704.27044477991
  20
 477.56179170168
  30
0.0
  11
 704.27044477991
  21
 468.77549824150
  31
0.0
   0
LINE
   5
199
 100
AcDbEntity
   8
LEVEL001
 370
25
 100
AcDbLine
   6
CONTINUOUS
  62
3
  10
 715.24009504847
  20
 477.56179170168
  30
0.0
  11
 715.24009504847
  21
 468.77549824150
  31
0.0
   0
LINE
   5
19A
 100
AcDbEntity
   8
LEVEL001
 370
25
 100
AcDbLine
   6
CONTINUOUS
  62
3
  10
 698.78561201624
  20
 477.56179170168
  30
0.0
  11
 698.78561201624
  21
 468.77549824150
  31
0.0
   0
LINE
   5
19B
 100
AcDbEntity
   8
LEVEL001
 370
25
 100
AcDbLine
   6
CONTINUOUS
  62
3
  10
 720.72492781214
  20
 468.77549824150
  30
0.0
  11
 720.72492781214
  21
 477.56179170168
  31
0.0
   0
ARC
   5
19C
 100
AcDbEntity
   8
LEVEL001
 370
25
   6
CONTINUOUS
  62
3
 100
AcDbCircle
  10
 701.52802839808
  20
 475.07034758065
  30
0.0
  40
 3.7051506608504
 100
AcDbArc
  50
 42.254675558368
  51
 137.74532444163
   0
ARC
   5
19D
 100
AcDbEntity
   8
LEVEL001
 370
25
   6
CONTINUOUS
  62
3
 100
AcDbCircle
  10
 709.75526228479
  20
 465.77549824150
  30
0.0
  40
 12.999997561209
 100
AcDbArc
  50
 65.044770980260
  51
 114.95517688450
   0
ARC
   5
19E
 100
AcDbEntity
   8
LEVEL001
 370
25
   6
CONTINUOUS
  62
3
 100
AcDbCircle
  10
 717.98251143030
  20
 475.07034758065
  30
0.0
  40
 3.7051506608504
 100
AcDbArc
  50
 42.254675558367
  51
 137.74542871184
   0
LINE
   5
19F
 100
AcDbEntity
   8
LEVEL001
 370
25
 100
AcDbLine
   6
CONTINUOUS
  62
3
  10
 703.75526228479
  20
 478.77549824150
  30
0.0
  11
 703.75526228479
  21
 505.77549824150
  31
0.0
   0
LINE
   5
1A0
 100
AcDbEntity
   8
LEVEL001
 370
25
 100
AcDbLine
   6
CONTINUOUS
  62
3
  10
 705.07526960901
  20
 505.77549824150
  30
0.0
  11
 705.07526960901
  21
 478.77549824150
  31
0.0
   0
LINE
   5
1A1
 100
AcDbEntity
   8
LEVEL001
 370
25
 100
AcDbLine
   6
CONTINUOUS
  62
3
  10
 714.43527021936
  20
 478.77549824150
  30
0.0
  11
 714.43527021936
  21
 505.77549824150
  31
0.0
   0
LINE
   5
1A2
 100
AcDbEntity
   8
LEVEL001
 370
25
 100
AcDbLine
   6
CONTINUOUS
  62
3
  10
 715.75526228479
  20
 505.77549824150
  30
0.0
  11
 715.75526228479
  21
 478.77549824150
  31
0.0
   0
LINE
   5
1A3
 100
AcDbEntity
   8
LEVEL001
 370
25
 100
AcDbLine
   6
DASHDOT
  62
3
  10
 709.75526228479
  20
 424.89924618673
  30
0.0
  11
 709.75526228479
  21
 525.37257135379
  31
0.0
   0
LINE
   5
1A4
 100
AcDbEntity
   8
LEVEL001
 370
25
 100
AcDbLine
   6
CONTINUOUS
  62
3
  10
 720.50526228479
  20
 456.77549824150
  30
0.0
  11
 720.50526228479
  21
 453.77549824150
  31
0.0
   0
LINE
   5
1A5
 100
AcDbEntity
   8
LEVEL001
 370
25
 100
AcDbLine
   6
CONTINUOUS
  62
3
  10
 698.78561201624
  20
 453.77549824150
  30
0.0
  11
 720.72492781214
  21
 453.77549824150
  31
0.0
   0
LINE
   5
1A6
 100
AcDbEntity
   8
LEVEL001
 370
25
 100
AcDbLine
   6
CONTINUOUS
  62
3
  10
 699.00526228479
  20
 453.77549824150
  30
0.0
  11
 699.00526228479
  21
 456.77549824150
  31
0.0
   0
LINE
   5
1A7
 100
AcDbEntity
   8
LEVEL001
 370
25
 100
AcDbLine
   6
CONTINUOUS
  62
3
  10
 708.02320662073
  20
 453.77549824150
  30
0.0
  11
 709.75526228479
  21
 456.77549824150
  31
0.0
   0
LINE
   5
1A8
 100
AcDbEntity
   8
LEVEL001
 370
25
 100
AcDbLine
   6
CONTINUOUS
  62
3
  10
 709.75526228479
  20
 453.77549824150
  30
0.0
  11
 711.48731794886
  21
 456.77549824150
  31
0.0
   0
LINE
   5
1A9
 100
AcDbEntity
   8
LEVEL001
 370
25
 100
AcDbLine
   6
CONTINUOUS
  62
3
  10
 701.52802839808
  20
 443.77549824150
  30
0.0
  11
 717.98251143030
  21
 443.77549824150
  31
0.0
   0
LINE
   5
1AA
 100
AcDbEntity
   8
LEVEL001
 370
25
 100
AcDbLine
   6
CONTINUOUS
  62
3
  10
 704.27044477991
  20
 444.98920478132
  30
0.0
  11
 704.27044477991
  21
 453.77549824150
  31
0.0
   0
LINE
   5
1AB
 100
AcDbEntity
   8
LEVEL001
 370
25
 100
AcDbLine
   6
CONTINUOUS
  62
3
  10
 715.24009504847
  20
 444.98920478132
  30
0.0
  11
 715.24009504847
  21
 453.77549824150
  31
0.0
   0
LINE
   5
1AC
 100
AcDbEntity
   8
LEVEL001
 370
25
 100
AcDbLine
   6
CONTINUOUS
  62
3
  10
 698.78561201624
  20
 444.98920478132
  30
0.0
  11
 698.78561201624
  21
 453.77549824150
  31
0.0
   0
LINE
   5
1AD
 100
AcDbEntity
   8
LEVEL001
 370
25
 100
AcDbLine
   6
CONTINUOUS
  62
3
  10
 720.72492781214
  20
 453.77549824150
  30
0.0
  11
 720.72492781214
  21
 444.98920478132
  31
0.0
   0
ARC
   5
1AE
 100
AcDbEntity
   8
LEVEL001
 370
25
   6
CONTINUOUS
  62
3
 100
AcDbCircle
  10
 701.52802839808
  20
 447.48064890235
  30
0.0
  40
 3.7051506608504
 100
AcDbArc
  50
 222.25467555837
  51
 317.74532444163
   0
ARC
   5
1AF
 100
AcDbEntity
   8
LEVEL001
 370
25
   6
CONTINUOUS
  62
3
 100
AcDbCircle
  10
 709.75526228479
  20
 456.77549824150
  30
0.0
  40
 12.999997561209
 100
AcDbArc
  50
 245.04482311550
  51
 294.95522901974
   0
ARC
   5
1B0
 100
AcDbEntity
   8
LEVEL001
 370
25
   6
CONTINUOUS
  62
3
 100
AcDbCircle
  10
 717.98251143030
  20
 447.48064890235
  30
0.0
  40
 3.7051506608504
 100
AcDbArc
  50
 222.25457128816
  51
 317.74532444163
   0
LINE
   5
1B1
 100
AcDbEntity
   8
LEVEL001
 370
25
 100
AcDbLine
   6
CONTINUOUS
  62
3
  10
 703.75526228479
  20
 433.09549793632
  30
0.0
  11
 715.75526228479
  21
 433.09549793632
  31
0.0
   0
LWPOLYLINE
   5
1B2
 100
AcDbEntity
   8
LEVEL001
 370
25
   6
CONTINUOUS
  62
3
 100
AcDbPolyline
  90
6
  70
0
  10
 703.75526228479
  20
 443.77549824150
  10
 703.75526228479
  20
 433.09549793632
  10
 705.07526960901
  20
 431.77549824150
  10
 714.43527021936
  20
 431.77549824150
  10
 715.75526228479
  20
 433.09549793632
  10
 715.75526228479
  20
 443.77549824150
   0
LINE
   5
1B3
 100
AcDbEntity
   8
LEVEL001
 370
25
 100
AcDbLine
   6
CONTINUOUS
  62
3
  10
 705.07526960901
  20
 431.77549824150
  30
0.0
  11
 705.07526960901
  21
 443.77549824150
  31
0.0
   0
LINE
   5
1B4
 100
AcDbEntity
   8
LEVEL001
 370
25
 100
AcDbLine
   6
CONTINUOUS
  62
3
  10
 714.43527021936
  20
 431.77549824150
  30
0.0
  11
 714.43527021936
  21
 443.77549824150
  31
0.0
   0
ENDBLK
   5
1B5
 100
AcDbEntity
   8
0
 100
AcDbBlockEnd
   0
BLOCK
   5
1B6
 100
AcDbEntity
   8
0
 100
AcDbBlockBegin
   2
BLOCK006
  70
64
  10
0.0
  20
0.0
  30
0.0
   3
BLOCK006
   0
LWPOLYLINE
   5
1B7
 100
AcDbEntity
   8
LEVEL001
 370
40
   6
CONTINUOUS
  62
7
 100
AcDbPolyline
  90
4
  70
1
  10
 564.75526228479
  20
 456.77549824150
  10
 724.75526228479
  20
 456.77549824150
  10
 724.75526228479
  20
 468.77549824150
  10
 564.75526228479
  20
 468.77549824150
   0
LINE
   5
1B8
 100
AcDbEntity
   8
LEVEL001
 370
40
 100
AcDbLine
   6
CONTINUOUS
  62
7
  10
 614.50526228479
  20
 456.77549824150
  30
0.0
  11
 614.50526228479
  21
 336.77549824150
  31
0.0
   0
LINE
   5
1B9
 100
AcDbEntity
   8
LEVEL001
 370
40
 100
AcDbLine
   6
CONTINUOUS
  62
7
  10
 675.00526228479
  20
 456.77549824150
  30
0.0
  11
 675.00526228479
  21
 336.77549824150
  31
0.0
   0
LINE
   5
1BA
 100
AcDbEntity
   8
LEVEL001
 370
25
 100
AcDbLine
   6
DOT
  62
3
  10
 618.30526228479
  20
 456.77549824150
  30
0.0
  11
 618.30526228479
  21
 336.77549824150
  31
0.0
   0
LINE
   5
1BB
 100
AcDbEntity
   8
LEVEL001
 370
25
 100
AcDbLine
   6
DOT
  62
3
  10
 671.20526228479
  20
 456.77549824150
  30
0.0
  11
 671.20526228479
  21
 336.77549824150
  31
0.0
   0
LWPOLYLINE
   5
1BC
 100
AcDbEntity
   8
LEVEL001
 370
40
   6
CONTINUOUS
  62
7
 100
AcDbPolyline
  90
4
  70
1
  10
 564.75526228479
  20
 324.77549824150
  10
 724.75526228479
  20
 324.77549824150
  10
 724.75526228479
  20
 336.77549824150
  10
 564.75526228479
  20
 336.77549824150
   0
ENDBLK
   5
1BD
 100
AcDbEntity
   8
0
 100
AcDbBlockEnd
   0
BLOCK
   5
1BE
 100
AcDbEntity
   8
0
 100
AcDbBlockBegin
   2
BLOCK007
  70
64
  10
0.0
  20
0.0
  30
0.0
   3
BLOCK007
   0
LINE
   5
1BF
 100
AcDbEntity
   8
LEVEL001
 370
40
 100
AcDbLine
   6
CONTINUOUS
  62
7
  10
 1097.5694607268
  20
 456.77549824150
  30
0.0
  11
 1097.5694607268
  21
 336.77549824150
  31
0.0
   0
LINE
   5
1C0
 100
AcDbEntity
   8
LEVEL001
 370
40
 100
AcDbLine
   6
CONTINUOUS
  62
7
  10
 1158.0694607268
  20
 456.77549824150
  30
0.0
  11
 1158.0694607268
  21
 336.77549824150
  31
0.0
   0
LINE
   5
1C1
 100
AcDbEntity
   8
LEVEL001
 370
25
 100
AcDbLine
   6
DOT
  62
3
  10
 1101.3694607268
  20
 456.77549824150
  30
0.0
  11
 1101.3694607268
  21
 336.77549824150
  31
0.0
   0
LINE
   5
1C2
 100
AcDbEntity
   8
LEVEL001
 370
25
 100
AcDbLine
   6
DOT
  62
3
  10
 1154.2694607268
  20
 456.77549824150
  30
0.0
  11
 1154.2694607268
  21
 336.77549824150
  31
0.0
   0
LWPOLYLINE
   5
1C3
 100
AcDbEntity
   8
LEVEL001
 370
40
   6
CONTINUOUS
  62
7
 100
AcDbPolyline
  90
4
  70
1
  10
 1090.3194607268
  20
 456.77549824150
  10
 1165.3194607268
  20
 456.77549824150
  10
 1165.3194607268
  20
 468.77549824150
  10
 1090.3194607268
  20
 468.77549824150
   0
LWPOLYLINE
   5
1C4
 100
AcDbEntity
   8
LEVEL001
 370
40
   6
CONTINUOUS
  62
7
 100
AcDbPolyline
  90
4
  70
1
  10
 1090.3194607268
  20
 324.77549824150
  10
 1165.3194607268
  20
 324.77549824150
  10
 1165.3194607268
  20
 336.77549824150
  10
 1090.3194607268
  20
 336.77549824150
   0
ENDBLK
   5
1C5
 100
AcDbEntity
   8
0
 100
AcDbBlockEnd
   0
BLOCK
   5
1C6
 100
AcDbEntity
   8
0
 100
AcDbBlockBegin
   2
BLOCK008
  70
64
  10
0.0
  20
0.0
  30
0.0
   3
BLOCK008
   0
LINE
   5
1C7
 100
AcDbEntity
   8
LEVEL001
 370
25
 100
AcDbLine
   6
CONTINUOUS
  62
3
  10
 1113.5694607268
  20
 518.77549824150
  30
0.0
  11
 1113.5694607268
  21
 515.77549824150
  31
0.0
   0
LINE
   5
1C8
 100
AcDbEntity
   8
LEVEL001
 370
25
 100
AcDbLine
   6
CONTINUOUS
  62
3
  10
 1091.8498104583
  20
 515.77549824150
  30
0.0
  11
 1113.7891262542
  21
 515.77549824150
  31
0.0
   0
LINE
   5
1C9
 100
AcDbEntity
   8
LEVEL001
 370
25
 100
AcDbLine
   6
CONTINUOUS
  62
3
  10
 1092.0694607268
  20
 515.77549824150
  30
0.0
  11
 1092.0694607268
  21
 518.77549824150
  31
0.0
   0
LINE
   5
1CA
 100
AcDbEntity
   8
LEVEL001
 370
25
 100
AcDbLine
   6
CONTINUOUS
  62
3
  10
 1101.0874050628
  20
 515.77549824150
  30
0.0
  11
 1102.8194607268
  21
 518.77549824150
  31
0.0
   0
LINE
   5
1CB
 100
AcDbEntity
   8
LEVEL001
 370
25
 100
AcDbLine
   6
CONTINUOUS
  62
3
  10
 1102.8194607268
  20
 515.77549824150
  30
0.0
  11
 1104.5515163909
  21
 518.77549824150
  31
0.0
   0
LINE
   5
1CC
 100
AcDbEntity
   8
LEVEL001
 370
25
 100
AcDbLine
   6
CONTINUOUS
  62
3
  10
 1097.3346432220
  20
 506.98920478132
  30
0.0
  11
 1097.3346432220
  21
 515.77549824150
  31
0.0
   0
LINE
   5
1CD
 100
AcDbEntity
   8
LEVEL001
 370
25
 100
AcDbLine
   6
CONTINUOUS
  62
3
  10
 1108.3042934905
  20
 506.98920478132
  30
0.0
  11
 1108.3042934905
  21
 515.77549824150
  31
0.0
   0
LINE
   5
1CE
 100
AcDbEntity
   8
LEVEL001
 370
25
 100
AcDbLine
   6
CONTINUOUS
  62
3
  10
 1091.8498104583
  20
 506.98920478132
  30
0.0
  11
 1091.8498104583
  21
 515.77549824150
  31
0.0
   0
LINE
   5
1CF
 100
AcDbEntity
   8
LEVEL001
 370
25
 100
AcDbLine
   6
CONTINUOUS
  62
3
  10
 1113.7891262542
  20
 515.77549824150
  30
0.0
  11
 1113.7891262542
  21
 506.98920478132
  31
0.0
   0
ARC
   5
1D0
 100
AcDbEntity
   8
LEVEL001
 370
25
   6
CONTINUOUS
  62
3
 100
AcDbCircle
  10
 1111.0467098724
  20
 509.48064890235
  30
0.0
  40
 3.7051506608504
 100
AcDbArc
  50
 222.25457128817
  51
 317.74532444163
   0
ARC
   5
1D1
 100
AcDbEntity
   8
LEVEL001
 370
25
   6
CONTINUOUS
  62
3
 100
AcDbCircle
  10
 1102.8194607268
  20
 518.77549824150
  30
0.0
  40
 12.999997561209
 100
AcDbArc
  50
 245.04482311550
  51
 294.95522901974
   0
ARC
   5
1D2
 100
AcDbEntity
   8
LEVEL001
 370
25
   6
CONTINUOUS
  62
3
 100
AcDbCircle
  10
 1094.5922268401
  20
 509.48064890235
  30
0.0
  40
 3.7051506608504
 100
AcDbArc
  50
 222.25467555837
  51
 317.74532444163
   0
LINE
   5
1D3
 100
AcDbEntity
   8
LEVEL001
 370
25
 100
AcDbLine
   6
CONTINUOUS
  62
3
  10
 1094.5922268401
  20
 505.77549824150
  30
0.0
  11
 1111.0467098724
  21
 505.77549824150
  31
0.0
   0
LINE
   5
1D4
 100
AcDbEntity
   8
LEVEL001
 370
25
 100
AcDbLine
   6
CONTINUOUS
  62
3
  10
 1094.5922268401
  20
 478.77549824150
  30
0.0
  11
 1111.0467098724
  21
 478.77549824150
  31
0.0
   0
LINE
   5
1D5
 100
AcDbEntity
   8
LEVEL001
 370
25
 100
AcDbLine
   6
CONTINUOUS
  62
3
  10
 1097.3346432220
  20
 477.56179170168
  30
0.0
  11
 1097.3346432220
  21
 468.77549824150
  31
0.0
   0
LINE
   5
1D6
 100
AcDbEntity
   8
LEVEL001
 370
25
 100
AcDbLine
   6
CONTINUOUS
  62
3
  10
 1108.3042934905
  20
 477.56179170168
  30
0.0
  11
 1108.3042934905
  21
 468.77549824150
  31
0.0
   0
LINE
   5
1D7
 100
AcDbEntity
   8
LEVEL001
 370
25
 100
AcDbLine
   6
CONTINUOUS
  62
3
  10
 1091.8498104583
  20
 477.56179170168
  30
0.0
  11
 1091.8498104583
  21
 468.77549824150
  31
0.0
   0
LINE
   5
1D8
 100
AcDbEntity
   8
LEVEL001
 370
25
 100
AcDbLine
   6
CONTINUOUS
  62
3
  10
 1113.7891262542
  20
 468.77549824150
  30
0.0
  11
 1113.7891262542
  21
 477.56179170168
  31
0.0
   0
ARC
   5
1D9
 100
AcDbEntity
   8
LEVEL001
 370
25
   6
CONTINUOUS
  62
3
 100
AcDbCircle
  10
 1094.5922268401
  20
 475.07034758065
  30
0.0
  40
 3.7051506608504
 100
AcDbArc
  50
 42.254675558368
  51
 137.74532444163
   0
ARC
   5
1DA
 100
AcDbEntity
   8
LEVEL001
 370
25
   6
CONTINUOUS
  62
3
 100
AcDbCircle
  10
 1102.8194607268
  20
 465.77549824150
  30
0.0
  40
 12.999997561209
 100
AcDbArc
  50
 65.044770980259
  51
 114.95517688450
   0
ARC
   5
1DB
 100
AcDbEntity
   8
LEVEL001
 370
25
   6
CONTINUOUS
  62
3
 100
AcDbCircle
  10
 1111.0467098724
  20
 475.07034758065
  30
0.0
  40
 3.7051506608504
 100
AcDbArc
  50
 42.254675558368
  51
 137.74542871183
   0
LINE
   5
1DC
 100
AcDbEntity
   8
LEVEL001
 370
25
 100
AcDbLine
   6
CONTINUOUS
  62
3
  10
 1096.8194607268
  20
 478.77549824150
  30
0.0
  11
 1096.8194607268
  21
 505.77549824150
  31
0.0
   0
LINE
   5
1DD
 100
AcDbEntity
   8
LEVEL001
 370
25
 100
AcDbLine
   6
CONTINUOUS
  62
3
  10
 1098.1394680511
  20
 505.77549824150
  30
0.0
  11
 1098.1394680511
  21
 478.77549824150
  31
0.0
   0
LINE
   5
1DE
 100
AcDbEntity
   8
LEVEL001
 370
25
 100
AcDbLine
   6
CONTINUOUS
  62
3
  10
 1107.4994686614
  20
 478.77549824150
  30
0.0
  11
 1107.4994686614
  21
 505.77549824150
  31
0.0
   0
LINE
   5
1DF
 100
AcDbEntity
   8
LEVEL001
 370
25
 100
AcDbLine
   6
CONTINUOUS
  62
3
  10
 1108.8194607268
  20
 505.77549824150
  30
0.0
  11
 1108.8194607268
  21
 478.77549824150
  31
0.0
   0
LINE
   5
1E0
 100
AcDbEntity
   8
LEVEL001
 370
25
 100
AcDbLine
   6
DASHDOT
  62
3
  10
 1102.8194607268
  20
 424.89924618673
  30
0.0
  11
 1102.8194607268
  21
 525.37257135379
  31
0.0
   0
LINE
   5
1E1
 100
AcDbEntity
   8
LEVEL001
 370
25
 100
AcDbLine
   6
CONTINUOUS
  62
3
  10
 1113.5694607268
  20
 456.77549824150
  30
0.0
  11
 1113.5694607268
  21
 453.77549824150
  31
0.0
   0
LINE
   5
1E2
 100
AcDbEntity
   8
LEVEL001
 370
25
 100
AcDbLine
   6
CONTINUOUS
  62
3
  10
 1091.8498104583
  20
 453.77549824150
  30
0.0
  11
 1113.7891262542
  21
 453.77549824150
  31
0.0
   0
LINE
   5
1E3
 100
AcDbEntity
   8
LEVEL001
 370
25
 100
AcDbLine
   6
CONTINUOUS
  62
3
  10
 1092.0694607268
  20
 453.77549824150
  30
0.0
  11
 1092.0694607268
  21
 456.77549824150
  31
0.0
   0
LINE
   5
1E4
 100
AcDbEntity
   8
LEVEL001
 370
25
 100
AcDbLine
   6
CONTINUOUS
  62
3
  10
 1101.0874050628
  20
 453.77549824150
  30
0.0
  11
 1102.8194607268
  21
 456.77549824150
  31
0.0
   0
LINE
   5
1E5
 100
AcDbEntity
   8
LEVEL001
 370
25
 100
AcDbLine
   6
CONTINUOUS
  62
3
  10
 1102.8194607268
  20
 453.77549824150
  30
0.0
  11
 1104.5515163909
  21
 456.77549824150
  31
0.0
   0
LINE
   5
1E6
 100
AcDbEntity
   8
LEVEL001
 370
25
 100
AcDbLine
   6
CONTINUOUS
  62
3
  10
 1094.5922268401
  20
 443.77549824150
  30
0.0
  11
 1111.0467098724
  21
 443.77549824150
  31
0.0
   0
LINE
   5
1E7
 100
AcDbEntity
   8
LEVEL001
 370
25
 100
AcDbLine
   6
CONTINUOUS
  62
3
  10
 1097.3346432220
  20
 444.98920478132
  30
0.0
  11
 1097.3346432220
  21
 453.77549824150
  31
0.0
   0
LINE
   5
1E8
 100
AcDbEntity
   8
LEVEL001
 370
25
 100
AcDbLine
   6
CONTINUOUS
  62
3
  10
 1108.3042934905
  20
 444.98920478132
  30
0.0
  11
 1108.3042934905
  21
 453.77549824150
  31
0.0
   0
LINE
   5
1E9
 100
AcDbEntity
   8
LEVEL001
 370
25
 100
AcDbLine
   6
CONTINUOUS
  62
3
  10
 1091.8498104583
  20
 444.98920478132
  30
0.0
  11
 1091.8498104583
  21
 453.77549824150
  31
0.0
   0
LINE
   5
1EA
 100
AcDbEntity
   8
LEVEL001
 370
25
 100
AcDbLine
   6
CONTINUOUS
  62
3
  10
 1113.7891262542
  20
 453.77549824150
  30
0.0
  11
 1113.7891262542
  21
 444.98920478132
  31
0.0
   0
ARC
   5
1EB
 100
AcDbEntity
   8
LEVEL001
 370
25
   6
CONTINUOUS
  62
3
 100
AcDbCircle
  10
 1094.5922268401
  20
 447.48064890235
  30
0.0
  40
 3.7051506608504
 100
AcDbArc
  50
 222.25467555837
  51
 317.74532444163
   0
ARC
   5
1EC
 100
AcDbEntity
   8
LEVEL001
 370
25
   6
CONTINUOUS
  62
3
 100
AcDbCircle
  10
 1102.8194607268
  20
 456.77549824150
  30
0.0
  40
 12.999997561209
 100
AcDbArc
  50
 245.04482311550
  51
 294.95522901974
   0
ARC
   5
1ED
 100
AcDbEntity
   8
LEVEL001
 370
25
   6
CONTINUOUS
  62
3
 100
AcDbCircle
  10
 1111.0467098724
  20
 447.48064890235
  30
0.0
  40
 3.7051506608504
 100
AcDbArc
  50
 222.25457128817
  51
 317.74532444163
   0
LINE
   5
1EE
 100
AcDbEntity
   8
LEVEL001
 370
25
 100
AcDbLine
   6
CONTINUOUS
  62
3
  10
 1096.8194607268
  20
 433.09549793632
  30
0.0
  11
 1108.8194607268
  21
 433.09549793632
  31
0.0
   0
LWPOLYLINE
   5
1EF
 100
AcDbEntity
   8
LEVEL001
 370
25
   6
CONTINUOUS
  62
3
 100
AcDbPolyline
  90
6
  70
0
  10
 1096.8194607268
  20
 443.77549824150
  10
 1096.8194607268
  20
 433.09549793632
  10
 1098.1394680511
  20
 431.77549824150
  10
 1107.4994686614
  20
 431.77549824150
  10
 1108.8194607268
  20
 433.09549793632
  10
 1108.8194607268
  20
 443.77549824150
   0
LINE
   5
1F0
 100
AcDbEntity
   8
LEVEL001
 370
25
 100
AcDbLine
   6
CONTINUOUS
  62
3
  10
 1098.1394680511
  20
 431.77549824150
  30
0.0
  11
 1098.1394680511
  21
 443.77549824150
  31
0.0
   0
LINE
   5
1F1
 100
AcDbEntity
   8
LEVEL001
 370
25
 100
AcDbLine
   6
CONTINUOUS
  62
3
  10
 1107.4994686614
  20
 431.77549824150
  30
0.0
  11
 1107.4994686614
  21
 443.77549824150
  31
0.0
   0
ENDBLK
   5
1F2
 100
AcDbEntity
   8
0
 100
AcDbBlockEnd
   0
BLOCK
   5
1F3
 100
AcDbEntity
   8
0
 100
AcDbBlockBegin
   2
BLOCK009
  70
64
  10
0.0
  20
0.0
  30
0.0
   3
BLOCK009
   0
LINE
   5
1F4
 100
AcDbEntity
   8
LEVEL001
 370
25
 100
AcDbLine
   6
CONTINUOUS
  62
3
  10
 1163.5694607268
  20
 518.77549824150
  30
0.0
  11
 1163.5694607268
  21
 515.77549824150
  31
0.0
   0
LINE
   5
1F5
 100
AcDbEntity
   8
LEVEL001
 370
25
 100
AcDbLine
   6
CONTINUOUS
  62
3
  10
 1141.8498104583
  20
 515.77549824150
  30
0.0
  11
 1163.7891262542
  21
 515.77549824150
  31
0.0
   0
LINE
   5
1F6
 100
AcDbEntity
   8
LEVEL001
 370
25
 100
AcDbLine
   6
CONTINUOUS
  62
3
  10
 1142.0694607268
  20
 515.77549824150
  30
0.0
  11
 1142.0694607268
  21
 518.77549824150
  31
0.0
   0
LINE
   5
1F7
 100
AcDbEntity
   8
LEVEL001
 370
25
 100
AcDbLine
   6
CONTINUOUS
  62
3
  10
 1151.0874050628
  20
 515.77549824150
  30
0.0
  11
 1152.8194607268
  21
 518.77549824150
  31
0.0
   0
LINE
   5
1F8
 100
AcDbEntity
   8
LEVEL001
 370
25
 100
AcDbLine
   6
CONTINUOUS
  62
3
  10
 1152.8194607268
  20
 515.77549824150
  30
0.0
  11
 1154.5515163909
  21
 518.77549824150
  31
0.0
   0
LINE
   5
1F9
 100
AcDbEntity
   8
LEVEL001
 370
25
 100
AcDbLine
   6
CONTINUOUS
  62
3
  10
 1147.3346432220
  20
 506.98920478132
  30
0.0
  11
 1147.3346432220
  21
 515.77549824150
  31
0.0
   0
LINE
   5
1FA
 100
AcDbEntity
   8
LEVEL001
 370
25
 100
AcDbLine
   6
CONTINUOUS
  62
3
  10
 1158.3042934905
  20
 506.98920478132
  30
0.0
  11
 1158.3042934905
  21
 515.77549824150
  31
0.0
   0
LINE
   5
1FB
 100
AcDbEntity
   8
LEVEL001
 370
25
 100
AcDbLine
   6
CONTINUOUS
  62
3
  10
 1141.8498104583
  20
 506.98920478132
  30
0.0
  11
 1141.8498104583
  21
 515.77549824150
  31
0.0
   0
LINE
   5
1FC
 100
AcDbEntity
   8
LEVEL001
 370
25
 100
AcDbLine
   6
CONTINUOUS
  62
3
  10
 1163.7891262542
  20
 515.77549824150
  30
0.0
  11
 1163.7891262542
  21
 506.98920478132
  31
0.0
   0
ARC
   5
1FD
 100
AcDbEntity
   8
LEVEL001
 370
25
   6
CONTINUOUS
  62
3
 100
AcDbCircle
  10
 1161.0467098724
  20
 509.48064890235
  30
0.0
  40
 3.7051506608504
 100
AcDbArc
  50
 222.25457128817
  51
 317.74532444163
   0
ARC
   5
1FE
 100
AcDbEntity
   8
LEVEL001
 370
25
   6
CONTINUOUS
  62
3
 100
AcDbCircle
  10
 1152.8194607268
  20
 518.77549824150
  30
0.0
  40
 12.999997561209
 100
AcDbArc
  50
 245.04482311550
  51
 294.95522901974
   0
ARC
   5
1FF
 100
AcDbEntity
   8
LEVEL001
 370
25
   6
CONTINUOUS
  62
3
 100
AcDbCircle
  10
 1144.5922268401
  20
 509.48064890235
  30
0.0
  40
 3.7051506608504
 100
AcDbArc
  50
 222.25467555837
  51
 317.74532444163
   0
LINE
   5
200
 100
AcDbEntity
   8
LEVEL001
 370
25
 100
AcDbLine
   6
CONTINUOUS
  62
3
  10
 1144.5922268401
  20
 505.77549824150
  30
0.0
  11
 1161.0467098724
  21
 505.77549824150
  31
0.0
   0
LINE
   5
201
 100
AcDbEntity
   8
LEVEL001
 370
25
 100
AcDbLine
   6
CONTINUOUS
  62
3
  10
 1144.5922268401
  20
 478.77549824150
  30
0.0
  11
 1161.0467098724
  21
 478.77549824150
  31
0.0
   0
LINE
   5
202
 100
AcDbEntity
   8
LEVEL001
 370
25
 100
AcDbLine
   6
CONTINUOUS
  62
3
  10
 1147.3346432220
  20
 477.56179170168
  30
0.0
  11
 1147.3346432220
  21
 468.77549824150
  31
0.0
   0
LINE
   5
203
 100
AcDbEntity
   8
LEVEL001
 370
25
 100
AcDbLine
   6
CONTINUOUS
  62
3
  10
 1158.3042934905
  20
 477.56179170168
  30
0.0
  11
 1158.3042934905
  21
 468.77549824150
  31
0.0
   0
LINE
   5
204
 100
AcDbEntity
   8
LEVEL001
 370
25
 100
AcDbLine
   6
CONTINUOUS
  62
3
  10
 1141.8498104583
  20
 477.56179170168
  30
0.0
  11
 1141.8498104583
  21
 468.77549824150
  31
0.0
   0
LINE
   5
205
 100
AcDbEntity
   8
LEVEL001
 370
25
 100
AcDbLine
   6
CONTINUOUS
  62
3
  10
 1163.7891262542
  20
 468.77549824150
  30
0.0
  11
 1163.7891262542
  21
 477.56179170168
  31
0.0
   0
ARC
   5
206
 100
AcDbEntity
   8
LEVEL001
 370
25
   6
CONTINUOUS
  62
3
 100
AcDbCircle
  10
 1144.5922268401
  20
 475.07034758065
  30
0.0
  40
 3.7051506608504
 100
AcDbArc
  50
 42.254675558368
  51
 137.74532444163
   0
ARC
   5
207
 100
AcDbEntity
   8
LEVEL001
 370
25
   6
CONTINUOUS
  62
3
 100
AcDbCircle
  10
 1152.8194607268
  20
 465.77549824150
  30
0.0
  40
 12.999997561209
 100
AcDbArc
  50
 65.044770980259
  51
 114.95517688450
   0
ARC
   5
208
 100
AcDbEntity
   8
LEVEL001
 370
25
   6
CONTINUOUS
  62
3
 100
AcDbCircle
  10
 1161.0467098724
  20
 475.07034758065
  30
0.0
  40
 3.7051506608504
 100
AcDbArc
  50
 42.254675558368
  51
 137.74542871183
   0
LINE
   5
209
 100
AcDbEntity
   8
LEVEL001
 370
25
 100
AcDbLine
   6
CONTINUOUS
  62
3
  10
 1146.8194607268
  20
 478.77549824150
  30
0.0
  11
 1146.8194607268
  21
 505.77549824150
  31
0.0
   0
LINE
   5
20A
 100
AcDbEntity
   8
LEVEL001
 370
25
 100
AcDbLine
   6
CONTINUOUS
  62
3
  10
 1148.1394680511
  20
 505.77549824150
  30
0.0
  11
 1148.1394680511
  21
 478.77549824150
  31
0.0
   0
LINE
   5
20B
 100
AcDbEntity
   8
LEVEL001
 370
25
 100
AcDbLine
   6
CONTINUOUS
  62
3
  10
 1157.4994686614
  20
 478.77549824150
  30
0.0
  11
 1157.4994686614
  21
 505.77549824150
  31
0.0
   0
LINE
   5
20C
 100
AcDbEntity
   8
LEVEL001
 370
25
 100
AcDbLine
   6
CONTINUOUS
  62
3
  10
 1158.8194607268
  20
 505.77549824150
  30
0.0
  11
 1158.8194607268
  21
 478.77549824150
  31
0.0
   0
LINE
   5
20D
 100
AcDbEntity
   8
LEVEL001
 370
25
 100
AcDbLine
   6
DASHDOT
  62
3
  10
 1152.8194607268
  20
 424.89924618673
  30
0.0
  11
 1152.8194607268
  21
 525.37257135379
  31
0.0
   0
LINE
   5
20E
 100
AcDbEntity
   8
LEVEL001
 370
25
 100
AcDbLine
   6
CONTINUOUS
  62
3
  10
 1163.5694607268
  20
 456.77549824150
  30
0.0
  11
 1163.5694607268
  21
 453.77549824150
  31
0.0
   0
LINE
   5
20F
 100
AcDbEntity
   8
LEVEL001
 370
25
 100
AcDbLine
   6
CONTINUOUS
  62
3
  10
 1141.8498104583
  20
 453.77549824150
  30
0.0
  11
 1163.7891262542
  21
 453.77549824150
  31
0.0
   0
LINE
   5
210
 100
AcDbEntity
   8
LEVEL001
 370
25
 100
AcDbLine
   6
CONTINUOUS
  62
3
  10
 1142.0694607268
  20
 453.77549824150
  30
0.0
  11
 1142.0694607268
  21
 456.77549824150
  31
0.0
   0
LINE
   5
211
 100
AcDbEntity
   8
LEVEL001
 370
25
 100
AcDbLine
   6
CONTINUOUS
  62
3
  10
 1151.0874050628
  20
 453.77549824150
  30
0.0
  11
 1152.8194607268
  21
 456.77549824150
  31
0.0
   0
LINE
   5
212
 100
AcDbEntity
   8
LEVEL001
 370
25
 100
AcDbLine
   6
CONTINUOUS
  62
3
  10
 1152.8194607268
  20
 453.77549824150
  30
0.0
  11
 1154.5515163909
  21
 456.77549824150
  31
0.0
   0
LINE
   5
213
 100
AcDbEntity
   8
LEVEL001
 370
25
 100
AcDbLine
   6
CONTINUOUS
  62
3
  10
 1144.5922268401
  20
 443.77549824150
  30
0.0
  11
 1161.0467098724
  21
 443.77549824150
  31
0.0
   0
LINE
   5
214
 100
AcDbEntity
   8
LEVEL001
 370
25
 100
AcDbLine
   6
CONTINUOUS
  62
3
  10
 1147.3346432220
  20
 444.98920478132
  30
0.0
  11
 1147.3346432220
  21
 453.77549824150
  31
0.0
   0
LINE
   5
215
 100
AcDbEntity
   8
LEVEL001
 370
25
 100
AcDbLine
   6
CONTINUOUS
  62
3
  10
 1158.3042934905
  20
 444.98920478132
  30
0.0
  11
 1158.3042934905
  21
 453.77549824150
  31
0.0
   0
LINE
   5
216
 100
AcDbEntity
   8
LEVEL001
 370
25
 100
AcDbLine
   6
CONTINUOUS
  62
3
  10
 1141.8498104583
  20
 444.98920478132
  30
0.0
  11
 1141.8498104583
  21
 453.77549824150
  31
0.0
   0
LINE
   5
217
 100
AcDbEntity
   8
LEVEL001
 370
25
 100
AcDbLine
   6
CONTINUOUS
  62
3
  10
 1163.7891262542
  20
 453.77549824150
  30
0.0
  11
 1163.7891262542
  21
 444.98920478132
  31
0.0
   0
ARC
   5
218
 100
AcDbEntity
   8
LEVEL001
 370
25
   6
CONTINUOUS
  62
3
 100
AcDbCircle
  10
 1144.5922268401
  20
 447.48064890235
  30
0.0
  40
 3.7051506608504
 100
AcDbArc
  50
 222.25467555837
  51
 317.74532444163
   0
ARC
   5
219
 100
AcDbEntity
   8
LEVEL001
 370
25
   6
CONTINUOUS
  62
3
 100
AcDbCircle
  10
 1152.8194607268
  20
 456.77549824150
  30
0.0
  40
 12.999997561209
 100
AcDbArc
  50
 245.04482311550
  51
 294.95522901974
   0
ARC
   5
21A
 100
AcDbEntity
   8
LEVEL001
 370
25
   6
CONTINUOUS
  62
3
 100
AcDbCircle
  10
 1161.0467098724
  20
 447.48064890235
  30
0.0
  40
 3.7051506608504
 100
AcDbArc
  50
 222.25457128817
  51
 317.74532444163
   0
LINE
   5
21B
 100
AcDbEntity
   8
LEVEL001
 370
25
 100
AcDbLine
   6
CONTINUOUS
  62
3
  10
 1146.8194607268
  20
 433.09549793632
  30
0.0
  11
 1158.8194607268
  21
 433.09549793632
  31
0.0
   0
LWPOLYLINE
   5
21C
 100
AcDbEntity
   8
LEVEL001
 370
25
   6
CONTINUOUS
  62
3
 100
AcDbPolyline
  90
6
  70
0
  10
 1146.8194607268
  20
 443.77549824150
  10
 1146.8194607268
  20
 433.09549793632
  10
 1148.1394680511
  20
 431.77549824150
  10
 1157.4994686614
  20
 431.77549824150
  10
 1158.8194607268
  20
 433.09549793632
  10
 1158.8194607268
  20
 443.77549824150
   0
LINE
   5
21D
 100
AcDbEntity
   8
LEVEL001
 370
25
 100
AcDbLine
   6
CONTINUOUS
  62
3
  10
 1148.1394680511
  20
 431.77549824150
  30
0.0
  11
 1148.1394680511
  21
 443.77549824150
  31
0.0
   0
LINE
   5
21E
 100
AcDbEntity
   8
LEVEL001
 370
25
 100
AcDbLine
   6
CONTINUOUS
  62
3
  10
 1157.4994686614
  20
 431.77549824150
  30
0.0
  11
 1157.4994686614
  21
 443.77549824150
  31
0.0
   0
ENDBLK
   5
21F
 100
AcDbEntity
   8
0
 100
AcDbBlockEnd
   0
BLOCK
   5
220
 100
AcDbEntity
   8
0
 100
AcDbBlockBegin
   2
BLOCK010
  70
64
  10
0.0
  20
0.0
  30
0.0
   3
BLOCK010
   0
ARC
   5
221
 100
AcDbEntity
   8
LEVEL001
 370
25
   6
CONTINUOUS
  62
3
 100
AcDbCircle
  10
 596.55526223717
  20
 350.57549819388
  30
0.0
  40
 1.2000000476837
 100
AcDbArc
  50
0.0
  51
 90.000580568998
   0
LINE
   5
222
 100
AcDbEntity
   8
LEVEL001
 370
25
 100
AcDbLine
   6
CONTINUOUS
  62
3
  10
 596.55525007776
  20
 351.77549824150
  30
0.0
  11
 580.95527449183
  21
 351.77549824150
  31
0.0
   0
ARC
   5
223
 100
AcDbEntity
   8
LEVEL001
 370
25
   6
CONTINUOUS
  62
3
 100
AcDbCircle
  10
 580.95526233242
  20
 350.57549819388
  30
0.0
  40
 1.2000000476837
 100
AcDbArc
  50
 89.999419431002
  51
 180.00058056900
   0
LINE
   5
224
 100
AcDbEntity
   8
LEVEL001
 370
25
 100
AcDbLine
   6
CONTINUOUS
  62
3
  10
 579.75526228479
  20
 350.57548603447
  30
0.0
  11
 579.75526228479
  21
 339.77549824150
  31
0.0
   0
LINE
   5
225
 100
AcDbEntity
   8
LEVEL001
 370
25
 100
AcDbLine
   6
CONTINUOUS
  62
3
  10
 597.75526228479
  20
 339.77549824150
  30
0.0
  11
 597.75526228479
  21
 350.57548603447
  31
0.0
   0
LWPOLYLINE
   5
226
 100
AcDbEntity
   8
LEVEL001
 370
25
   6
CONTINUOUS
  62
3
 100
AcDbPolyline
  90
4
  70
0
  10
 599.50526228479
  20
 336.77549824150
  10
 599.50526228479
  20
 339.77549824150
  10
 578.00526228479
  20
 339.77549824150
  10
 578.00526228479
  20
 336.77549824150
   0
LINE
   5
227
 100
AcDbEntity
   8
LEVEL001
 370
25
 100
AcDbLine
   6
CONTINUOUS
  62
3
  10
 587.02320662073
  20
 339.77549824150
  30
0.0
  11
 588.75526228479
  21
 336.77549824150
  31
0.0
   0
LINE
   5
228
 100
AcDbEntity
   8
LEVEL001
 370
25
 100
AcDbLine
   6
CONTINUOUS
  62
3
  10
 588.75526228479
  20
 339.77549824150
  30
0.0
  11
 590.48731794886
  21
 336.77549824150
  31
0.0
   0
LINE
   5
229
 100
AcDbEntity
   8
LEVEL001
 370
25
 100
AcDbLine
   6
DASHDOT
  62
3
  10
 588.75526228479
  20
 358.39630868971
  30
0.0
  11
 588.75526228479
  21
 308.94870153386
  31
0.0
   0
ENDBLK
   5
22A
 100
AcDbEntity
   8
0
 100
AcDbBlockEnd
   0
BLOCK
   5
22B
 100
AcDbEntity
   8
0
 100
AcDbBlockBegin
   2
BLOCK011
  70
64
  10
0.0
  20
0.0
  30
0.0
   3
BLOCK011
   0
ARC
   5
22C
 100
AcDbEntity
   8
LEVEL001
 370
25
   6
CONTINUOUS
  62
3
 100
AcDbCircle
  10
 708.55526223717
  20
 350.57549819388
  30
0.0
  40
 1.2000000476837
 100
AcDbArc
  50
0.0
  51
 90.000580568998
   0
LINE
   5
22D
 100
AcDbEntity
   8
LEVEL001
 370
25
 100
AcDbLine
   6
CONTINUOUS
  62
3
  10
 708.55525007776
  20
 351.77549824150
  30
0.0
  11
 692.95527449183
  21
 351.77549824150
  31
0.0
   0
ARC
   5
22E
 100
AcDbEntity
   8
LEVEL001
 370
25
   6
CONTINUOUS
  62
3
 100
AcDbCircle
  10
 692.95526233242
  20
 350.57549819388
  30
0.0
  40
 1.2000000476837
 100
AcDbArc
  50
 89.999419431002
  51
 180.00058056900
   0
LINE
   5
22F
 100
AcDbEntity
   8
LEVEL001
 370
25
 100
AcDbLine
   6
CONTINUOUS
  62
3
  10
 691.75526228479
  20
 350.57548603447
  30
0.0
  11
 691.75526228479
  21
 339.77549824150
  31
0.0
   0
LINE
   5
230
 100
AcDbEntity
   8
LEVEL001
 370
25
 100
AcDbLine
   6
CONTINUOUS
  62
3
  10
 709.75526228479
  20
 339.77549824150
  30
0.0
  11
 709.75526228479
  21
 350.57548603447
  31
0.0
   0
LWPOLYLINE
   5
231
 100
AcDbEntity
   8
LEVEL001
 370
25
   6
CONTINUOUS
  62
3
 100
AcDbPolyline
  90
4
  70
0
  10
 711.50526228479
  20
 336.77549824150
  10
 711.50526228479
  20
 339.77549824150
  10
 690.00526228479
  20
 339.77549824150
  10
 690.00526228479
  20
 336.77549824150
   0
LINE
   5
232
 100
AcDbEntity
   8
LEVEL001
 370
25
 100
AcDbLine
   6
CONTINUOUS
  62
3
  10
 699.02320662073
  20
 339.77549824150
  30
0.0
  11
 700.75526228479
  21
 336.77549824150
  31
0.0
   0
LINE
   5
233
 100
AcDbEntity
   8
LEVEL001
 370
25
 100
AcDbLine
   6
CONTINUOUS
  62
3
  10
 700.75526228479
  20
 339.77549824150
  30
0.0
  11
 702.48731794886
  21
 336.77549824150
  31
0.0
   0
LINE
   5
234
 100
AcDbEntity
   8
LEVEL001
 370
25
 100
AcDbLine
   6
DASHDOT
  62
3
  10
 700.75526228479
  20
 358.39630868971
  30
0.0
  11
 700.75526228479
  21
 308.94870153386
  31
0.0
   0
ENDBLK
   5
235
 100
AcDbEntity
   8
0
 100
AcDbBlockEnd
   0
BLOCK
   5
236
 100
AcDbEntity
   8
0
 100
AcDbBlockBegin
   2
BLOCK012
  70
64
  10
0.0
  20
0.0
  30
0.0
   3
BLOCK012
   0
ARC
   5
237
 100
AcDbEntity
   8
LEVEL001
 370
25
   6
CONTINUOUS
  62
3
 100
AcDbCircle
  10
 1110.6194606792
  20
 350.57549819388
  30
0.0
  40
 1.2000000476837
 100
AcDbArc
  50
0.0
  51
 90.000580568998
   0
LINE
   5
238
 100
AcDbEntity
   8
LEVEL001
 370
25
 100
AcDbLine
   6
CONTINUOUS
  62
3
  10
 1110.6194485198
  20
 351.77549824150
  30
0.0
  11
 1095.0194729339
  21
 351.77549824150
  31
0.0
   0
ARC
   5
239
 100
AcDbEntity
   8
LEVEL001
 370
25
   6
CONTINUOUS
  62
3
 100
AcDbCircle
  10
 1095.0194607745
  20
 350.57549819388
  30
0.0
  40
 1.2000000476837
 100
AcDbArc
  50
 89.999419431002
  51
 180.00058056900
   0
LINE
   5
23A
 100
AcDbEntity
   8
LEVEL001
 370
25
 100
AcDbLine
   6
CONTINUOUS
  62
3
  10
 1093.8194607268
  20
 350.57548603447
  30
0.0
  11
 1093.8194607268
  21
 339.77549824150
  31
0.0
   0
LINE
   5
23B
 100
AcDbEntity
   8
LEVEL001
 370
25
 100
AcDbLine
   6
CONTINUOUS
  62
3
  10
 1111.8194607268
  20
 339.77549824150
  30
0.0
  11
 1111.8194607268
  21
 350.57548603447
  31
0.0
   0
LWPOLYLINE
   5
23C
 100
AcDbEntity
   8
LEVEL001
 370
25
   6
CONTINUOUS
  62
3
 100
AcDbPolyline
  90
4
  70
0
  10
 1113.5694607268
  20
 336.77549824150
  10
 1113.5694607268
  20
 339.77549824150
  10
 1092.0694607268
  20
 339.77549824150
  10
 1092.0694607268
  20
 336.77549824150
   0
LINE
   5
23D
 100
AcDbEntity
   8
LEVEL001
 370
25
 100
AcDbLine
   6
CONTINUOUS
  62
3
  10
 1101.0874050628
  20
 339.77549824150
  30
0.0
  11
 1102.8194607268
  21
 336.77549824150
  31
0.0
   0
LINE
   5
23E
 100
AcDbEntity
   8
LEVEL001
 370
25
 100
AcDbLine
   6
CONTINUOUS
  62
3
  10
 1102.8194607268
  20
 339.77549824150
  30
0.0
  11
 1104.5515163909
  21
 336.77549824150
  31
0.0
   0
LINE
   5
23F
 100
AcDbEntity
   8
LEVEL001
 370
25
 100
AcDbLine
   6
DASHDOT
  62
3
  10
 1102.8194607268
  20
 358.39630868971
  30
0.0
  11
 1102.8194607268
  21
 308.94870153386
  31
0.0
   0
ENDBLK
   5
240
 100
AcDbEntity
   8
0
 100
AcDbBlockEnd
   0
BLOCK
   5
241
 100
AcDbEntity
   8
0
 100
AcDbBlockBegin
   2
BLOCK013
  70
64
  10
0.0
  20
0.0
  30
0.0
   3
BLOCK013
   0
ARC
   5
242
 100
AcDbEntity
   8
LEVEL001
 370
25
   6
CONTINUOUS
  62
3
 100
AcDbCircle
  10
 1160.6194606792
  20
 350.57549819388
  30
0.0
  40
 1.2000000476837
 100
AcDbArc
  50
0.0
  51
 90.000580568998
   0
LINE
   5
243
 100
AcDbEntity
   8
LEVEL001
 370
25
 100
AcDbLine
   6
CONTINUOUS
  62
3
  10
 1160.6194485198
  20
 351.77549824150
  30
0.0
  11
 1145.0194729339
  21
 351.77549824150
  31
0.0
   0
ARC
   5
244
 100
AcDbEntity
   8
LEVEL001
 370
25
   6
CONTINUOUS
  62
3
 100
AcDbCircle
  10
 1145.0194607745
  20
 350.57549819388
  30
0.0
  40
 1.2000000476837
 100
AcDbArc
  50
 89.999419431002
  51
 180.00058056900
   0
LINE
   5
245
 100
AcDbEntity
   8
LEVEL001
 370
25
 100
AcDbLine
   6
CONTINUOUS
  62
3
  10
 1143.8194607268
  20
 350.57548603447
  30
0.0
  11
 1143.8194607268
  21
 339.77549824150
  31
0.0
   0
LINE
   5
246
 100
AcDbEntity
   8
LEVEL001
 370
25
 100
AcDbLine
   6
CONTINUOUS
  62
3
  10
 1161.8194607268
  20
 339.77549824150
  30
0.0
  11
 1161.8194607268
  21
 350.57548603447
  31
0.0
   0
LWPOLYLINE
   5
247
 100
AcDbEntity
   8
LEVEL001
 370
25
   6
CONTINUOUS
  62
3
 100
AcDbPolyline
  90
4
  70
0
  10
 1163.5694607268
  20
 336.77549824150
  10
 1163.5694607268
  20
 339.77549824150
  10
 1142.0694607268
  20
 339.77549824150
  10
 1142.0694607268
  20
 336.77549824150
   0
LINE
   5
248
 100
AcDbEntity
   8
LEVEL001
 370
25
 100
AcDbLine
   6
CONTINUOUS
  62
3
  10
 1151.0874050628
  20
 339.77549824150
  30
0.0
  11
 1152.8194607268
  21
 336.77549824150
  31
0.0
   0
LINE
   5
249
 100
AcDbEntity
   8
LEVEL001
 370
25
 100
AcDbLine
   6
CONTINUOUS
  62
3
  10
 1152.8194607268
  20
 339.77549824150
  30
0.0
  11
 1154.5515163909
  21
 336.77549824150
  31
0.0
   0
LINE
   5
24A
 100
AcDbEntity
   8
LEVEL001
 370
25
 100
AcDbLine
   6
DASHDOT
  62
3
  10
 1152.8194607268
  20
 358.39630868971
  30
0.0
  11
 1152.8194607268
  21
 308.94870153386
  31
0.0
   0
ENDBLK
   5
24B
 100
AcDbEntity
   8
0
 100
AcDbBlockEnd
   0
BLOCK
   5
24C
 100
AcDbEntity
   8
0
 100
AcDbBlockBegin
   2
BLOCK014
  70
64
  10
0.0
  20
0.0
  30
0.0
   3
BLOCK014
   0
LWPOLYLINE
   5
24D
 100
AcDbEntity
   8
LEVEL001
 370
40
   6
CONTINUOUS
  62
7
 100
AcDbPolyline
  90
4
  70
1
  10
 158.75526228479
  20
 349.77549824150
  10
 598.75526228479
  20
 349.77549824150
  10
 598.75526228479
  20
 419.77549824150
  10
 158.75526228479
  20
 419.77549824150
   0
LINE
   5
24E
 100
AcDbEntity
   8
LEVEL001
 370
25
 100
AcDbLine
   6
DASHDOT
  62
3
  10
 558.75526228479
  20
 356.99557133560
  30
0.0
  11
 558.75526228479
  21
 317.48981143477
  31
0.0
   0
LWPOLYLINE
   5
24F
 100
AcDbEntity
   8
LEVEL001
 370
40
   6
CONTINUOUS
  62
7
 100
AcDbPolyline
  90
4
  70
0
  10
 533.75526228479
  20
 349.77549824150
  10
 533.75526228479
  20
 324.77549824150
  10
 583.75526228479
  20
 324.77549824150
  10
 583.75526228479
  20
 349.77549824150
   0
LINE
   5
250
 100
AcDbEntity
   8
LEVEL001
 370
25
 100
AcDbLine
   6
DASHDOT
  62
3
  10
 198.75526228479
  20
 356.99557133560
  30
0.0
  11
 198.75526228479
  21
 317.48981143477
  31
0.0
   0
LWPOLYLINE
   5
251
 100
AcDbEntity
   8
LEVEL001
 370
40
   6
CONTINUOUS
  62
7
 100
AcDbPolyline
  90
4
  70
0
  10
 223.75526228479
  20
 349.77549824150
  10
 223.75526228479
  20
 324.77549824150
  10
 173.75526228479
  20
 324.77549824150
  10
 173.75526228479
  20
 349.77549824150
   0
LWPOLYLINE
   5
252
 100
AcDbEntity
   8
LEVEL001
 370
40
   6
CONTINUOUS
  62
7
 100
AcDbPolyline
  90
4
  70
0
  10
 198.75526228479
  20
 419.77549824150
  10
 198.75526228479
  20
 601.77549824150
  10
 558.75526228479
  20
 601.77549824150
  10
 558.75526228479
  20
 419.77549824150
   0
LWPOLYLINE
   5
253
 100
AcDbEntity
   8
LEVEL001
 370
40
   6
CONTINUOUS
  62
7
 100
AcDbPolyline
  90
4
  70
0
  10
 229.75526228479
  20
 601.77549824150
  10
 229.75526228479
  20
 607.77549824150
  10
 527.75526228479
  20
 607.77549824150
  10
 527.75526228479
  20
 601.77549824150
   0
ENDBLK
   5
254
 100
AcDbEntity
   8
0
 100
AcDbBlockEnd
   0
BLOCK
   5
255
 100
AcDbEntity
   8
0
 100
AcDbBlockBegin
   2
BLOCK015
  70
64
  10
0.0
  20
0.0
  30
0.0
   3
BLOCK015
   0
LWPOLYLINE
   5
256
 100
AcDbEntity
   8
LEVEL001
 370
40
   6
CONTINUOUS
  62
7
 100
AcDbPolyline
  90
4
  70
0
  10
 229.75526228479
  20
 616.77549824150
  10
 229.75526228479
  20
 607.77549824150
  10
 527.75526228479
  20
 607.77549824150
  10
 527.75526228479
  20
 616.77549824150
   0
LINE
   5
257
 100
AcDbEntity
   8
LEVEL001
 370
40
 100
AcDbLine
   6
CONTINUOUS
  62
7
  10
 298.11196736367
  20
 716.77549824150
  30
0.0
  11
 298.11196736367
  21
 661.42682394521
  31
0.0
   0
LWPOLYLINE
   5
258
 100
AcDbEntity
   8
LEVEL001
 370
40
   6
CONTINUOUS
  62
7
 100
AcDbPolyline
  90
6
  70
0
  10
 178.75526228479
  20
 636.77549824150
  10
 178.75526228479
  20
 616.77549824150
  10
 578.75526228479
  20
 616.77549824150
  10
 578.75526228479
  20
 756.77549824150
  10
 178.75526228479
  20
 756.77549824150
  10
 178.75526228479
  20
 716.77549824150
   0
LINE
   5
259
 100
AcDbEntity
   8
LEVEL001
 370
40
 100
AcDbLine
   6
CONTINUOUS
  62
7
  10
 378.75526228479
  20
 716.77549824150
  30
0.0
  11
 378.75526228479
  21
 699.77549824150
  31
0.0
   0
LWPOLYLINE
   5
25A
 100
AcDbEntity
   8
LEVEL001
 370
40
   6
CONTINUOUS
  62
7
 100
AcDbPolyline
  90
3
  70
0
  10
 378.75526228479
  20
 716.77549824150
  10
 357.46900985050
  20
 716.77549824150
  10
 357.46900985050
  20
 699.77549824150
   0
LINE
   5
25B
 100
AcDbEntity
   8
LEVEL001
 370
40
 100
AcDbLine
   6
CONTINUOUS
  62
7
  10
 378.75526228479
  20
 679.77549824150
  30
0.0
  11
 378.75526228479
  21
 636.77549824150
  31
0.0
   0
LWPOLYLINE
   5
25C
 100
AcDbEntity
   8
LEVEL001
 370
40
   6
CONTINUOUS
  62
7
 100
AcDbPolyline
  90
10
  70
0
  10
 357.46900985050
  20
 679.77549824150
  10
 357.46900985050
  20
 675.00621462234
  10
 329.04054343129
  20
 675.00621462234
  10
 329.04054343129
  20
 716.77549824150
  10
 86.755262284794
  20
 716.77549824150
  10
 86.755262284794
  20
 661.42682394521
  10
 178.75526228496
  20
 636.77549824150
  10
 378.75526228479
  20
 636.77549824150
  10
 298.11196736367
  20
 661.42682394521
  10
 86.755262284794
  20
 661.42682394521
   0
LWPOLYLINE
   5
25D
 100
AcDbEntity
   8
LEVEL001
 370
40
   6
CONTINUOUS
  62
7
 100
AcDbPolyline
  90
4
  70
0
  10
 329.04054343129
  20
 699.77549824150
  10
 452.75526228479
  20
 699.77549824150
  10
 452.75526228479
  20
 679.77549824150
  10
 329.04054343129
  20
 679.77549824150
   0
ENDBLK
   5
25E
 100
AcDbEntity
   8
0
 100
AcDbBlockEnd
   0
BLOCK
   5
25F
 100
AcDbEntity
   8
0
 100
AcDbBlockBegin
   2
*D1
  70
65
  10
0.0
  20
0.0
  30
0.0
   3
*D1
   0
LINE
   5
260
 100
AcDbEntity
   8
LEVEL001
 370
25
 100
AcDbLine
   6
CONTINUOUS
  62
3
  10
 128.75526228479
  20
 308.77549824150
  30
0.0
  11
 20.189183637179
  21
 308.77549824150
  31
0.0
   0
LINE
   5
261
 100
AcDbEntity
   8
LEVEL001
 370
25
 100
AcDbLine
   6
CONTINUOUS
  62
3
  10
 170.75526228479
  20
 756.77549824150
  30
0.0
  11
 20.189183637179
  21
 756.77549824150
  31
0.0
   0
LINE
   5
262
 100
AcDbEntity
   8
LEVEL001
 370
25
 100
AcDbLine
   6
CONTINUOUS
  62
3
  10
 32.189183637179
  20
 308.77549824150
  30
0.0
  11
 32.189183637179
  21
 532.77549824150
  31
0.0
   0
LINE
   5
263
 100
AcDbEntity
   8
LEVEL001
 370
25
 100
AcDbLine
   6
CONTINUOUS
  62
3
  10
 32.189183637179
  20
 756.77549824150
  30
0.0
  11
 32.189183637179
  21
 532.77549824150
  31
0.0
   0
INSERT
   5
264
 100
AcDbEntity
   8
LEVEL001
   6
CONTINUOUS
  62
3
 100
AcDbBlockReference
   2
_OPEN30
  10
 32.189183637179
  20
 308.77549824150
  30
0.0
  41
 16.000000000000
  42
 16.000000000000
  43
 16.000000000000
  50
 270.00000000000
   0
INSERT
   5
265
 100
AcDbEntity
   8
LEVEL001
   6
CONTINUOUS
  62
3
 100
AcDbBlockReference
   2
_OPEN30
  10
 32.189183637179
  20
 756.77549824150
  30
0.0
  41
 16.000000000000
  42
 16.000000000000
  43
 16.000000000000
  50
 90.000000000000
   0
MTEXT
   5
266
 100
AcDbEntity
   8
LEVEL001
 370
40
  62
7
 100
AcDbMText
  10
 23.617755065751
  20
 532.77549824150
  30
0.0
  40
 20.000000000000
  41
0.0
  71
8
  72
1
   1
\A1;（４４８）
   7
GMM003
  11
0.0
  21
 1.0000000000000
  31
0.0
   0
ENDBLK
   5
267
 100
AcDbEntity
   8
0
 100
AcDbBlockEnd
   0
BLOCK
   5
268
 100
AcDbEntity
   8
0
 100
AcDbBlockBegin
   2
*D2
  70
65
  10
0.0
  20
0.0
  30
0.0
   3
*D2
   0
LINE
   5
269
 100
AcDbEntity
   8
LEVEL001
 370
25
 100
AcDbLine
   6
CONTINUOUS
  62
3
  10
 378.75526228479
  20
 794.39933485707
  30
0.0
  11
 378.75526228479
  21
 830.05568581477
  31
0.0
   0
LINE
   5
26A
 100
AcDbEntity
   8
LEVEL001
 370
25
 100
AcDbLine
   6
CONTINUOUS
  62
3
  10
 378.75526228479
  20
 818.05568581477
  30
0.0
  11
 418.75526228479
  21
 818.05568581477
  31
0.0
   0
LINE
   5
26B
 100
AcDbEntity
   8
LEVEL001
 370
25
 100
AcDbLine
   6
CONTINUOUS
  62
3
  10
 458.75526228479
  20
 818.05568581477
  30
0.0
  11
 418.75526228479
  21
 818.05568581477
  31
0.0
   0
INSERT
   5
26C
 100
AcDbEntity
   8
LEVEL001
   6
CONTINUOUS
  62
3
 100
AcDbBlockReference
   2
_OPEN30
  10
 378.75526228479
  20
 818.05568581477
  30
0.0
  41
 16.000000000000
  42
 16.000000000000
  43
 16.000000000000
  50
 180.00000000000
   0
INSERT
   5
26D
 100
AcDbEntity
   8
LEVEL001
   6
CONTINUOUS
  62
3
 100
AcDbBlockReference
   2
_OPEN30
  10
 458.75526228479
  20
 818.05568581477
  30
0.0
  41
 16.000000000000
  42
 16.000000000000
  43
 16.000000000000
  50
0.0
   0
MTEXT
   5
26E
 100
AcDbEntity
   8
LEVEL001
 370
40
  62
7
 100
AcDbMText
  10
 418.75526228479
  20
 826.62711438620
  30
0.0
  40
 20.000000000000
  41
0.0
  71
8
  72
1
   1
\A1;８０
   7
GMM003
   0
ENDBLK
   5
26F
 100
AcDbEntity
   8
0
 100
AcDbBlockEnd
   0
BLOCK
   5
270
 100
AcDbEntity
   8
0
 100
AcDbBlockBegin
   2
*D3
  70
65
  10
0.0
  20
0.0
  30
0.0
   3
*D3
   0
LINE
   5
271
 100
AcDbEntity
   8
LEVEL001
 370
25
 100
AcDbLine
   6
CONTINUOUS
  62
3
  10
 458.75526228479
  20
 707.77549824150
  30
0.0
  11
 458.75526228479
  21
 830.05568581477
  31
0.0
   0
LINE
   5
272
 100
AcDbEntity
   8
LEVEL001
 370
25
 100
AcDbLine
   6
CONTINUOUS
  62
3
  10
 978.75526228479
  20
 707.77549824150
  30
0.0
  11
 978.75526228479
  21
 830.05568581477
  31
0.0
   0
LINE
   5
273
 100
AcDbEntity
   8
LEVEL001
 370
25
 100
AcDbLine
   6
CONTINUOUS
  62
3
  10
 458.75526228479
  20
 818.05568581477
  30
0.0
  11
 718.75526228479
  21
 818.05568581477
  31
0.0
   0
LINE
   5
274
 100
AcDbEntity
   8
LEVEL001
 370
25
 100
AcDbLine
   6
CONTINUOUS
  62
3
  10
 978.75526228479
  20
 818.05568581477
  30
0.0
  11
 718.75526228479
  21
 818.05568581477
  31
0.0
   0
INSERT
   5
275
 100
AcDbEntity
   8
LEVEL001
   6
CONTINUOUS
  62
3
 100
AcDbBlockReference
   2
_OPEN30
  10
 458.75526228479
  20
 818.05568581477
  30
0.0
  41
 16.000000000000
  42
 16.000000000000
  43
 16.000000000000
  50
 180.00000000000
   0
INSERT
   5
276
 100
AcDbEntity
   8
LEVEL001
   6
CONTINUOUS
  62
3
 100
AcDbBlockReference
   2
_OPEN30
  10
 978.75526228479
  20
 818.05568581477
  30
0.0
  41
 16.000000000000
  42
 16.000000000000
  43
 16.000000000000
  50
0.0
   0
MTEXT
   5
277
 100
AcDbEntity
   8
LEVEL001
 370
40
  62
7
 100
AcDbMText
  10
 718.75526228479
  20
 826.62711438620
  30
0.0
  40
 20.000000000000
  41
0.0
  71
8
  72
1
   1
\A1;５２０
   7
GMM003
   0
ENDBLK
   5
278
 100
AcDbEntity
   8
0
 100
AcDbBlockEnd
   0
BLOCK
   5
279
 100
AcDbEntity
   8
0
 100
AcDbBlockBegin
   2
*D4
  70
65
  10
0.0
  20
0.0
  30
0.0
   3
*D4
   0
LINE
   5
27A
 100
AcDbEntity
   8
LEVEL001
 370
25
 100
AcDbLine
   6
CONTINUOUS
  62
3
  10
 766.75526228479
  20
 324.77549824150
  30
0.0
  11
 841.08433847091
  21
 324.77549824150
  31
0.0
   0
LINE
   5
27B
 100
AcDbEntity
   8
LEVEL001
 370
25
 100
AcDbLine
   6
CONTINUOUS
  62
3
  10
 829.08433847091
  20
 288.77549824150
  30
0.0
  11
 829.08433847091
  21
 316.77549824150
  31
0.0
   0
LINE
   5
27C
 100
AcDbEntity
   8
LEVEL001
 370
25
 100
AcDbLine
   6
CONTINUOUS
  62
3
  10
 829.08433847091
  20
 404.32582100352
  30
0.0
  11
 829.08433847091
  21
 316.77549824150
  31
0.0
   0
INSERT
   5
27D
 100
AcDbEntity
   8
LEVEL001
   6
CONTINUOUS
  62
3
 100
AcDbBlockReference
   2
_OPEN30
  10
 829.08433847091
  20
 308.77549824150
  30
0.0
  41
 16.000000000000
  42
 16.000000000000
  43
 16.000000000000
  50
 90.000000000000
   0
INSERT
   5
27E
 100
AcDbEntity
   8
LEVEL001
   6
CONTINUOUS
  62
3
 100
AcDbBlockReference
   2
_OPEN30
  10
 829.08433847091
  20
 324.77549824150
  30
0.0
  41
 16.000000000000
  42
 16.000000000000
  43
 16.000000000000
  50
 270.00000000000
   0
MTEXT
   5
27F
 100
AcDbEntity
   8
LEVEL001
 370
40
  62
7
 100
AcDbMText
  10
 819.41164810977
  20
 348.32582100352
  30
0.0
  40
 20.000000000000
  41
0.0
  71
7
  72
1
   1
\A1;１６
   7
GMM003
  11
0.0
  21
 1.0000000000000
  31
0.0
   0
ENDBLK
   5
280
 100
AcDbEntity
   8
0
 100
AcDbBlockEnd
   0
BLOCK
   5
281
 100
AcDbEntity
   8
0
 100
AcDbBlockBegin
   2
*D5
  70
65
  10
0.0
  20
0.0
  30
0.0
   3
*D5
   0
LINE
   5
282
 100
AcDbEntity
   8
LEVEL001
 370
25
 100
AcDbLine
   6
CONTINUOUS
  62
3
  10
 766.75526228479
  20
 308.77549824150
  30
0.0
  11
 888.43721068662
  21
 308.77549824150
  31
0.0
   0
LINE
   5
283
 100
AcDbEntity
   8
LEVEL001
 370
25
 100
AcDbLine
   6
CONTINUOUS
  62
3
  10
 876.43721068662
  20
 308.77549824150
  30
0.0
  11
 876.43721068662
  21
 504.27549824150
  31
0.0
   0
LINE
   5
284
 100
AcDbEntity
   8
LEVEL001
 370
25
 100
AcDbLine
   6
CONTINUOUS
  62
3
  10
 876.43721068662
  20
 699.77549824150
  30
0.0
  11
 876.43721068662
  21
 504.27549824150
  31
0.0
   0
INSERT
   5
285
 100
AcDbEntity
   8
LEVEL001
   6
CONTINUOUS
  62
3
 100
AcDbBlockReference
   2
_OPEN30
  10
 876.43721068662
  20
 308.77549824150
  30
0.0
  41
 16.000000000000
  42
 16.000000000000
  43
 16.000000000000
  50
 270.00000000000
   0
INSERT
   5
286
 100
AcDbEntity
   8
LEVEL001
   6
CONTINUOUS
  62
3
 100
AcDbBlockReference
   2
_OPEN30
  10
 876.43721068662
  20
 699.77549824150
  30
0.0
  41
 16.000000000000
  42
 16.000000000000
  43
 16.000000000000
  50
 90.000000000000
   0
MTEXT
   5
287
 100
AcDbEntity
   8
LEVEL001
 370
40
  62
7
 100
AcDbMText
  10
 867.86578211519
  20
 504.27549824150
  30
0.0
  40
 20.000000000000
  41
0.0
  71
8
  72
1
   1
\A1;３９１
   7
GMM003
  11
0.0
  21
 1.0000000000000
  31
0.0
   0
ENDBLK
   5
288
 100
AcDbEntity
   8
0
 100
AcDbBlockEnd
   0
BLOCK
   5
289
 100
AcDbEntity
   8
0
 100
AcDbBlockBegin
   2
BLOCK016
  70
64
  10
0.0
  20
0.0
  30
0.0
   3
BLOCK016
   0
LINE
   5
28A
 100
AcDbEntity
   8
LEVEL001
 370
40
 100
AcDbLine
   6
CONTINUOUS
  62
7
  10
 768.75526228479
  20
 1424.5878884462
  30
0.0
  11
 787.75526228479
  21
 1424.5878884462
  31
0.0
   0
LWPOLYLINE
   5
28B
 100
AcDbEntity
   8
LEVEL001
 370
40
   6
CONTINUOUS
  62
7
 100
AcDbPolyline
  90
4
  70
0
  10
 768.75526228479
  20
 1438.5878884462
  10
 768.75526228479
  20
 1421.0878884462
  10
 538.75526228479
  20
 1421.0878884462
  10
 538.75526228479
  20
 1438.5878884462
   0
LWPOLYLINE
   5
28C
 100
AcDbEntity
   8
LEVEL001
 370
40
   6
CONTINUOUS
  62
7
 100
AcDbPolyline
  90
3
  70
0
  10
 768.75526228479
  20
 1421.0878884462
  10
 787.75526228479
  20
 1421.0878884462
  10
 787.75526228479
  20
 1438.5878884462
   0
LINE
   5
28D
 100
AcDbEntity
   8
LEVEL001
 370
40
 100
AcDbLine
   6
CONTINUOUS
  62
7
  10
 768.75526228479
  20
 1484.5878884462
  30
0.0
  11
 787.75526228479
  21
 1484.5878884462
  31
0.0
   0
LWPOLYLINE
   5
28E
 100
AcDbEntity
   8
LEVEL001
 370
40
   6
CONTINUOUS
  62
7
 100
AcDbPolyline
  90
4
  70
0
  10
 538.75526228479
  20
 1470.5878884462
  10
 538.75526228479
  20
 1488.0878884462
  10
 768.75526228479
  20
 1488.0878884462
  10
 768.75526228479
  20
 1470.5878884462
   0
LWPOLYLINE
   5
28F
 100
AcDbEntity
   8
LEVEL001
 370
40
   6
CONTINUOUS
  62
7
 100
AcDbPolyline
  90
3
  70
0
  10
 787.75526228479
  20
 1470.5878884462
  10
 787.75526228479
  20
 1488.0878884462
  10
 768.75526228479
  20
 1488.0878884462
   0
LWPOLYLINE
   5
290
 100
AcDbEntity
   8
LEVEL001
 370
40
   6
CONTINUOUS
  62
7
 100
AcDbPolyline
  90
3
  70
0
  10
 420.75526228479
  20
 1470.5878884462
  10
 420.75526228479
  20
 1484.5878884462
  10
 538.75526228479
  20
 1484.5878884462
   0
LINE
   5
291
 100
AcDbEntity
   8
LEVEL001
 370
40
 100
AcDbLine
   6
CONTINUOUS
  62
7
  10
 520.75526228479
  20
 1470.5878884462
  30
0.0
  11
 520.75526228479
  21
 1484.5878884462
  31
0.0
   0
LWPOLYLINE
   5
292
 100
AcDbEntity
   8
LEVEL001
 370
40
   6
CONTINUOUS
  62
7
 100
AcDbPolyline
  90
3
  70
0
  10
 538.75526228479
  20
 1424.5878884462
  10
 420.75526228479
  20
 1424.5878884462
  10
 420.75526228479
  20
 1438.5878884462
   0
LINE
   5
293
 100
AcDbEntity
   8
LEVEL001
 370
40
 100
AcDbLine
   6
CONTINUOUS
  62
7
  10
 520.75526228479
  20
 1424.5878884462
  30
0.0
  11
 520.75526228479
  21
 1438.5878884462
  31
0.0
   0
ENDBLK
   5
294
 100
AcDbEntity
   8
0
 100
AcDbBlockEnd
   0
BLOCK
   5
295
 100
AcDbEntity
   8
0
 100
AcDbBlockBegin
   2
BLOCK017
  70
64
  10
0.0
  20
0.0
  30
0.0
   3
BLOCK017
   0
CIRCLE
   5
296
 100
AcDbEntity
   8
LEVEL001
 370
9
 100
AcDbCircle
   6
CONTINUOUS
  62
11
  10
 554.75526228479
  20
 1434.5878884462
  30
0.0
  40
 3.0000000000000
   0
LINE
   5
297
 100
AcDbEntity
   8
LEVEL001
 370
9
 100
AcDbLine
   6
DASHDOT
  62
11
  10
 560.75526228479
  20
 1434.5878884462
  30
0.0
  11
 548.75526228479
  21
 1434.5878884462
  31
0.0
   0
LINE
   5
298
 100
AcDbEntity
   8
LEVEL001
 370
9
 100
AcDbLine
   6
DASHDOT
  62
11
  10
 554.75526228479
  20
 1428.5878884462
  30
0.0
  11
 554.75526228479
  21
 1440.5878884462
  31
0.0
   0
CIRCLE
   5
299
 100
AcDbEntity
   8
LEVEL001
 370
9
 100
AcDbCircle
   6
CONTINUOUS
  62
11
  10
 554.75526228479
  20
 1434.5878884462
  30
0.0
  40
 2.0000000000000
   0
CIRCLE
   5
29A
 100
AcDbEntity
   8
LEVEL001
 370
9
 100
AcDbCircle
   6
DOT
  62
11
  10
 554.75526228479
  20
 1434.5878884462
  30
0.0
  40
 8.0000000000000
   0
CIRCLE
   5
29B
 100
AcDbEntity
   8
LEVEL001
 370
9
 100
AcDbCircle
   6
CONTINUOUS
  62
11
  10
 734.75526228479
  20
 1434.5878884462
  30
0.0
  40
 3.0000000000000
   0
LINE
   5
29C
 100
AcDbEntity
   8
LEVEL001
 370
9
 100
AcDbLine
   6
DASHDOT
  62
11
  10
 740.75526228479
  20
 1434.5878884462
  30
0.0
  11
 728.75526228479
  21
 1434.5878884462
  31
0.0
   0
LINE
   5
29D
 100
AcDbEntity
   8
LEVEL001
 370
9
 100
AcDbLine
   6
DASHDOT
  62
11
  10
 734.75526228479
  20
 1428.5878884462
  30
0.0
  11
 734.75526228479
  21
 1440.5878884462
  31
0.0
   0
CIRCLE
   5
29E
 100
AcDbEntity
   8
LEVEL001
 370
9
 100
AcDbCircle
   6
CONTINUOUS
  62
11
  10
 734.75526228479
  20
 1434.5878884462
  30
0.0
  40
 2.0000000000000
   0
CIRCLE
   5
29F
 100
AcDbEntity
   8
LEVEL001
 370
9
 100
AcDbCircle
   6
DOT
  62
11
  10
 734.75526228479
  20
 1434.5878884462
  30
0.0
  40
 8.0000000000000
   0
CIRCLE
   5
2A0
 100
AcDbEntity
   8
LEVEL001
 370
9
 100
AcDbCircle
   6
CONTINUOUS
  62
11
  10
 554.75526228479
  20
 1474.5878884462
  30
0.0
  40
 3.0000000000000
   0
LINE
   5
2A1
 100
AcDbEntity
   8
LEVEL001
 370
9
 100
AcDbLine
   6
DASHDOT
  62
11
  10
 560.75526228479
  20
 1474.5878884462
  30
0.0
  11
 548.75526228479
  21
 1474.5878884462
  31
0.0
   0
LINE
   5
2A2
 100
AcDbEntity
   8
LEVEL001
 370
9
 100
AcDbLine
   6
DASHDOT
  62
11
  10
 554.75526228479
  20
 1468.5878884462
  30
0.0
  11
 554.75526228479
  21
 1480.5878884462
  31
0.0
   0
CIRCLE
   5
2A3
 100
AcDbEntity
   8
LEVEL001
 370
9
 100
AcDbCircle
   6
CONTINUOUS
  62
11
  10
 554.75526228479
  20
 1474.5878884462
  30
0.0
  40
 2.0000000000000
   0
CIRCLE
   5
2A4
 100
AcDbEntity
   8
LEVEL001
 370
9
 100
AcDbCircle
   6
DOT
  62
11
  10
 554.75526228479
  20
 1474.5878884462
  30
0.0
  40
 8.0000000000000
   0
CIRCLE
   5
2A5
 100
AcDbEntity
   8
LEVEL001
 370
9
 100
AcDbCircle
   6
CONTINUOUS
  62
11
  10
 734.75526228479
  20
 1474.5878884462
  30
0.0
  40
 3.0000000000000
   0
LINE
   5
2A6
 100
AcDbEntity
   8
LEVEL001
 370
9
 100
AcDbLine
   6
DASHDOT
  62
11
  10
 740.75526228479
  20
 1474.5878884462
  30
0.0
  11
 728.75526228479
  21
 1474.5878884462
  31
0.0
   0
LINE
   5
2A7
 100
AcDbEntity
   8
LEVEL001
 370
9
 100
AcDbLine
   6
DASHDOT
  62
11
  10
 734.75526228479
  20
 1468.5878884462
  30
0.0
  11
 734.75526228479
  21
 1480.5878884462
  31
0.0
   0
CIRCLE
   5
2A8
 100
AcDbEntity
   8
LEVEL001
 370
9
 100
AcDbCircle
   6
CONTINUOUS
  62
11
  10
 734.75526228479
  20
 1474.5878884462
  30
0.0
  40
 2.0000000000000
   0
CIRCLE
   5
2A9
 100
AcDbEntity
   8
LEVEL001
 370
9
 100
AcDbCircle
   6
DOT
  62
11
  10
 734.75526228479
  20
 1474.5878884462
  30
0.0
  40
 8.0000000000000
   0
ENDBLK
   5
2AA
 100
AcDbEntity
   8
0
 100
AcDbBlockEnd
   0
BLOCK
   5
2AB
 100
AcDbEntity
   8
0
 100
AcDbBlockBegin
   2
BLOCK018
  70
64
  10
0.0
  20
0.0
  30
0.0
   3
BLOCK018
   0
CIRCLE
   5
2AC
 100
AcDbEntity
   8
LEVEL001
 370
9
 100
AcDbCircle
   6
DOT
  62
11
  10
 644.75526228479
  20
 1454.5878884462
  30
0.0
  40
 30.250000000000
   0
CIRCLE
   5
2AD
 100
AcDbEntity
   8
LEVEL001
 370
9
 100
AcDbCircle
   6
DOT
  62
11
  10
 644.75526228479
  20
 1454.5878884462
  30
0.0
  40
 26.450000000000
   0
ENDBLK
   5
2AE
 100
AcDbEntity
   8
0
 100
AcDbBlockEnd
   0
BLOCK
   5
2AF
 100
AcDbEntity
   8
0
 100
AcDbBlockBegin
   2
BLOCK019
  70
64
  10
0.0
  20
0.0
  30
0.0
   3
BLOCK019
   0
ARC
   5
2B0
 100
AcDbEntity
   8
LEVEL001
 370
9
   6
DOT
  62
11
 100
AcDbCircle
  10
 580.75526228479
  20
 1429.5878884462
  30
0.0
  40
 7.0000000000000
 100
AcDbArc
  50
 90.000000000000
  51
 270.00000000000
   0
ARC
   5
2B1
 100
AcDbEntity
   8
LEVEL001
 370
9
   6
DOT
  62
11
 100
AcDbCircle
  10
 596.75526228479
  20
 1429.5878884462
  30
0.0
  40
 7.0000000000000
 100
AcDbArc
  50
 270.00000000000
  51
 90.000000000000
   0
LINE
   5
2B2
 100
AcDbEntity
   8
LEVEL001
 370
9
 100
AcDbLine
   6
DOT
  62
11
  10
 580.75526228479
  20
 1422.5878884462
  30
0.0
  11
 596.75526228479
  21
 1422.5878884462
  31
0.0
   0
LINE
   5
2B3
 100
AcDbEntity
   8
LEVEL001
 370
9
 100
AcDbLine
   6
DOT
  62
11
  10
 580.75526228479
  20
 1436.5878884462
  30
0.0
  11
 596.75526228479
  21
 1436.5878884462
  31
0.0
   0
LINE
   5
2B4
 100
AcDbEntity
   8
LEVEL001
 370
9
 100
AcDbLine
   6
DASHDOT
  62
11
  10
 607.90540758136
  20
 1429.5878884462
  30
0.0
  11
 568.54375716533
  21
 1429.5878884462
  31
0.0
   0
LINE
   5
2B5
 100
AcDbEntity
   8
LEVEL001
 370
9
 100
AcDbLine
   6
DASHDOT
  62
11
  10
 588.75526228479
  20
 1417.9428300372
  30
0.0
  11
 588.75526228479
  21
 1443.1648584591
  31
0.0
   0
ENDBLK
   5
2B6
 100
AcDbEntity
   8
0
 100
AcDbBlockEnd
   0
BLOCK
   5
2B7
 100
AcDbEntity
   8
0
 100
AcDbBlockBegin
   2
BLOCK020
  70
64
  10
0.0
  20
0.0
  30
0.0
   3
BLOCK020
   0
ARC
   5
2B8
 100
AcDbEntity
   8
LEVEL001
 370
9
   6
DOT
  62
11
 100
AcDbCircle
  10
 580.75526228479
  20
 1479.5878884462
  30
0.0
  40
 7.0000000000000
 100
AcDbArc
  50
 90.000000000000
  51
 270.00000000000
   0
ARC
   5
2B9
 100
AcDbEntity
   8
LEVEL001
 370
9
   6
DOT
  62
11
 100
AcDbCircle
  10
 596.75526228479
  20
 1479.5878884462
  30
0.0
  40
 7.0000000000000
 100
AcDbArc
  50
 270.00000000000
  51
 90.000000000000
   0
LINE
   5
2BA
 100
AcDbEntity
   8
LEVEL001
 370
9
 100
AcDbLine
   6
DOT
  62
11
  10
 580.75526228479
  20
 1486.5878884462
  30
0.0
  11
 596.75526228479
  21
 1486.5878884462
  31
0.0
   0
LINE
   5
2BB
 100
AcDbEntity
   8
LEVEL001
 370
9
 100
AcDbLine
   6
DOT
  62
11
  10
 580.75526228479
  20
 1472.5878884462
  30
0.0
  11
 596.75526228479
  21
 1472.5878884462
  31
0.0
   0
LINE
   5
2BC
 100
AcDbEntity
   8
LEVEL001
 370
9
 100
AcDbLine
   6
DASHDOT
  62
11
  10
 607.90540758136
  20
 1479.5878884462
  30
0.0
  11
 568.54375716533
  21
 1479.5878884462
  31
0.0
   0
LINE
   5
2BD
 100
AcDbEntity
   8
LEVEL001
 370
9
 100
AcDbLine
   6
DASHDOT
  62
11
  10
 588.75526228479
  20
 1491.2329468551
  30
0.0
  11
 588.75526228479
  21
 1466.0109184332
  31
0.0
   0
ENDBLK
   5
2BE
 100
AcDbEntity
   8
0
 100
AcDbBlockEnd
   0
BLOCK
   5
2BF
 100
AcDbEntity
   8
0
 100
AcDbBlockBegin
   2
BLOCK021
  70
64
  10
0.0
  20
0.0
  30
0.0
   3
BLOCK021
   0
ARC
   5
2C0
 100
AcDbEntity
   8
LEVEL001
 370
9
   6
DOT
  62
11
 100
AcDbCircle
  10
 708.75526228479
  20
 1429.5878884462
  30
0.0
  40
 7.0000000000000
 100
AcDbArc
  50
 270.00000000000
  51
 90.000000000000
   0
ARC
   5
2C1
 100
AcDbEntity
   8
LEVEL001
 370
9
   6
DOT
  62
11
 100
AcDbCircle
  10
 692.75526228479
  20
 1429.5878884462
  30
0.0
  40
 7.0000000000000
 100
AcDbArc
  50
 90.000000000000
  51
 270.00000000000
   0
LINE
   5
2C2
 100
AcDbEntity
   8
LEVEL001
 370
9
 100
AcDbLine
   6
DOT
  62
11
  10
 708.75526228479
  20
 1422.5878884462
  30
0.0
  11
 692.75526228479
  21
 1422.5878884462
  31
0.0
   0
LINE
   5
2C3
 100
AcDbEntity
   8
LEVEL001
 370
9
 100
AcDbLine
   6
DOT
  62
11
  10
 708.75526228479
  20
 1436.5878884462
  30
0.0
  11
 692.75526228479
  21
 1436.5878884462
  31
0.0
   0
LINE
   5
2C4
 100
AcDbEntity
   8
LEVEL001
 370
9
 100
AcDbLine
   6
DASHDOT
  62
11
  10
 681.60511698822
  20
 1429.5878884462
  30
0.0
  11
 720.96676740426
  21
 1429.5878884462
  31
0.0
   0
LINE
   5
2C5
 100
AcDbEntity
   8
LEVEL001
 370
9
 100
AcDbLine
   6
DASHDOT
  62
11
  10
 700.75526228479
  20
 1417.9428300372
  30
0.0
  11
 700.75526228479
  21
 1443.1648584591
  31
0.0
   0
ENDBLK
   5
2C6
 100
AcDbEntity
   8
0
 100
AcDbBlockEnd
   0
BLOCK
   5
2C7
 100
AcDbEntity
   8
0
 100
AcDbBlockBegin
   2
BLOCK022
  70
64
  10
0.0
  20
0.0
  30
0.0
   3
BLOCK022
   0
ARC
   5
2C8
 100
AcDbEntity
   8
LEVEL001
 370
9
   6
DOT
  62
11
 100
AcDbCircle
  10
 708.75526228479
  20
 1479.5878884462
  30
0.0
  40
 7.0000000000000
 100
AcDbArc
  50
 270.00000000000
  51
 90.000000000000
   0
ARC
   5
2C9
 100
AcDbEntity
   8
LEVEL001
 370
9
   6
DOT
  62
11
 100
AcDbCircle
  10
 692.75526228479
  20
 1479.5878884462
  30
0.0
  40
 7.0000000000000
 100
AcDbArc
  50
 90.000000000000
  51
 270.00000000000
   0
LINE
   5
2CA
 100
AcDbEntity
   8
LEVEL001
 370
9
 100
AcDbLine
   6
DOT
  62
11
  10
 708.75526228479
  20
 1486.5878884462
  30
0.0
  11
 692.75526228479
  21
 1486.5878884462
  31
0.0
   0
LINE
   5
2CB
 100
AcDbEntity
   8
LEVEL001
 370
9
 100
AcDbLine
   6
DOT
  62
11
  10
 708.75526228479
  20
 1472.5878884462
  30
0.0
  11
 692.75526228479
  21
 1472.5878884462
  31
0.0
   0
LINE
   5
2CC
 100
AcDbEntity
   8
LEVEL001
 370
9
 100
AcDbLine
   6
DASHDOT
  62
11
  10
 681.60511698822
  20
 1479.5878884462
  30
0.0
  11
 720.96676740426
  21
 1479.5878884462
  31
0.0
   0
LINE
   5
2CD
 100
AcDbEntity
   8
LEVEL001
 370
9
 100
AcDbLine
   6
DASHDOT
  62
11
  10
 700.75526228479
  20
 1491.2329468551
  30
0.0
  11
 700.75526228479
  21
 1466.0109184332
  31
0.0
   0
ENDBLK
   5
2CE
 100
AcDbEntity
   8
0
 100
AcDbBlockEnd
   0
BLOCK
   5
2CF
 100
AcDbEntity
   8
0
 100
AcDbBlockBegin
   2
*D6
  70
65
  10
0.0
  20
0.0
  30
0.0
   3
*D6
   0
LINE
   5
2D0
 100
AcDbEntity
   8
LEVEL001
 370
25
 100
AcDbLine
   6
CONTINUOUS
  62
3
  10
 130.75526228479
  20
 1534.5878884462
  30
0.0
  11
 22.189183637179
  21
 1534.5878884462
  31
0.0
   0
LINE
   5
2D1
 100
AcDbEntity
   8
LEVEL001
 370
25
 100
AcDbLine
   6
CONTINUOUS
  62
3
  10
 34.189183637179
  20
 1615.3857574383
  30
0.0
  11
 34.189183637179
  21
 1522.0878884462
  31
0.0
   0
LINE
   5
2D2
 100
AcDbEntity
   8
LEVEL001
 370
25
 100
AcDbLine
   6
CONTINUOUS
  62
3
  10
 34.189183637179
  20
 1509.5878884462
  30
0.0
  11
 34.189183637179
  21
 1522.0878884462
  31
0.0
   0
INSERT
   5
2D3
 100
AcDbEntity
   8
LEVEL001
   6
CONTINUOUS
  62
3
 100
AcDbBlockReference
   2
_OPEN30
  10
 34.189183637179
  20
 1534.5878884462
  30
0.0
  41
 16.000000000000
  42
 16.000000000000
  43
 16.000000000000
  50
 270.00000000000
   0
MTEXT
   5
2D4
 100
AcDbEntity
   8
LEVEL001
 370
40
  62
7
 100
AcDbMText
  10
 28.945209714439
  20
 1559.3857574383
  30
0.0
  40
 20.000000000000
  41
0.0
  71
7
  72
1
   1
\A1;２５
   7
GMM003
  11
0.0
  21
 1.0000000000000
  31
0.0
   0
ENDBLK
   5
2D5
 100
AcDbEntity
   8
0
 100
AcDbBlockEnd
   0
BLOCK
   5
2D6
 100
AcDbEntity
   8
0
 100
AcDbBlockBegin
   2
*D7
  70
65
  10
0.0
  20
0.0
  30
0.0
   3
*D7
   0
LINE
   5
2D7
 100
AcDbEntity
   8
LEVEL001
 370
25
 100
AcDbLine
   6
CONTINUOUS
  62
3
  10
 143.75526228479
  20
 1509.5878884462
  30
0.0
  11
 22.189183637179
  21
 1509.5878884462
  31
0.0
   0
LINE
   5
2D8
 100
AcDbEntity
   8
LEVEL001
 370
25
 100
AcDbLine
   6
CONTINUOUS
  62
3
  10
 143.75526228479
  20
 989.58788844617
  30
0.0
  11
 22.189183637179
  21
 989.58788844617
  31
0.0
   0
LINE
   5
2D9
 100
AcDbEntity
   8
LEVEL001
 370
25
 100
AcDbLine
   6
CONTINUOUS
  62
3
  10
 34.189183637179
  20
 1509.5878884462
  30
0.0
  11
 34.189183637179
  21
 1249.5878884462
  31
0.0
   0
LINE
   5
2DA
 100
AcDbEntity
   8
LEVEL001
 370
25
 100
AcDbLine
   6
CONTINUOUS
  62
3
  10
 34.189183637179
  20
 989.58788844617
  30
0.0
  11
 34.189183637179
  21
 1249.5878884462
  31
0.0
   0
INSERT
   5
2DB
 100
AcDbEntity
   8
LEVEL001
   6
CONTINUOUS
  62
3
 100
AcDbBlockReference
   2
_OPEN30
  10
 34.189183637179
  20
 1509.5878884462
  30
0.0
  41
 16.000000000000
  42
 16.000000000000
  43
 16.000000000000
  50
 90.000000000000
   0
INSERT
   5
2DC
 100
AcDbEntity
   8
LEVEL001
   6
CONTINUOUS
  62
3
 100
AcDbBlockReference
   2
_OPEN30
  10
 34.189183637179
  20
 989.58788844617
  30
0.0
  41
 16.000000000000
  42
 16.000000000000
  43
 16.000000000000
  50
 270.00000000000
   0
MTEXT
   5
2DD
 100
AcDbEntity
   8
LEVEL001
 370
40
  62
7
 100
AcDbMText
  10
 25.617755065751
  20
 1249.5878884462
  30
0.0
  40
 20.000000000000
  41
0.0
  71
8
  72
1
   1
\A1;５２０
   7
GMM003
  11
0.0
  21
 1.0000000000000
  31
0.0
   0
ENDBLK
   5
2DE
 100
AcDbEntity
   8
0
 100
AcDbBlockEnd
   0
BLOCK
   5
2DF
 100
AcDbEntity
   8
0
 100
AcDbBlockBegin
   2
*D8
  70
65
  10
0.0
  20
0.0
  30
0.0
   3
*D8
   0
LINE
   5
2E0
 100
AcDbEntity
   8
LEVEL001
 370
25
 100
AcDbLine
   6
CONTINUOUS
  62
3
  10
 130.75526228479
  20
 1534.5878884462
  30
0.0
  11
-33.923460402509
  21
 1534.5878884462
  31
0.0
   0
LINE
   5
2E1
 100
AcDbEntity
   8
LEVEL001
 370
25
 100
AcDbLine
   6
CONTINUOUS
  62
3
  10
 130.75526228479
  20
 964.58788844617
  30
0.0
  11
-33.923460402509
  21
 964.58788844617
  31
0.0
   0
LINE
   5
2E2
 100
AcDbEntity
   8
LEVEL001
 370
25
 100
AcDbLine
   6
CONTINUOUS
  62
3
  10
-21.923460402509
  20
 1534.5878884462
  30
0.0
  11
-21.923460402509
  21
 1249.5878884462
  31
0.0
   0
LINE
   5
2E3
 100
AcDbEntity
   8
LEVEL001
 370
25
 100
AcDbLine
   6
CONTINUOUS
  62
3
  10
-21.923460402509
  20
 964.58788844617
  30
0.0
  11
-21.923460402509
  21
 1249.5878884462
  31
0.0
   0
INSERT
   5
2E4
 100
AcDbEntity
   8
LEVEL001
   6
CONTINUOUS
  62
3
 100
AcDbBlockReference
   2
_OPEN30
  10
-21.923460402509
  20
 1534.5878884462
  30
0.0
  41
 16.000000000000
  42
 16.000000000000
  43
 16.000000000000
  50
 90.000000000000
   0
INSERT
   5
2E5
 100
AcDbEntity
   8
LEVEL001
   6
CONTINUOUS
  62
3
 100
AcDbBlockReference
   2
_OPEN30
  10
-21.923460402509
  20
 964.58788844617
  30
0.0
  41
 16.000000000000
  42
 16.000000000000
  43
 16.000000000000
  50
 270.00000000000
   0
MTEXT
   5
2E6
 100
AcDbEntity
   8
LEVEL001
 370
40
  62
7
 100
AcDbMText
  10
-30.494888973937
  20
 1249.5878884462
  30
0.0
  40
 20.000000000000
  41
0.0
  71
8
  72
1
   1
\A1;５７０
   7
GMM003
  11
0.0
  21
 1.0000000000000
  31
0.0
   0
ENDBLK
   5
2E7
 100
AcDbEntity
   8
0
 100
AcDbBlockEnd
   0
BLOCK
   5
2E8
 100
AcDbEntity
   8
0
 100
AcDbBlockBegin
   2
BLOCK023
  70
64
  10
0.0
  20
0.0
  30
0.0
   3
BLOCK023
   0
CIRCLE
   5
2E9
 100
AcDbEntity
   8
LEVEL001
 370
9
 100
AcDbCircle
   6
CONTINUOUS
  62
11
  10
 558.75526228479
  20
 1214.5878884462
  30
0.0
  40
 25.000000000000
   0
CIRCLE
   5
2EA
 100
AcDbEntity
   8
LEVEL001
 370
9
 100
AcDbCircle
   6
CONTINUOUS
  62
11
  10
 288.75526228479
  20
 1058.7033157650
  30
0.0
  40
 25.000000000000
   0
CIRCLE
   5
2EB
 100
AcDbEntity
   8
LEVEL001
 370
9
 100
AcDbCircle
   6
CONTINUOUS
  62
11
  10
 288.75526228479
  20
 1370.4724611274
  30
0.0
  40
 25.000000000000
   0
LINE
   5
2EC
 100
AcDbEntity
   8
LEVEL001
 370
9
 100
AcDbLine
   6
DASHDOT
  62
11
  10
 268.70758511484
  20
 1405.1960565595
  30
0.0
  11
 311.05701018380
  21
 1331.8447006687
  31
0.0
   0
LINE
   5
2ED
 100
AcDbEntity
   8
LEVEL001
 370
9
 100
AcDbLine
   6
DASHDOT
  62
11
  10
 268.90170187119
  20
 1024.3159404175
  30
0.0
  11
 309.77973409140
  21
 1095.1187691363
  31
0.0
   0
CIRCLE
   5
2EE
 100
AcDbEntity
   8
LEVEL001
 370
9
 100
AcDbCircle
   6
DASHDOT
  62
11
  10
 378.75526228479
  20
 1214.5878884462
  30
0.0
  40
 180.00000000000
   0
ENDBLK
   5
2EF
 100
AcDbEntity
   8
0
 100
AcDbBlockEnd
   0
BLOCK
   5
2F0
 100
AcDbEntity
   8
0
 100
AcDbBlockBegin
   2
BLOCK024
  70
64
  10
0.0
  20
0.0
  30
0.0
   3
BLOCK024
   0
CIRCLE
   5
2F1
 100
AcDbEntity
   8
LEVEL001
 370
40
 100
AcDbCircle
   6
CONTINUOUS
  62
7
  10
 378.75526228479
  20
 1214.5878884462
  30
0.0
  40
 200.00000000000
   0
ARC
   5
2F2
 100
AcDbEntity
   8
LEVEL001
 370
40
   6
CONTINUOUS
  62
7
 100
AcDbCircle
  10
 378.75526228479
  20
 1214.5878884462
  30
0.0
  40
 292.00000000000
 100
AcDbArc
  50
 106.03208852302
  51
 180.00000000000
   0
ARC
   5
2F3
 100
AcDbEntity
   8
LEVEL001
 370
40
   6
CONTINUOUS
  62
7
 100
AcDbCircle
  10
 358.75526228479
  20
 1214.5878884462
  30
0.0
  40
 272.00000000000
 100
AcDbArc
  50
 180.00000000000
  51
 306.40298850963
   0
LINE
   5
2F4
 100
AcDbEntity
   8
LEVEL001
 370
40
 100
AcDbLine
   6
CONTINUOUS
  62
7
  10
 520.17661852221
  20
 995.66519489780
  30
0.0
  11
 520.17661852221
  21
 1073.1665322090
  31
0.0
   0
ARC
   5
2F5
 100
AcDbEntity
   8
LEVEL001
 370
40
   6
CONTINUOUS
  62
7
 100
AcDbCircle
  10
 378.75526228479
  20
 1214.5878884462
  30
0.0
  40
 256.00000000000
 100
AcDbArc
  50
 90.000000000000
  51
 135.00000000005
   0
LINE
   5
2F6
 100
AcDbEntity
   8
LEVEL001
 370
40
 100
AcDbLine
   6
CONTINUOUS
  62
7
  10
 355.92204202265
  20
 1437.4211087085
  30
0.0
  11
 378.75526228487
  21
 1414.5878884462
  31
0.0
   0
LINE
   5
2F7
 100
AcDbEntity
   8
LEVEL001
 370
40
 100
AcDbLine
   6
CONTINUOUS
  62
7
  10
 298.11196736367
  20
 1495.2311833674
  30
0.0
  11
 327.86457337403
  21
 1465.4785773571
  31
0.0
   0
ARC
   5
2F8
 100
AcDbEntity
   8
LEVEL001
 370
25
   6
DASHDOT
  62
3
 100
AcDbCircle
  10
 378.75526228479
  20
 1214.5878884462
  30
0.0
  40
 240.00000000000
 100
AcDbArc
  50
 90.000000000000
  51
 146.53548602527
   0
ARC
   5
2F9
 100
AcDbEntity
   8
LEVEL001
 370
40
   6
CONTINUOUS
  62
7
 100
AcDbCircle
  10
 378.75526228479
  20
 1214.5878884462
  30
0.0
  40
 224.00000000000
 100
AcDbArc
  50
 90.000000000000
  51
 157.69054225615
   0
CIRCLE
   5
2FA
 100
AcDbEntity
   8
LEVEL001
 370
40
 100
AcDbCircle
   6
CONTINUOUS
  62
7
  10
 378.75526228479
  20
 1214.5878884462
  30
0.0
  40
 160.00000000000
   0
LWPOLYLINE
   5
2FB
 100
AcDbEntity
   8
LEVEL001
 370
40
   6
CONTINUOUS
  62
7
 100
AcDbPolyline
  90
4
  70
0
  10
 378.75526228479
  20
 1438.5878884462
  10
 452.75526228479
  20
 1438.5878884462
  10
 452.75526228479
  20
 1470.5878884462
  10
 378.75526228479
  20
 1470.5878884462
   0
ENDBLK
   5
2FC
 100
AcDbEntity
   8
0
 100
AcDbBlockEnd
   0
BLOCK
   5
2FD
 100
AcDbEntity
   8
0
 100
AcDbBlockBegin
   2
*D9
  70
65
  10
0.0
  20
0.0
  30
0.0
   3
*D9
   0
LINE
   5
2FE
 100
AcDbEntity
   8
LEVEL001
 370
25
 100
AcDbLine
   6
CONTINUOUS
  62
3
  10
 163.75526228479
  20
 1529.5878884462
  30
0.0
  11
 163.75526228479
  21
 1647.1928122445
  31
0.0
   0
LINE
   5
2FF
 100
AcDbEntity
   8
LEVEL001
 370
25
 100
AcDbLine
   6
CONTINUOUS
  62
3
  10
 163.75526228479
  20
 1635.1928122445
  30
0.0
  11
 448.75526228479
  21
 1635.1928122445
  31
0.0
   0
LINE
   5
300
 100
AcDbEntity
   8
LEVEL001
 370
25
 100
AcDbLine
   6
CONTINUOUS
  62
3
  10
 733.75526228479
  20
 1635.1928122445
  30
0.0
  11
 448.75526228479
  21
 1635.1928122445
  31
0.0
   0
INSERT
   5
301
 100
AcDbEntity
   8
LEVEL001
   6
CONTINUOUS
  62
3
 100
AcDbBlockReference
   2
_OPEN30
  10
 163.75526228479
  20
 1635.1928122445
  30
0.0
  41
 16.000000000000
  42
 16.000000000000
  43
 16.000000000000
  50
 180.00000000000
   0
INSERT
   5
302
 100
AcDbEntity
   8
LEVEL001
   6
CONTINUOUS
  62
3
 100
AcDbBlockReference
   2
_OPEN30
  10
 733.75526228479
  20
 1635.1928122445
  30
0.0
  41
 16.000000000000
  42
 16.000000000000
  43
 16.000000000000
  50
0.0
   0
MTEXT
   5
303
 100
AcDbEntity
   8
LEVEL001
 370
40
  62
7
 100
AcDbMText
  10
 448.75526228479
  20
 1643.7642408160
  30
0.0
  40
 20.000000000000
  41
0.0
  71
8
  72
1
   1
\A1;５７０
   7
GMM003
   0
ENDBLK
   5
304
 100
AcDbEntity
   8
0
 100
AcDbBlockEnd
   0
BLOCK
   5
305
 100
AcDbEntity
   8
0
 100
AcDbBlockBegin
   2
*D10
  70
65
  10
0.0
  20
0.0
  30
0.0
   3
*D10
   0
LINE
   5
306
 100
AcDbEntity
   8
LEVEL001
 370
25
 100
AcDbLine
   6
CONTINUOUS
  62
3
  10
 733.75526228479
  20
 1529.5878884462
  30
0.0
  11
 733.75526228479
  21
 1647.1928122445
  31
0.0
   0
LINE
   5
307
 100
AcDbEntity
   8
LEVEL001
 370
25
 100
AcDbLine
   6
CONTINUOUS
  62
3
  10
 758.75526228479
  20
 1542.5878884462
  30
0.0
  11
 758.75526228479
  21
 1647.1928122445
  31
0.0
   0
LINE
   5
308
 100
AcDbEntity
   8
LEVEL001
 370
25
 100
AcDbLine
   6
CONTINUOUS
  62
3
  10
 733.75526228479
  20
 1635.1928122445
  30
0.0
  11
 746.25526228479
  21
 1635.1928122445
  31
0.0
   0
LINE
   5
309
 100
AcDbEntity
   8
LEVEL001
 370
25
 100
AcDbLine
   6
CONTINUOUS
  62
3
  10
 839.34711975933
  20
 1635.1928122445
  30
0.0
  11
 746.25526228479
  21
 1635.1928122445
  31
0.0
   0
INSERT
   5
30A
 100
AcDbEntity
   8
LEVEL001
   6
CONTINUOUS
  62
3
 100
AcDbBlockReference
   2
_OPEN30
  10
 758.75526228479
  20
 1635.1928122445
  30
0.0
  41
 16.000000000000
  42
 16.000000000000
  43
 16.000000000000
  50
 180.00000000000
   0
MTEXT
   5
30B
 100
AcDbEntity
   8
LEVEL001
 370
40
  62
7
 100
AcDbMText
  10
 783.34711975933
  20
 1641.2945049789
  30
0.0
  40
 20.000000000000
  41
0.0
  71
7
  72
1
   1
\A1;２５
   7
GMM003
   0
ENDBLK
   5
30C
 100
AcDbEntity
   8
0
 100
AcDbBlockEnd
   0
BLOCK
   5
30D
 100
AcDbEntity
   8
0
 100
AcDbBlockBegin
   2
*D11
  70
65
  10
0.0
  20
0.0
  30
0.0
   3
*D11
   0
LINE
   5
30E
 100
AcDbEntity
   8
LEVEL001
 370
25
 100
AcDbLine
   6
CONTINUOUS
  62
3
  10
 138.75526228479
  20
 1542.5878884462
  30
0.0
  11
 138.75526228479
  21
 1708.4729998178
  31
0.0
   0
LINE
   5
30F
 100
AcDbEntity
   8
LEVEL001
 370
25
 100
AcDbLine
   6
CONTINUOUS
  62
3
  10
 138.75526228479
  20
 1696.4729998178
  30
0.0
  11
 448.75526228479
  21
 1696.4729998178
  31
0.0
   0
LINE
   5
310
 100
AcDbEntity
   8
LEVEL001
 370
25
 100
AcDbLine
   6
CONTINUOUS
  62
3
  10
 758.75526228479
  20
 1696.4729998178
  30
0.0
  11
 448.75526228479
  21
 1696.4729998178
  31
0.0
   0
INSERT
   5
311
 100
AcDbEntity
   8
LEVEL001
   6
CONTINUOUS
  62
3
 100
AcDbBlockReference
   2
_OPEN30
  10
 138.75526228479
  20
 1696.4729998178
  30
0.0
  41
 16.000000000000
  42
 16.000000000000
  43
 16.000000000000
  50
 180.00000000000
   0
INSERT
   5
312
 100
AcDbEntity
   8
LEVEL001
   6
CONTINUOUS
  62
3
 100
AcDbBlockReference
   2
_OPEN30
  10
 758.75526228479
  20
 1696.4729998178
  30
0.0
  41
 16.000000000000
  42
 16.000000000000
  43
 16.000000000000
  50
0.0
   0
MTEXT
   5
313
 100
AcDbEntity
   8
LEVEL001
 370
40
  62
7
 100
AcDbMText
  10
 448.75526228479
  20
 1705.0444283892
  30
0.0
  40
 20.000000000000
  41
0.0
  71
8
  72
1
   1
\A1;６２０
   7
GMM003
   0
ENDBLK
   5
314
 100
AcDbEntity
   8
0
 100
AcDbBlockEnd
   0
BLOCK
   5
315
 100
AcDbEntity
   8
0
 100
AcDbBlockBegin
   2
*D12
  70
65
  10
0.0
  20
0.0
  30
0.0
   3
*D12
   0
LINE
   5
316
 100
AcDbEntity
   8
LEVEL001
 370
25
 100
AcDbLine
   6
CONTINUOUS
  62
3
  10
 758.75526228479
  20
 1542.5878884462
  30
0.0
  11
 758.75526228479
  21
 1708.4729998178
  31
0.0
   0
LINE
   5
317
 100
AcDbEntity
   8
LEVEL001
 370
25
 100
AcDbLine
   6
CONTINUOUS
  62
3
  10
 978.75526228479
  20
 1478.5878884462
  30
0.0
  11
 978.75526228479
  21
 1708.4729998178
  31
0.0
   0
LINE
   5
318
 100
AcDbEntity
   8
LEVEL001
 370
25
 100
AcDbLine
   6
CONTINUOUS
  62
3
  10
 758.75526228479
  20
 1696.4729998178
  30
0.0
  11
 868.75526228479
  21
 1696.4729998178
  31
0.0
   0
LINE
   5
319
 100
AcDbEntity
   8
LEVEL001
 370
25
 100
AcDbLine
   6
CONTINUOUS
  62
3
  10
 978.75526228479
  20
 1696.4729998178
  30
0.0
  11
 868.75526228479
  21
 1696.4729998178
  31
0.0
   0
INSERT
   5
31A
 100
AcDbEntity
   8
LEVEL001
   6
CONTINUOUS
  62
3
 100
AcDbBlockReference
   2
_OPEN30
  10
 758.75526228479
  20
 1696.4729998178
  30
0.0
  41
 16.000000000000
  42
 16.000000000000
  43
 16.000000000000
  50
 180.00000000000
   0
INSERT
   5
31B
 100
AcDbEntity
   8
LEVEL001
   6
CONTINUOUS
  62
3
 100
AcDbBlockReference
   2
_OPEN30
  10
 978.75526228479
  20
 1696.4729998178
  30
0.0
  41
 16.000000000000
  42
 16.000000000000
  43
 16.000000000000
  50
0.0
   0
MTEXT
   5
31C
 100
AcDbEntity
   8
LEVEL001
 370
40
  62
7
 100
AcDbMText
  10
 868.75526228479
  20
 1705.0444283892
  30
0.0
  40
 20.000000000000
  41
0.0
  71
8
  72
1
   1
\A1;２２０
   7
GMM003
   0
ENDBLK
   5
31D
 100
AcDbEntity
   8
0
 100
AcDbBlockEnd
   0
BLOCK
   5
31E
 100
AcDbEntity
   8
0
 100
AcDbBlockBegin
   2
*D13
  70
65
  10
0.0
  20
0.0
  30
0.0
   3
*D13
   0
LINE
   5
31F
 100
AcDbEntity
   8
LEVEL001
 370
25
 100
AcDbLine
   6
CONTINUOUS
  62
3
  10
 766.75526228479
  20
 1534.5878884462
  30
0.0
  11
 888.43721068662
  21
 1534.5878884462
  31
0.0
   0
LINE
   5
320
 100
AcDbEntity
   8
LEVEL001
 370
25
 100
AcDbLine
   6
CONTINUOUS
  62
3
  10
 876.43721068662
  20
 1534.5878884462
  30
0.0
  11
 876.43721068662
  21
 1494.5878884462
  31
0.0
   0
LINE
   5
321
 100
AcDbEntity
   8
LEVEL001
 370
25
 100
AcDbLine
   6
CONTINUOUS
  62
3
  10
 876.43721068662
  20
 1454.5878884462
  30
0.0
  11
 876.43721068662
  21
 1494.5878884462
  31
0.0
   0
INSERT
   5
322
 100
AcDbEntity
   8
LEVEL001
   6
CONTINUOUS
  62
3
 100
AcDbBlockReference
   2
_OPEN30
  10
 876.43721068662
  20
 1534.5878884462
  30
0.0
  41
 16.000000000000
  42
 16.000000000000
  43
 16.000000000000
  50
 90.000000000000
   0
INSERT
   5
323
 100
AcDbEntity
   8
LEVEL001
   6
CONTINUOUS
  62
3
 100
AcDbBlockReference
   2
_OPEN30
  10
 876.43721068662
  20
 1454.5878884462
  30
0.0
  41
 16.000000000000
  42
 16.000000000000
  43
 16.000000000000
  50
 270.00000000000
   0
MTEXT
   5
324
 100
AcDbEntity
   8
LEVEL001
 370
40
  62
7
 100
AcDbMText
  10
 867.29740998322
  20
 1504.1563090067
  30
0.0
  40
 20.000000000000
  41
0.0
  71
8
  72
1
   1
\A1;８０
   7
GMM003
  11
0.0
  21
 1.0000000000000
  31
0.0
   0
ENDBLK
   5
325
 100
AcDbEntity
   8
0
 100
AcDbBlockEnd
   0
BLOCK
   5
326
 100
AcDbEntity
   8
0
 100
AcDbBlockBegin
   2
*D14
  70
65
  10
0.0
  20
0.0
  30
0.0
   3
*D14
   0
LINE
   5
327
 100
AcDbEntity
   8
LEVEL001
 370
25
 100
AcDbLine
   6
CONTINUOUS
  62
3
  10
 876.43721068662
  20
 1454.5878884462
  30
0.0
  11
 864.43721068662
  21
 1454.5878884462
  31
0.0
   0
LINE
   5
328
 100
AcDbEntity
   8
LEVEL001
 370
25
 100
AcDbLine
   6
CONTINUOUS
  62
3
  10
 841.31348667095
  20
 1214.5878884462
  30
0.0
  11
 888.43721068662
  21
 1214.5878884462
  31
0.0
   0
LINE
   5
329
 100
AcDbEntity
   8
LEVEL001
 370
25
 100
AcDbLine
   6
CONTINUOUS
  62
3
  10
 876.43721068662
  20
 1454.5878884462
  30
0.0
  11
 876.43721068662
  21
 1334.5878884462
  31
0.0
   0
LINE
   5
32A
 100
AcDbEntity
   8
LEVEL001
 370
25
 100
AcDbLine
   6
CONTINUOUS
  62
3
  10
 876.43721068662
  20
 1214.5878884462
  30
0.0
  11
 876.43721068662
  21
 1334.5878884462
  31
0.0
   0
INSERT
   5
32B
 100
AcDbEntity
   8
LEVEL001
   6
CONTINUOUS
  62
3
 100
AcDbBlockReference
   2
_OPEN30
  10
 876.43721068662
  20
 1454.5878884462
  30
0.0
  41
 16.000000000000
  42
 16.000000000000
  43
 16.000000000000
  50
 90.000000000000
   0
INSERT
   5
32C
 100
AcDbEntity
   8
LEVEL001
   6
CONTINUOUS
  62
3
 100
AcDbBlockReference
   2
_OPEN30
  10
 876.43721068662
  20
 1214.5878884462
  30
0.0
  41
 16.000000000000
  42
 16.000000000000
  43
 16.000000000000
  50
 270.00000000000
   0
MTEXT
   5
32D
 100
AcDbEntity
   8
LEVEL001
 370
40
  62
7
 100
AcDbMText
  10
 867.86578211519
  20
 1334.5878884462
  30
0.0
  40
 20.000000000000
  41
0.0
  71
8
  72
1
   1
\A1;（２４０）
   7
GMM003
  11
0.0
  21
 1.0000000000000
  31
0.0
   0
ENDBLK
   5
32E
 100
AcDbEntity
   8
0
 100
AcDbBlockEnd
   0
ENDSEC
   0
SECTION
   2
ENTITIES
   0
TEXT
   5
32F
 100
AcDbEntity
   8
LEVEL001
 370
25
  62
3
 100
AcDbText
  10
-165.88128097853
  20
 120.26184844971
  30
0.0
  40
 2.5999999046326
   1
　
  41
 0.76923079744599
   7
STANDARD
 100
AcDbText
   0
TEXT
   5
330
 100
AcDbEntity
   8
LEVEL001
 370
25
  62
3
 100
AcDbText
  10
-149.23487289748
  20
 120.17190551758
  30
0.0
  40
 2.5999999046326
   1
　
  41
 0.42307690191551
   7
STANDARD
 100
AcDbText
   0
TEXT
   5
331
 100
AcDbEntity
   8
LEVEL001
 370
25
  62
3
 100
AcDbText
  10
-195.10787399611
  20
 126.32980531044
  30
0.0
  40
 3.5999999046326
   1
　
  41
 1.1111111405455
   7
STANDARD
 100
AcDbText
   0
TEXT
   5
332
 100
AcDbEntity
   8
LEVEL001
 370
25
  62
3
 100
AcDbText
  10
-187.10787399611
  20
 126.32980531044
  30
0.0
  40
 3.5999999046326
   1
　
  41
 1.1111111405455
   7
STANDARD
 100
AcDbText
   0
TEXT
   5
333
 100
AcDbEntity
   8
LEVEL001
 370
25
  62
3
 100
AcDbText
  10
-179.10787399611
  20
 126.32980531044
  30
0.0
  40
 3.5999999046326
   1
　
  41
 1.1111111405455
   7
STANDARD
 100
AcDbText
   0
TEXT
   5
334
 100
AcDbEntity
   8
LEVEL001
 370
25
  62
3
 100
AcDbText
  10
-171.10787399611
  20
 126.32980531044
  30
0.0
  40
 3.5999999046326
   1
　
  41
 1.1111111405455
   7
STANDARD
 100
AcDbText
   0
TEXT
   5
335
 100
AcDbEntity
   8
LEVEL001
 370
25
  62
3
 100
AcDbText
  10
-163.10787399611
  20
 126.32980531044
  30
0.0
  40
 3.5999999046326
   1
　
  41
 1.1111111405455
   7
STANDARD
 100
AcDbText
   0
TEXT
   5
336
 100
AcDbEntity
   8
LEVEL001
 370
25
  62
3
 100
AcDbText
  10
-148.01046188674
  20
 128.45293610878
  30
0.0
  40
 3.5999999046326
   1
　
  41
 1.1111111405455
   7
STANDARD
 100
AcDbText
   0
TEXT
   5
337
 100
AcDbEntity
   8
LEVEL001
 370
25
  62
3
 100
AcDbText
  10
-144.01046188674
  20
 128.45293610878
  30
0.0
  40
 3.5999999046326
   1
　
  41
 1.1111111405455
   7
STANDARD
 100
AcDbText
   0
TEXT
   5
338
 100
AcDbEntity
   8
LEVEL001
 370
25
  62
3
 100
AcDbText
  10
-140.01046188674
  20
 128.45293610878
  30
0.0
  40
 3.5999999046326
   1
　
  41
 1.1111111405455
   7
STANDARD
 100
AcDbText
   0
TEXT
   5
339
 100
AcDbEntity
   8
LEVEL001
 370
25
  62
3
 100
AcDbText
  10
-136.01046188674
  20
 128.45293610878
  30
0.0
  40
 3.5999999046326
   1
　
  41
 1.1111111405455
   7
STANDARD
 100
AcDbText
   0
TEXT
   5
33A
 100
AcDbEntity
   8
LEVEL001
 370
25
  62
3
 100
AcDbText
  10
-195.78447922072
  20
-135.37816423588
  30
0.0
  40
 3.5000000000000
   1
　
  41
 1.1428571428571
   7
STANDARD
 100
AcDbText
   0
TEXT
   5
33B
 100
AcDbEntity
   8
LEVEL001
 370
25
  62
3
 100
AcDbText
  10
-191.78447922072
  20
-135.37816423588
  30
0.0
  40
 3.5000000000000
   1
 
  41
 0.57142857142857
   7
STANDARD
 100
AcDbText
   0
TEXT
   5
33C
 100
AcDbEntity
   8
LEVEL001
 370
25
  62
3
 100
AcDbText
  10
-185.78447922072
  20
-135.37816423588
  30
0.0
  40
 3.5000000000000
   1
　
  41
 1.1428571428571
   7
STANDARD
 100
AcDbText
   0
TEXT
   5
33D
 100
AcDbEntity
   8
LEVEL001
 370
25
  62
3
 100
AcDbText
  10
-181.78447922072
  20
-135.37816423588
  30
0.0
  40
 3.5000000000000
   1
 
  41
 0.57142857142857
   7
STANDARD
 100
AcDbText
   0
TEXT
   5
33E
 100
AcDbEntity
   8
LEVEL001
 370
25
  62
3
 100
AcDbText
  10
-199.12780197463
  20
-127.74216264896
  30
0.0
  40
 3.5000000000000
   1
 
  41
 0.45714286395482
   7
STANDARD
 100
AcDbText
   0
TEXT
   5
33F
 100
AcDbEntity
   8
LEVEL001
 370
25
  62
3
 100
AcDbText
  10
-194.32779892287
  20
-127.74216264896
  30
0.0
  40
 3.5000000000000
   1
 
  41
 0.45714286395482
   7
STANDARD
 100
AcDbText
   0
TEXT
   5
340
 100
AcDbEntity
   8
LEVEL001
 370
25
  62
3
 100
AcDbText
  10
-182.35412033400
  20
-127.74216264896
  30
0.0
  40
 3.5000000000000
   1
 
  41
 0.45714286395482
   7
STANDARD
 100
AcDbText
   0
TEXT
   5
341
 100
AcDbEntity
   8
LEVEL001
 370
25
  62
3
 100
AcDbText
  10
-180.75411423049
  20
-127.74216264896
  30
0.0
  40
 3.5000000000000
   1
 
  41
 0.45714286395482
   7
STANDARD
 100
AcDbText
   0
TEXT
   5
342
 100
AcDbEntity
   8
LEVEL001
 370
25
  62
3
 100
AcDbText
  10
-101.39085110030
  20
-145.43401152305
  30
0.0
  40
 4.0000000000000
   1
　
  41
 0.80000001192093
   7
STANDARD
 100
AcDbText
   0
TEXT
   5
343
 100
AcDbEntity
   8
LEVEL001
 370
25
  62
3
 100
AcDbText
  10
-98.190854152058
  20
-145.43401152305
  30
0.0
  40
 4.0000000000000
   1
　
  41
 0.80000001192093
   7
STANDARD
 100
AcDbText
   0
TEXT
   5
344
 100
AcDbEntity
   8
LEVEL001
 370
25
  62
3
 100
AcDbText
  10
-94.990849574421
  20
-145.43401152305
  30
0.0
  40
 4.0000000000000
   1
　
  41
 0.80000001192093
   7
STANDARD
 100
AcDbText
   0
TEXT
   5
345
 100
AcDbEntity
   8
LEVEL001
 370
25
  62
3
 100
AcDbText
  10
-137.13345821700
  20
-135.44821733646
  30
0.0
  40
 3.5000000000000
   1
　
  41
 0.71428571428571
   7
STANDARD
 100
AcDbText
   0
TEXT
   5
346
 100
AcDbEntity
   8
LEVEL001
 370
25
  62
3
 100
AcDbText
  10
-103.09236629805
  20
-135.48129839115
  30
0.0
  40
 3.5000000000000
   1
　
  41
 1.1428571428571
   7
STANDARD
 100
AcDbText
   0
TEXT
   5
347
 100
AcDbEntity
   8
LEVEL001
 370
25
  62
3
 100
AcDbText
  10
-105.09236629805
  20
-135.48129839115
  30
0.0
  40
 3.5000000000000
   1
　
  41
 1.1428571428571
   7
STANDARD
 100
AcDbText
   0
TEXT
   5
348
 100
AcDbEntity
   8
LEVEL001
 370
25
  62
3
 100
AcDbText
  10
-105.09234627089
  20
-135.48129839115
  30
0.0
  40
 3.5000000000000
   1
　
  41
 1.1428571428571
   7
STANDARD
 100
AcDbText
   0
POINT
   5
349
 100
AcDbEntity
   8
LEVEL001
 100
AcDbPoint
  62
7
  10
-210.00003412603
  20
-148.50000836058
  30
0.0
   0
LINE
   5
34A
 100
AcDbEntity
   8
LEVEL001
 370
25
 100
AcDbLine
   6
CONTINUOUS
  62
3
  10
-161.99995119603
  20
 19.499890167754
  30
0.0
  11
 1342.0000488040
  21
 19.499890167754
  31
0.0
   0
LINE
   5
34B
 100
AcDbEntity
   8
LEVEL001
 370
25
 100
AcDbLine
   6
CONTINUOUS
  62
3
  10
 430.00004880397
  20
-60.500109832246
  30
0.0
  11
 430.00004880397
  21
-140.50010983225
  31
0.0
   0
LWPOLYLINE
   5
34C
 100
AcDbEntity
   8
LEVEL001
 370
40
   6
CONTINUOUS
  62
7
 100
AcDbPolyline
  90
6
  70
1
  10
-161.99995119603
  20
-140.50010983225
  10
 846.00004880397
  20
-140.50010983225
  10
 846.00004880397
  20
-60.500109832246
  10
 1342.0000488040
  20
-60.500109832246
  10
 1342.0000488040
  20
 2099.4998901678
  10
-161.99995119603
  20
 2099.4998901678
   0
LINE
   5
34D
 100
AcDbEntity
   8
LEVEL001
 370
25
 100
AcDbLine
   6
CONTINUOUS
  62
3
  10
 382.00004880397
  20
-60.500109832246
  30
0.0
  11
 846.00004880397
  21
-60.500109832246
  31
0.0
   0
LINE
   5
34E
 100
AcDbEntity
   8
LEVEL001
 370
25
 100
AcDbLine
   6
CONTINUOUS
  62
3
  10
 638.00014798610
  20
-60.500108878571
  30
0.0
  11
 638.00014798610
  21
-140.50010983225
  31
0.0
   0
LINE
   5
34F
 100
AcDbEntity
   8
LEVEL001
 370
25
 100
AcDbLine
   6
CONTINUOUS
  62
3
  10
 590.00014798610
  20
-60.500108878571
  30
0.0
  11
 590.00014798610
  21
-140.50010983225
  31
0.0
   0
LINE
   5
350
 100
AcDbEntity
   8
LEVEL001
 370
25
 100
AcDbLine
   6
CONTINUOUS
  62
3
  10
 382.00004880397
  20
 19.499890167754
  30
0.0
  11
 382.00004880397
  21
-140.50010983225
  31
0.0
   0
INSERT
   5
351
 100
AcDbEntity
   8
0
 100
AcDbBlockReference
   2
BLOCK001
  10
0.0
  20
0.0
  30
0.0
   0
MTEXT
   5
352
 100
AcDbEntity
   8
LEVEL001
 370
40
  62
7
 100
AcDbMText
  10
 392.95033566921
  20
-68.013742702767
  30
0.0
  40
 19.200000000000
  41
0.0
  71
1
  72
3
   1
日付
   7
GMM001
   0
MTEXT
   5
353
 100
AcDbEntity
   8
LEVEL001
 370
40
  62
7
 100
AcDbMText
  10
 600.95043485133
  20
-68.836499913333
  30
0.0
  40
 19.200000000000
  41
0.0
  71
1
  72
3
   1
尺度
   7
GMM001
   0
LINE
   5
354
 100
AcDbEntity
   8
LEVEL001
 370
25
 100
AcDbLine
   6
CONTINUOUS
  62
3
  10
 846.00004880397
  20
 19.499890167754
  30
0.0
  11
 846.00004880397
  21
-60.500109832246
  31
0.0
   0
LINE
   5
355
 100
AcDbEntity
   8
LEVEL001
 370
25
 100
AcDbLine
   6
CONTINUOUS
  62
3
  10
 894.00004880397
  20
 19.499890167754
  30
0.0
  11
 894.00004880397
  21
-60.500109832246
  31
0.0
   0
MTEXT
   5
356
 100
AcDbEntity
   8
LEVEL001
 370
40
  62
7
 100
AcDbMText
  10
 385.11622078058
  20
-9.5341341905049
  30
0.0
  40
 19.200000000000
  41
0.0
  71
7
  72
1
   1
ワーク名称
   7
GMM002
   0
MTEXT
   5
357
 100
AcDbEntity
   8
LEVEL001
 370
40
  62
7
 100
AcDbMText
  10
 856.95033566921
  20
 9.9168005141472
  30
0.0
  40
 19.200000000000
  41
0.0
  71
1
  72
3
   1
図番
   7
GMM001
   0
MTEXT
   5
358
 100
AcDbEntity
   8
LEVEL001
 370
40
  62
7
 100
AcDbMText
  10
 321.75386894445
  20
-64.278322416869
  30
0.0
  40
 28.000000000000
  41
0.0
  71
7
  72
1
   1
様
   7
GMM003
   0
LINE
   5
359
 100
AcDbEntity
   8
LEVEL001
 370
25
 100
AcDbLine
   6
CONTINUOUS
  62
3
  10
-161.99995119603
  20
-76.500109832246
  30
0.0
  11
 382.00004880397
  21
-76.500109832246
  31
0.0
   0
MTEXT
   5
35A
 100
AcDbEntity
   8
LEVEL001
 370
40
  62
7
 100
AcDbMText
  10
-154.35494268838
  20
-9.5341341905049
  30
0.0
  40
 19.200000000000
  41
0.0
  71
7
  72
1
   1
お客様
   7
GMM002
   0
MTEXT
   5
35B
 100
AcDbEntity
   8
LEVEL001
 370
40
  62
7
 100
AcDbMText
  10
-154.35494268838
  20
-119.50897192247
  30
0.0
  40
 19.200000000000
  41
0.0
  71
7
  72
1
   1
仕様書番号
   7
GMM002
   0
MTEXT
   5
35C
 100
AcDbEntity
   8
LEVEL001
 370
40
  62
7
 100
AcDbMText
  10
 651.07918600746
  20
-124.99663000495
  30
0.0
  40
 21.600000000000
  41
0.0
  71
4
  72
1
   1
Ａ４－１／８\P
   7
GMM002
   0
MTEXT
   5
35D
 100
AcDbEntity
   8
LEVEL001
 370
40
  62
7
 100
AcDbMText
  10
 927.44820588536
  20
-36.495452298573
  30
0.0
  40
 24.000000000000
  41
0.0
  71
7
  72
1
   1
ＳＴ５Ｒａ８／ＳＨ２０
   7
GMM002
   0
MTEXT
   5
35E
 100
AcDbEntity
   8
LEVEL001
 370
9
  62
11
 100
AcDbMText
  10
 445.27027966934
  20
 723.96888439069
  30
0.0
  40
 16.000000000000
  41
0.0
  71
7
  72
1
   1
Ａ－８
   7
GMM002
   0
INSERT
   5
35F
 100
AcDbEntity
   8
0
 100
AcDbBlockReference
   2
BLOCK002
  10
0.0
  20
0.0
  30
0.0
   0
LINE
   5
360
 100
AcDbEntity
   8
LEVEL001
 370
40
 100
AcDbLine
   6
CONTINUOUS
  62
7
  10
 538.75526228479
  20
 679.77549824150
  30
0.0
  11
 538.75526228479
  21
 663.77549824150
  31
0.0
   0
LINE
   5
361
 100
AcDbEntity
   8
LEVEL001
 370
40
 100
AcDbLine
   6
CONTINUOUS
  62
7
  10
 768.75526228479
  20
 663.77549824150
  30
0.0
  11
 768.75526228479
  21
 679.77549824150
  31
0.0
   0
LWPOLYLINE
   5
362
 100
AcDbEntity
   8
LEVEL001
 370
40
   6
CONTINUOUS
  62
7
 100
AcDbPolyline
  90
4
  70
1
  10
 458.75526228479
  20
 679.77549824150
  10
 978.75526228479
  20
 679.77549824150
  10
 978.75526228479
  20
 699.77549824150
  10
 458.75526228479
  20
 699.77549824150
   0
INSERT
   5
363
 100
AcDbEntity
   8
0
 100
AcDbBlockReference
   2
BLOCK003
  10
0.0
  20
0.0
  30
0.0
   0
LWPOLYLINE
   5
364
 100
AcDbEntity
   8
LEVEL001
 370
40
   6
CONTINUOUS
  62
7
 100
AcDbPolyline
  90
4
  70
1
  10
 1095.3194607268
  20
 663.77549824150
  10
 1160.3194607268
  20
 663.77549824150
  10
 1160.3194607268
  20
 679.77549824150
  10
 1095.3194607268
  20
 679.77549824150
   0
LWPOLYLINE
   5
365
 100
AcDbEntity
   8
LEVEL001
 370
40
   6
CONTINUOUS
  62
7
 100
AcDbPolyline
  90
4
  70
1
  10
 1111.8194607268
  20
 679.77549824150
  10
 1143.8194607268
  20
 679.77549824150
  10
 1143.8194607268
  20
 699.77549824150
  10
 1111.8194607268
  20
 699.77549824150
   0
LWPOLYLINE
   5
366
 100
AcDbEntity
   8
LEVEL001
 370
40
   6
CONTINUOUS
  62
7
 100
AcDbPolyline
  90
4
  70
1
  10
 544.75526228479
  20
 518.77549824150
  10
 744.75526228479
  20
 518.77549824150
  10
 744.75526228479
  20
 527.77549824150
  10
 544.75526228479
  20
 527.77549824150
   0
LINE
   5
367
 100
AcDbEntity
   8
LEVEL001
 370
25
 100
AcDbLine
   6
DASHDOT
  62
3
  10
 644.75526228479
  20
 487.85374254300
  30
0.0
  11
 644.75526228479
  21
 313.46507128231
  31
0.0
   0
INSERT
   5
368
 100
AcDbEntity
   8
0
 100
AcDbBlockReference
   2
BLOCK004
  10
0.0
  20
0.0
  30
0.0
   0
INSERT
   5
369
 100
AcDbEntity
   8
0
 100
AcDbBlockReference
   2
BLOCK005
  10
0.0
  20
0.0
  30
0.0
   0
LWPOLYLINE
   5
36A
 100
AcDbEntity
   8
LEVEL001
 370
40
   6
CONTINUOUS
  62
7
 100
AcDbPolyline
  90
4
  70
1
  10
 1090.3194607268
  20
 518.77549824150
  10
 1165.3194607268
  20
 518.77549824150
  10
 1165.3194607268
  20
 527.77549824150
  10
 1090.3194607268
  20
 527.77549824150
   0
INSERT
   5
36B
 100
AcDbEntity
   8
0
 100
AcDbBlockReference
   2
BLOCK006
  10
0.0
  20
0.0
  30
0.0
   0
INSERT
   5
36C
 100
AcDbEntity
   8
0
 100
AcDbBlockReference
   2
BLOCK007
  10
0.0
  20
0.0
  30
0.0
   0
INSERT
   5
36D
 100
AcDbEntity
   8
0
 100
AcDbBlockReference
   2
BLOCK008
  10
0.0
  20
0.0
  30
0.0
   0
INSERT
   5
36E
 100
AcDbEntity
   8
0
 100
AcDbBlockReference
   2
BLOCK009
  10
0.0
  20
0.0
  30
0.0
   0
INSERT
   5
36F
 100
AcDbEntity
   8
0
 100
AcDbBlockReference
   2
BLOCK010
  10
0.0
  20
0.0
  30
0.0
   0
INSERT
   5
370
 100
AcDbEntity
   8
0
 100
AcDbBlockReference
   2
BLOCK011
  10
0.0
  20
0.0
  30
0.0
   0
INSERT
   5
371
 100
AcDbEntity
   8
0
 100
AcDbBlockReference
   2
BLOCK012
  10
0.0
  20
0.0
  30
0.0
   0
INSERT
   5
372
 100
AcDbEntity
   8
0
 100
AcDbBlockReference
   2
BLOCK013
  10
0.0
  20
0.0
  30
0.0
   0
MTEXT
   5
373
 100
AcDbEntity
   8
LEVEL001
 370
9
  62
11
 100
AcDbMText
  10
 597.28056756364
  20
 572.23997217881
  30
0.0
  40
 16.000000000000
  41
0.0
  71
7
  72
1
   1
ＳＨ－２０
   7
GMM002
   0
LWPOLYLINE
   5
374
 100
AcDbEntity
   8
LEVEL001
 370
40
   6
CONTINUOUS
  62
7
 100
AcDbPolyline
  90
4
  70
0
  10
 1252.3410793853
  20
 324.77549824150
  10
 1047.8194607268
  20
 324.77549824150
  10
 1047.8194607268
  20
 308.77549824150
  10
 1252.3410793853
  20
 308.77549824150
   0
LWPOLYLINE
   5
375
 100
AcDbEntity
   8
LEVEL001
 370
40
   6
CONTINUOUS
  62
7
 100
AcDbPolyline
  90
4
  70
1
  10
 138.75526228479
  20
 308.77549824150
  10
 758.75526228479
  20
 308.77549824150
  10
 758.75526228479
  20
 324.77549824150
  10
 138.75526228479
  20
 324.77549824150
   0
LINE
   5
376
 100
AcDbEntity
   8
LEVEL001
 370
25
 100
AcDbLine
   6
DASHDOT
  62
3
  10
 1127.8194607268
  20
 716.69413808483
  30
0.0
  11
 1127.8194607268
  21
 284.65930683545
  31
0.0
   0
INSERT
   5
377
 100
AcDbEntity
   8
0
 100
AcDbBlockReference
   2
BLOCK014
  10
0.0
  20
0.0
  30
0.0
   0
INSERT
   5
378
 100
AcDbEntity
   8
0
 100
AcDbBlockReference
   2
BLOCK015
  10
0.0
  20
0.0
  30
0.0
   0
LINE
   5
379
 100
AcDbEntity
   8
LEVEL001
 370
25
 100
AcDbLine
   6
DASHDOT
  62
3
  10
 378.75526228479
  20
 636.77549824150
  30
0.0
  11
 378.75526228479
  21
 314.88463671422
  31
0.0
   0
DIMENSION
   5
37A
 100
AcDbEntity
   8
LEVEL001
 370
40
   6
CONTINUOUS
  62
7
 100
AcDbDimension
   2
*D1
  10
 32.189183637179
  20
 756.77549824150
  30
0.0
  11
 32.189183637179
  21
 532.77549824150
  31
0.0
  70
0
   1
\A1;（４４８）
   3
GMM001
 100
AcDbAlignedDimension
  13
 136.75526228479
  23
 308.77549824150
  33
0.0
  14
 178.75526228479
  24
 756.77549824150
  34
0.0
  50
 90.000000000000
 100
AcDbRotatedDimension
   0
LINE
   5
37C
 100
AcDbEntity
   8
LEVEL001
 370
25
 100
AcDbLine
   6
DASHDOT
  62
3
  10
 378.75526228479
  20
 786.39933485707
  30
0.0
  11
 378.75526228479
  21
 716.77549824150
  31
0.0
   0
MTEXT
   5
37D
 100
AcDbEntity
   8
LEVEL001
 370
9
  62
11
 100
AcDbMText
  10
 254.41328305193
  20
 470.15470422334
  30
0.0
  40
 16.000000000000
  41
0.0
  71
7
  72
1
   1
ＳＴ－５
   7
GMM002
   0
DIMENSION
   5
37E
 100
AcDbEntity
   8
LEVEL001
 370
40
   6
CONTINUOUS
  62
7
 100
AcDbDimension
   2
*D2
  10
 458.75526228479
  20
 818.05568581477
  30
0.0
  11
 418.75526228479
  21
 818.05568581477
  31
0.0
  70
0
   3
GMM002
 100
AcDbAlignedDimension
  13
 378.75526228479
  23
 786.39933485707
  33
0.0
  14
 458.75526228479
  24
 699.77549824150
  34
0.0
 100
AcDbRotatedDimension
   0
DIMENSION
   5
37F
 100
AcDbEntity
   8
LEVEL001
 370
40
   6
CONTINUOUS
  62
7
 100
AcDbDimension
   2
*D3
  10
 978.75526228479
  20
 818.05568581477
  30
0.0
  11
 718.75526228479
  21
 818.05568581477
  31
0.0
  70
0
   3
GMM002
 100
AcDbAlignedDimension
  13
 458.75526228479
  23
 699.77549824150
  33
0.0
  14
 978.75526228479
  24
 699.77549824150
  34
0.0
 100
AcDbRotatedDimension
   0
DIMENSION
   5
380
 100
AcDbEntity
   8
LEVEL001
 370
40
   6
CONTINUOUS
  62
7
 100
AcDbDimension
   2
*D4
  10
 829.08433847091
  20
 324.77549824150
  30
0.0
  11
 829.08433847091
  21
 348.32582100352
  31
0.0
  70
128
   3
GMM003
 100
AcDbAlignedDimension
  13
 758.75526228479
  23
 308.77549824150
  33
0.0
  14
 758.75526228479
  24
 324.77549824150
  34
0.0
  50
 90.000000000000
 100
AcDbRotatedDimension
   0
DIMENSION
   5
381
 100
AcDbEntity
   8
LEVEL001
 370
40
   6
CONTINUOUS
  62
7
 100
AcDbDimension
   2
*D5
  10
 876.43721068662
  20
 699.77549824150
  30
0.0
  11
 876.43721068662
  21
 504.27549824150
  31
0.0
  70
0
   3
GMM002
 100
AcDbAlignedDimension
  13
 758.75526228479
  23
 308.77549824150
  33
0.0
  14
 876.43721068662
  24
 699.77549824150
  34
0.0
  50
 90.000000000000
 100
AcDbRotatedDimension
   0
LWPOLYLINE
   5
382
 100
AcDbEntity
   8
LEVEL001
 370
40
   6
CONTINUOUS
  62
7
 100
AcDbPolyline
  90
4
  70
1
  10
 458.75526228479
  20
 1470.5878884462
  10
 978.75526228479
  20
 1470.5878884462
  10
 978.75526228479
  20
 1438.5878884462
  10
 458.75526228479
  20
 1438.5878884462
   0
LINE
   5
383
 100
AcDbEntity
   8
LEVEL001
 370
25
 100
AcDbLine
   6
DASHDOT
  62
3
  10
 1008.3162116615
  20
 1454.5878884462
  30
0.0
  11
 380.75526228479
  21
 1454.5878884462
  31
0.0
   0
INSERT
   5
384
 100
AcDbEntity
   8
0
 100
AcDbBlockReference
   2
BLOCK016
  10
0.0
  20
0.0
  30
0.0
   0
INSERT
   5
385
 100
AcDbEntity
   8
0
 100
AcDbBlockReference
   2
BLOCK017
  10
0.0
  20
0.0
  30
0.0
   0
LWPOLYLINE
   5
386
 100
AcDbEntity
   8
LEVEL001
 370
40
   6
CONTINUOUS
  62
7
 100
AcDbPolyline
  90
4
  70
0
  10
 544.75526228479
  20
 1488.0878884462
  10
 544.75526228479
  20
 1492.0878884462
  10
 744.75526228479
  20
 1492.0878884462
  10
 744.75526228479
  20
 1488.0878884462
   0
LWPOLYLINE
   5
387
 100
AcDbEntity
   8
LEVEL001
 370
40
   6
CONTINUOUS
  62
7
 100
AcDbPolyline
  90
4
  70
0
  10
 544.75526228479
  20
 1421.0878884462
  10
 544.75526228479
  20
 1417.0878884462
  10
 744.75526228479
  20
 1417.0878884462
  10
 744.75526228479
  20
 1421.0878884462
   0
LINE
   5
388
 100
AcDbEntity
   8
LEVEL001
 370
9
 100
AcDbLine
   6
DOT
  62
11
  10
 544.75526228479
  20
 1421.0878884462
  30
0.0
  11
 544.75526228479
  21
 1488.0878884462
  31
0.0
   0
LINE
   5
389
 100
AcDbEntity
   8
LEVEL001
 370
9
 100
AcDbLine
   6
DOT
  62
11
  10
 744.75526228479
  20
 1421.0878884462
  30
0.0
  11
 744.75526228479
  21
 1488.0878884462
  31
0.0
   0
LINE
   5
38A
 100
AcDbEntity
   8
LEVEL001
 370
9
 100
AcDbLine
   6
DOT
  62
11
  10
 724.75526228479
  20
 1421.0878884462
  30
0.0
  11
 724.75526228479
  21
 1488.0878884462
  31
0.0
   0
LINE
   5
38B
 100
AcDbEntity
   8
LEVEL001
 370
9
 100
AcDbLine
   6
DOT
  62
11
  10
 564.75526228479
  20
 1421.0878884462
  30
0.0
  11
 564.75526228479
  21
 1488.0878884462
  31
0.0
   0
LINE
   5
38C
 100
AcDbEntity
   8
LEVEL001
 370
40
 100
AcDbLine
   6
CONTINUOUS
  62
7
  10
 564.75526228479
  20
 1488.0878884462
  30
0.0
  11
 564.75526228479
  21
 1492.0878884462
  31
0.0
   0
LINE
   5
38D
 100
AcDbEntity
   8
LEVEL001
 370
40
 100
AcDbLine
   6
CONTINUOUS
  62
7
  10
 724.75526228479
  20
 1488.0878884462
  30
0.0
  11
 724.75526228479
  21
 1492.0878884462
  31
0.0
   0
LINE
   5
38E
 100
AcDbEntity
   8
LEVEL001
 370
40
 100
AcDbLine
   6
CONTINUOUS
  62
7
  10
 724.75526228479
  20
 1421.0878884462
  30
0.0
  11
 724.75526228479
  21
 1417.0878884462
  31
0.0
   0
LINE
   5
38F
 100
AcDbEntity
   8
LEVEL001
 370
40
 100
AcDbLine
   6
CONTINUOUS
  62
7
  10
 564.75526228479
  20
 1421.0878884462
  30
0.0
  11
 564.75526228479
  21
 1417.0878884462
  31
0.0
   0
LINE
   5
390
 100
AcDbEntity
   8
LEVEL001
 370
9
 100
AcDbLine
   6
DASHDOT
  62
11
  10
 644.75526228479
  20
 1412.3676577614
  30
0.0
  11
 644.75526228479
  21
 1498.2669229088
  31
0.0
   0
INSERT
   5
391
 100
AcDbEntity
   8
0
 100
AcDbBlockReference
   2
BLOCK018
  10
0.0
  20
0.0
  30
0.0
   0
INSERT
   5
392
 100
AcDbEntity
   8
0
 100
AcDbBlockReference
   2
BLOCK019
  10
0.0
  20
0.0
  30
0.0
   0
INSERT
   5
393
 100
AcDbEntity
   8
0
 100
AcDbBlockReference
   2
BLOCK020
  10
0.0
  20
0.0
  30
0.0
   0
INSERT
   5
394
 100
AcDbEntity
   8
0
 100
AcDbBlockReference
   2
BLOCK021
  10
0.0
  20
0.0
  30
0.0
   0
INSERT
   5
395
 100
AcDbEntity
   8
0
 100
AcDbBlockReference
   2
BLOCK022
  10
0.0
  20
0.0
  30
0.0
   0
CIRCLE
   5
396
 100
AcDbEntity
   8
LEVEL001
 370
40
 100
AcDbCircle
   6
CONTINUOUS
  62
7
  10
 733.75526228479
  20
 1509.5878884462
  30
0.0
  40
 7.0000000000000
   0
LINE
   5
397
 100
AcDbEntity
   8
LEVEL001
 370
25
 100
AcDbLine
   6
DASHDOT
  62
3
  10
 733.75526228479
  20
 1497.5878884462
  30
0.0
  11
 733.75526228479
  21
 1521.5878884462
  31
0.0
   0
LINE
   5
398
 100
AcDbEntity
   8
LEVEL001
 370
25
 100
AcDbLine
   6
DASHDOT
  62
3
  10
 745.75526228479
  20
 1509.5878884462
  30
0.0
  11
 721.75526228479
  21
 1509.5878884462
  31
0.0
   0
CIRCLE
   5
399
 100
AcDbEntity
   8
LEVEL001
 370
40
 100
AcDbCircle
   6
CONTINUOUS
  62
7
  10
 163.75526228479
  20
 1509.5878884462
  30
0.0
  40
 7.0000000000000
   0
LINE
   5
39A
 100
AcDbEntity
   8
LEVEL001
 370
25
 100
AcDbLine
   6
DASHDOT
  62
3
  10
 163.75526228479
  20
 1497.5878884462
  30
0.0
  11
 163.75526228479
  21
 1521.5878884462
  31
0.0
   0
LINE
   5
39B
 100
AcDbEntity
   8
LEVEL001
 370
25
 100
AcDbLine
   6
DASHDOT
  62
3
  10
 175.75526228479
  20
 1509.5878884462
  30
0.0
  11
 151.75526228479
  21
 1509.5878884462
  31
0.0
   0
CIRCLE
   5
39C
 100
AcDbEntity
   8
LEVEL001
 370
40
 100
AcDbCircle
   6
CONTINUOUS
  62
7
  10
 163.75526228479
  20
 989.58788844617
  30
0.0
  40
 7.0000000000000
   0
LINE
   5
39D
 100
AcDbEntity
   8
LEVEL001
 370
25
 100
AcDbLine
   6
DASHDOT
  62
3
  10
 163.75526228479
  20
 977.58788844617
  30
0.0
  11
 163.75526228479
  21
 1001.5878884462
  31
0.0
   0
LINE
   5
39E
 100
AcDbEntity
   8
LEVEL001
 370
25
 100
AcDbLine
   6
DASHDOT
  62
3
  10
 175.75526228479
  20
 989.58788844617
  30
0.0
  11
 151.75526228479
  21
 989.58788844617
  31
0.0
   0
CIRCLE
   5
39F
 100
AcDbEntity
   8
LEVEL001
 370
40
 100
AcDbCircle
   6
CONTINUOUS
  62
7
  10
 733.75526228479
  20
 989.58788844617
  30
0.0
  40
 7.0000000000000
   0
LINE
   5
3A0
 100
AcDbEntity
   8
LEVEL001
 370
25
 100
AcDbLine
   6
DASHDOT
  62
3
  10
 733.75526228479
  20
 977.58788844617
  30
0.0
  11
 733.75526228479
  21
 1001.5878884462
  31
0.0
   0
LINE
   5
3A1
 100
AcDbEntity
   8
LEVEL001
 370
25
 100
AcDbLine
   6
DASHDOT
  62
3
  10
 745.75526228479
  20
 989.58788844617
  30
0.0
  11
 721.75526228479
  21
 989.58788844617
  31
0.0
   0
LINE
   5
3A2
 100
AcDbEntity
   8
LEVEL001
 370
25
 100
AcDbLine
   6
DOT
  62
3
  10
 758.75526228479
  20
 1421.0878884462
  30
0.0
  11
 758.75526228479
  21
 1488.0878884462
  31
0.0
   0
LINE
   5
3A3
 100
AcDbEntity
   8
LEVEL001
 370
25
 100
AcDbLine
   6
DASHDOT
  62
3
  10
 833.31348667095
  20
 1214.5878884462
  30
0.0
  11
 54.610674898112
  21
 1214.5878884462
  31
0.0
   0
DIMENSION
   5
3A4
 100
AcDbEntity
   8
LEVEL001
 370
40
   6
CONTINUOUS
  62
7
 100
AcDbDimension
   2
*D6
  10
 34.189183637179
  20
 1509.5878884462
  30
0.0
  11
 34.189183637179
  21
 1559.3857574383
  31
0.0
  70
128
   3
GMM004
 100
AcDbAlignedDimension
  13
 138.75526228479
  23
 1534.5878884462
  33
0.0
  14
 151.75526228479
  24
 1509.5878884462
  34
0.0
  50
 270.00000000000
 100
AcDbRotatedDimension
   0
DIMENSION
   5
3A5
 100
AcDbEntity
   8
LEVEL001
 370
40
   6
CONTINUOUS
  62
7
 100
AcDbDimension
   2
*D7
  10
 34.189183637179
  20
 989.58788844617
  30
0.0
  11
 34.189183637179
  21
 1249.5878884462
  31
0.0
  70
0
   3
GMM002
 100
AcDbAlignedDimension
  13
 151.75526228479
  23
 1509.5878884462
  33
0.0
  14
 151.75526228479
  24
 989.58788844617
  34
0.0
  50
 270.00000000000
 100
AcDbRotatedDimension
   0
DIMENSION
   5
3A6
 100
AcDbEntity
   8
LEVEL001
 370
40
   6
CONTINUOUS
  62
7
 100
AcDbDimension
   2
*D8
  10
-21.923460402509
  20
 964.58788844617
  30
0.0
  11
-21.923460402509
  21
 1249.5878884462
  31
0.0
  70
0
   3
GMM002
 100
AcDbAlignedDimension
  13
 138.75526228479
  23
 1534.5878884462
  33
0.0
  14
 138.75526228479
  24
 964.58788844617
  34
0.0
  50
 270.00000000000
 100
AcDbRotatedDimension
   0
INSERT
   5
3A7
 100
AcDbEntity
   8
0
 100
AcDbBlockReference
   2
BLOCK023
  10
0.0
  20
0.0
  30
0.0
   0
INSERT
   5
3A8
 100
AcDbEntity
   8
0
 100
AcDbBlockReference
   2
BLOCK024
  10
0.0
  20
0.0
  30
0.0
   0
LINE
   5
3A9
 100
AcDbEntity
   8
LEVEL001
 370
25
 100
AcDbLine
   6
DASHDOT
  62
3
  10
 378.75526228479
  20
 901.61957796014
  30
0.0
  11
 378.75526228479
  21
 1511.8037955140
  31
0.0
   0
LINE
   5
3AA
 100
AcDbEntity
   8
LEVEL001
 370
25
 100
AcDbLine
   6
DOT
  62
3
  10
 251.59183568784
  20
 964.58788844617
  30
0.0
  11
 465.91868888174
  21
 964.58788844617
  31
0.0
   0
LWPOLYLINE
   5
3AB
 100
AcDbEntity
   8
LEVEL001
 370
40
   6
CONTINUOUS
  62
7
 100
AcDbPolyline
  90
3
  70
0
  10
 758.75526228479
  20
 1421.0878884462
  10
 758.75526228479
  20
 964.58788844617
  10
 465.91868888174
  20
 964.58788844617
   0
LWPOLYLINE
   5
3AC
 100
AcDbEntity
   8
LEVEL001
 370
40
   6
CONTINUOUS
  62
7
 100
AcDbPolyline
  90
3
  70
0
  10
 251.59183568784
  20
 964.58788844617
  10
 138.75526228479
  20
 964.58788844617
  10
 138.75526228479
  20
 1054.6378962611
   0
LWPOLYLINE
   5
3AD
 100
AcDbEntity
   8
LEVEL001
 370
40
   6
CONTINUOUS
  62
7
 100
AcDbPolyline
  90
4
  70
0
  10
 138.75526228479
  20
 1380.9128715365
  10
 138.75526228479
  20
 1534.5878884462
  10
 758.75526228479
  20
 1534.5878884462
  10
 758.75526228479
  20
 1488.0878884462
   0
LINE
   5
3AE
 100
AcDbEntity
   8
LEVEL001
 370
25
 100
AcDbLine
   6
DOT
  62
3
  10
 138.75526228479
  20
 1054.6378962611
  30
0.0
  11
 138.75526228479
  21
 1380.9128715365
  31
0.0
   0
DIMENSION
   5
3AF
 100
AcDbEntity
   8
LEVEL001
 370
40
   6
CONTINUOUS
  62
7
 100
AcDbDimension
   2
*D9
  10
 733.75526228479
  20
 1635.1928122445
  30
0.0
  11
 448.75526228479
  21
 1635.1928122445
  31
0.0
  70
0
   3
GMM002
 100
AcDbAlignedDimension
  13
 163.75526228479
  23
 1521.5878884462
  33
0.0
  14
 733.75526228479
  24
 1521.5878884462
  34
0.0
 100
AcDbRotatedDimension
   0
DIMENSION
   5
3B0
 100
AcDbEntity
   8
LEVEL001
 370
40
   6
CONTINUOUS
  62
7
 100
AcDbDimension
   2
*D10
  10
 758.75526228479
  20
 1635.1928122445
  30
0.0
  11
 783.34711975933
  21
 1635.1928122445
  31
0.0
  70
128
   3
GMM005
 100
AcDbAlignedDimension
  13
 733.75526228479
  23
 1521.5878884462
  33
0.0
  14
 758.75526228479
  24
 1534.5878884462
  34
0.0
 100
AcDbRotatedDimension
   0
DIMENSION
   5
3B1
 100
AcDbEntity
   8
LEVEL001
 370
40
   6
CONTINUOUS
  62
7
 100
AcDbDimension
   2
*D11
  10
 758.75526228479
  20
 1696.4729998178
  30
0.0
  11
 448.75526228479
  21
 1696.4729998178
  31
0.0
  70
0
   3
GMM002
 100
AcDbAlignedDimension
  13
 138.75526228479
  23
 1534.5878884462
  33
0.0
  14
 758.75526228479
  24
 1534.5878884462
  34
0.0
 100
AcDbRotatedDimension
   0
DIMENSION
   5
3B2
 100
AcDbEntity
   8
LEVEL001
 370
40
   6
CONTINUOUS
  62
7
 100
AcDbDimension
   2
*D12
  10
 978.75526228479
  20
 1696.4729998178
  30
0.0
  11
 868.75526228479
  21
 1696.4729998178
  31
0.0
  70
0
   3
GMM002
 100
AcDbAlignedDimension
  13
 758.75526228479
  23
 1534.5878884462
  33
0.0
  14
 978.75526228479
  24
 1470.5878884462
  34
0.0
 100
AcDbRotatedDimension
   0
DIMENSION
   5
3B3
 100
AcDbEntity
   8
LEVEL001
 370
40
   6
CONTINUOUS
  62
7
 100
AcDbDimension
   2
*D13
  10
 876.43721068662
  20
 1454.5878884462
  30
0.0
  11
 876.43721068662
  21
 1504.1563090067
  31
0.0
  70
128
   3
GMM006
 100
AcDbAlignedDimension
  13
 758.75526228479
  23
 1534.5878884462
  33
0.0
  14
 877.63462011675
  24
 1454.5878884462
  34
0.0
  50
 270.00000000000
 100
AcDbRotatedDimension
   0
DIMENSION
   5
3B4
 100
AcDbEntity
   8
LEVEL001
 370
40
   6
CONTINUOUS
  62
7
 100
AcDbDimension
   2
*D14
  10
 876.43721068662
  20
 1214.5878884462
  30
0.0
  11
 876.43721068662
  21
 1334.5878884462
  31
0.0
  70
0
   1
\A1;（２４０）
   3
GMM001
 100
AcDbAlignedDimension
  13
 877.63462011675
  23
 1454.5878884462
  33
0.0
  14
 833.31348667095
  24
 1214.5878884462
  34
0.0
  50
 270.00000000000
 100
AcDbRotatedDimension
   0
LEADER
   5
3B6
 100
AcDbEntity
   8
LEVEL001
 370
40
   6
CONTINUOUS
  62
3
 100
AcDbLeader
   3
GMM007
  73
0
  74
0
  75
0
  40
 20.000000000000
  41
 243.00265873939
  76
2
  10
 159.88957393827
  20
 1517.7829961006
  30
0.0
  10
 27.845461337119
  20
 1765.7868705180
  30
0.0
  77
3
 340
3B8
 213
0.0
 223
-8.5714285714287
 233
0.0
   0
MTEXT
   5
3B8
 102
{ACAD_REACTORS
 330
3B7
 102
}
 100
AcDbEntity
   8
LEVEL001
 370
40
  62
7
 100
AcDbMText
  10
 46.848120076505
  20
 1774.3582990895
  30
0.0
  40
 20.000000000000
  41
0.0
  71
7
  72
1
   1
\A1;４－φ１４取付穴
   7
GMM003
   0
ENDSEC
  0
SECTION
  2
OBJECTS
  0
DICTIONARY
  5
C
100
AcDbDictionary
  3
ACAD_GROUP
350
D
  3
ACAD_MLINESTYLE
350
1B
  0
DICTIONARY
  5
D
102
{ACAD_REACTORS
330
C
102
}
100
AcDbDictionary
  0
DICTIONARY
  5
1B
102
{ACAD_REACTORS
330
C
102
}
100
AcDbDictionary
  3
STANDARD
350
1C
  0
MLINESTYLE
  5
1C
102
{ACAD_REACTORS
330
1B
102
}
100
AcDbMlineStyle
  2
STANDARD
 70
     0
  3

 62
   256
 51
90.0
 52
90.0
 71
     2
 49
0.5
 62
   256
  6
BYLAYER
 49
-0.5
 62
   256
  6
BYLAYER
  0
ENDSEC
   0
EOF
