   0
SECTION
   2
HEADER
   9
$ACADVER
   1
AC1015
   9
$DWGCODEPAGE
   3
ANSI_932
   9
$LIMMIN
  10
-210.00000000000
  20
-148.50000000000
   9
$LIMMAX
  10
 1470.0000000000
  20
 2227.5000000000
   9
$EXTMIN
  10
-210.00000000000
  20
-148.50000000000
  30
0.0
   9
$EXTMAX
  10
 1470.0000000000
  20
 2227.5000000000
  30
0.0
   9
$LTSCALE
  40
 47.520000000000
   9
$HANDSEED
   5
3C0
   0
ENDSEC
   0
SECTION
   2
TABLES
  0
TABLE
  2
VPORT
  5
8
100
AcDbSymbolTable
 70
     1
  0
VPORT
  5
3BF
100
AcDbSymbolTableRecord
100
AcDbViewportTableRecord
  2
*ACTIVE
 70
     0
 10
0.0
 20
0.0
 11
1.0
 21
1.0
  12
 630.00000000000
  22
 1039.5000000000
 13
0.0
 23
0.0
 14
1.0
 24
1.0
 15
0.0
 25
0.0
 16
0.0
 26
0.0
 36
1.0
 17
0.0
 27
0.0
 37
0.0
  40
 2376.0000000000
  41
 1.4787878787879
 42
50.0
 43
0.0
 44
0.0
 50
0.0
 51
0.0
 71
     0
 72
   100
 73
     1
 74
     1
 75
     0
 76
     0
 77
     0
 78
     0
  0
ENDTAB
  0
TABLE
  2
LTYPE
  5
5
100
AcDbSymbolTable
 70
    25
  0
LTYPE
  5
12
100
AcDbSymbolTableRecord
100
AcDbLinetypeTableRecord
  2
BYBLOCK
 70
     0
  3

 72
    65
 73
     0
 40
0.0
  0
LTYPE
  5
13
100
AcDbSymbolTableRecord
100
AcDbLinetypeTableRecord
  2
BYLAYER
 70
     0
  3

 72
    65
 73
     0
 40
0.0
  0
LTYPE
  5
14
100
AcDbSymbolTableRecord
100
AcDbLinetypeTableRecord
  2
CONTINUOUS
 70
     0
  3
Solid line
 72
    65
 73
     0
 40
0.0
  0
LTYPE
  5
20
100
AcDbSymbolTableRecord
100
AcDbLinetypeTableRecord
  2
BORDER
 70
     0
  3
__ __ . __ __ . __ __ . __ __ . __ __ . __ __ .
 72
    65
 73
     6
 40
1.75
 49
0.5
 74
     0
 49
-0.25
 74
     0
 49
0.5
 74
     0
 49
-0.25
 74
     0
 49
0.0
 74
     0
 49
-0.25
 74
     0
  0
LTYPE
  5
21
100
AcDbSymbolTableRecord
100
AcDbLinetypeTableRecord
  2
BORDER2
 70
     0
  3
__.__.__.__.__.__.__.__.__.__.__.__.__.__.__.__
 72
    65
 73
     6
 40
0.875
 49
0.25
 74
     0
 49
-0.125
 74
     0
 49
0.25
 74
     0
 49
-0.125
 74
     0
 49
0.0
 74
     0
 49
-0.125
 74
     0
  0
LTYPE
  5
22
100
AcDbSymbolTableRecord
100
AcDbLinetypeTableRecord
  2
BORDERX2
 70
     0
  3
____  ____  .  ____  ____  .  ____  ____  .  __
 72
    65
 73
     6
 40
3.5
 49
1.0
 74
     0
 49
-0.5
 74
     0
 49
1.0
 74
     0
 49
-0.5
 74
     0
 49
0.0
 74
     0
 49
-0.5
 74
     0
  0
LTYPE
  5
23
100
AcDbSymbolTableRecord
100
AcDbLinetypeTableRecord
  2
CENTER
 70
     0
  3
____ _ ____ _ ____ _ ____ _ ____ _ ____ _ ____ 
 72
    65
 73
     4
 40
2.0
 49
1.25
 74
     0
 49
-0.25
 74
     0
 49
0.25
 74
     0
 49
-0.25
 74
     0
  0
LTYPE
  5
24
100
AcDbSymbolTableRecord
100
AcDbLinetypeTableRecord
  2
CENTER2
 70
     0
  3
___ _ ___ _ ___ _ ___ _ ___ _ ___ _ ___ _ ___ _
 72
    65
 73
     4
 40
1.125
 49
0.75
 74
     0
 49
-0.125
 74
     0
 49
0.125
 74
     0
 49
-0.125
 74
     0
  0
LTYPE
  5
25
100
AcDbSymbolTableRecord
100
AcDbLinetypeTableRecord
  2
CENTERX2
 70
     0
  3
________  __  ________  __  ________  __  _____
 72
    65
 73
     4
 40
4.0
 49
2.5
 74
     0
 49
-0.5
 74
     0
 49
0.5
 74
     0
 49
-0.5
 74
     0
  0
LTYPE
  5
26
100
AcDbSymbolTableRecord
100
AcDbLinetypeTableRecord
  2
DASHDOT
 70
     0
  3
__ . __ . __ . __ . __ . __ . __ . __ . __ . __
 72
    65
 73
     4
 40
1.0
 49
0.5
 74
     0
 49
-0.25
 74
     0
 49
0.0
 74
     0
 49
-0.25
 74
     0
  0
LTYPE
  5
27
100
AcDbSymbolTableRecord
100
AcDbLinetypeTableRecord
  2
DASHDOT2
 70
     0
  3
_._._._._._._._._._._._._._._._._._._._._._._._
 72
    65
 73
     4
 40
0.5
 49
0.25
 74
     0
 49
-0.125
 74
     0
 49
0.0
 74
     0
 49
-0.125
 74
     0
  0
LTYPE
  5
28
100
AcDbSymbolTableRecord
100
AcDbLinetypeTableRecord
  2
DASHDOTX2
 70
     0
  3
____  .  ____  .  ____  .  ____  .  ____  .  __
 72
    65
 73
     4
 40
2.0
 49
1.0
 74
     0
 49
-0.5
 74
     0
 49
0.0
 74
     0
 49
-0.5
 74
     0
  0
LTYPE
  5
29
100
AcDbSymbolTableRecord
100
AcDbLinetypeTableRecord
  2
DASHED
 70
     0
  3
__ __ __ __ __ __ __ __ __ __ __ __ __ __ __ __
 72
    65
 73
     2
 40
0.75
 49
0.5
 74
     0
 49
-0.25
 74
     0
  0
LTYPE
  5
2A
100
AcDbSymbolTableRecord
100
AcDbLinetypeTableRecord
  2
DASHED2
 70
     0
  3
_ _ _ _ _ _ _ _ _ _ _ _ _ _ _ _ _ _ _ _ _ _ _ _
 72
    65
 73
     2
 40
0.375
 49
0.25
 74
     0
 49
-0.125
 74
     0
  0
LTYPE
  5
2B
100
AcDbSymbolTableRecord
100
AcDbLinetypeTableRecord
  2
DASHEDX2
 70
     0
  3
____  ____  ____  ____  ____  ____  ____  ____ 
 72
    65
 73
     2
 40
1.5
 49
1.0
 74
     0
 49
-0.5
 74
     0
  0
LTYPE
  5
2C
100
AcDbSymbolTableRecord
100
AcDbLinetypeTableRecord
  2
DIVIDE
 70
     0
  3
____ . . ____ . . ____ . . ____ . . ____ . . __
 72
    65
 73
     6
 40
1.25
 49
0.5
 74
     0
 49
-0.25
 74
     0
 49
0.0
 74
     0
 49
-0.25
 74
     0
 49
0.0
 74
     0
 49
-0.25
 74
     0
  0
LTYPE
  5
2D
100
AcDbSymbolTableRecord
100
AcDbLinetypeTableRecord
  2
DIVIDE2
 70
     0
  3
__..__..__..__..__..__..__..__..__..__..__..__.
 72
    65
 73
     6
 40
0.625
 49
0.25
 74
     0
 49
-0.125
 74
     0
 49
0.0
 74
     0
 49
-0.125
 74
     0
 49
0.0
 74
     0
 49
-0.125
 74
     0
  0
LTYPE
  5
2E
100
AcDbSymbolTableRecord
100
AcDbLinetypeTableRecord
  2
DIVIDEX2
 70
     0
  3
________  .  .  ________  .  .  ________  .  . 
 72
    65
 73
     6
 40
2.5
 49
1.0
 74
     0
 49
-0.5
 74
     0
 49
0.0
 74
     0
 49
-0.5
 74
     0
 49
0.0
 74
     0
 49
-0.5
 74
     0
  0
LTYPE
  5
2F
100
AcDbSymbolTableRecord
100
AcDbLinetypeTableRecord
  2
DOT
 70
     0
  3
. . . . . . . . . . . . . . . . . . . . . . . .
 72
    65
 73
     2
 40
0.25
 49
0.0
 74
     0
 49
-0.25
 74
     0
  0
LTYPE
  5
30
100
AcDbSymbolTableRecord
100
AcDbLinetypeTableRecord
  2
DOT2
 70
     0
  3
...............................................
 72
    65
 73
     2
 40
0.125
 49
0.0
 74
     0
 49
-0.125
 74
     0
  0
LTYPE
  5
31
100
AcDbSymbolTableRecord
100
AcDbLinetypeTableRecord
  2
DOTX2
 70
     0
  3
.  .  .  .  .  .  .  .  .  .  .  .  .  .  .  . 
 72
    65
 73
     2
 40
0.5
 49
0.0
 74
     0
 49
-0.5
 74
     0
  0
LTYPE
  5
32
100
AcDbSymbolTableRecord
100
AcDbLinetypeTableRecord
  2
HIDDEN
 70
     0
  3
__ __ __ __ __ __ __ __ __ __ __ __ __ __ __ __
 72
    65
 73
     2
 40
0.375
 49
0.25
 74
     0
 49
-0.125
 74
     0
  0
LTYPE
  5
33
100
AcDbSymbolTableRecord
100
AcDbLinetypeTableRecord
  2
HIDDEN2
 70
     0
  3
_ _ _ _ _ _ _ _ _ _ _ _ _ _ _ _ _ _ _ _ _ _ _ _
 72
    65
 73
     2
 40
0.1875
 49
0.125
 74
     0
 49
-0.0625
 74
     0
  0
LTYPE
  5
34
100
AcDbSymbolTableRecord
100
AcDbLinetypeTableRecord
  2
HIDDENX2
 70
     0
  3
____ ____ ____ ____ ____ ____ ____ ____ ____ __
 72
    65
 73
     2
 40
0.75
 49
0.5
 74
     0
 49
-0.25
 74
     0
  0
LTYPE
  5
35
100
AcDbSymbolTableRecord
100
AcDbLinetypeTableRecord
  2
PHANTOM
 70
     0
  3
______  __  __  ______  __  __  ______  __  __ 
 72
    65
 73
     6
 40
2.5
 49
1.25
 74
     0
 49
-0.25
 74
     0
 49
0.25
 74
     0
 49
-0.25
 74
     0
 49
0.25
 74
     0
 49
-0.25
 74
     0
  0
LTYPE
  5
36
100
AcDbSymbolTableRecord
100
AcDbLinetypeTableRecord
  2
PHANTOM2
 70
     0
  3
___ _ _ ___ _ _ ___ _ _ ___ _ _ ___ _ _ ___ _ _
 72
    65
 73
     6
 40
1.25
 49
0.625
 74
     0
 49
-0.125
 74
     0
 49
0.125
 74
     0
 49
-0.125
 74
     0
 49
0.125
 74
     0
 49
-0.125
 74
     0
  0
LTYPE
  5
37
100
AcDbSymbolTableRecord
100
AcDbLinetypeTableRecord
  2
PHANTOMX2
 70
     0
  3
____________    ____    ____    ____________   
 72
    65
 73
     6
 40
5.0
 49
2.5
 74
     0
 49
-0.5
 74
     0
 49
0.5
 74
     0
 49
-0.5
 74
     0
 49
0.5
 74
     0
 49
-0.5
 74
     0
  0
ENDTAB
   0
TABLE
   2
LAYER
   5
2
 100
AcDbSymbolTable
  70
2
   0
LAYER
   5
E
 100
AcDbSymbolTableRecord
 100
AcDbLayerTableRecord
   2
0
  70
0
  62
7
   6
CONTINUOUS
 390
30
   0
LAYER
   5
39
 100
AcDbSymbolTableRecord
 100
AcDbLayerTableRecord
   2
LEVEL001
  70
0
  62
7
   6
CONTINUOUS
 390
30
   0
ENDTAB
  0
TABLE
  2
STYLE
  5
3
100
AcDbSymbolTable
  70
5
  0
STYLE
  5
F
100
AcDbSymbolTableRecord
100
AcDbTextStyleTableRecord
  2
STANDARD
 70
     0
 40
0.0
 41
1.0
 50
0.0
 71
     0
 42
0.2
  3
TXT
  4
BIGFONT
  0
STYLE
  5
38
100
AcDbSymbolTableRecord
100
AcDbTextStyleTableRecord
  2
STANDARD1
 70
     4
 40
0.0
 41
1.0
 50
0.0
 71
     0
 42
0.2
  3
TXT
  4
BIGFONT
   0
STYLE
   5
3A
 100
AcDbSymbolTableRecord
 100
AcDbTextStyleTableRecord
   2
GMM001
  70
4
  40
0.0
  41
 1.0000000000000
  50
0.0
  71
     0
  42
1.0
   3

   4

1001
ACAD
1000
ＭＳ 明朝
1071
32785
   0
STYLE
   5
3B
 100
AcDbSymbolTableRecord
 100
AcDbTextStyleTableRecord
   2
GMM002
  70
0
  40
0.0
  41
 1.0000000000000
  50
0.0
  71
     0
  42
1.0
   3

   4

1001
ACAD
1000
ＭＳ 明朝
1071
32785
   0
STYLE
   5
3C
 100
AcDbSymbolTableRecord
 100
AcDbTextStyleTableRecord
   2
GMM003
  70
0
  40
0.0
  41
 1.0000000000000
  50
0.0
  71
     0
  42
1.0
   3

   4

1001
ACAD
1000
ＭＳ ゴシック
1071
32817
   0
ENDTAB
  0
TABLE
  2
VIEW
  5
6
100
AcDbSymbolTable
 70
     0
  0
ENDTAB
  0
TABLE
  2
UCS
  5
7
100
AcDbSymbolTable
 70
     0
  0
ENDTAB
  0
TABLE
  2
APPID
  5
9
100
AcDbSymbolTable
 70
     1
  0
APPID
  5
10
100
AcDbSymbolTableRecord
100
AcDbRegAppTableRecord
  2
ACAD
 70
     0
  0
ENDTAB
   0
TABLE
   2
DIMSTYLE
   5
A
 100
AcDbSymbolTable
  70
10
 100
AcDbDimStyleTable
  0
DIMSTYLE
105
1D
100
AcDbSymbolTableRecord
100
AcDbDimStyleTableRecord
  2
STANDARD
 70
     0
  3

  4

  5

  6

  7

 40
1.0
 41
0.18
 42
0.0625
 43
0.38
 44
0.18
 45
0.0
 46
0.0
 47
0.0
 48
0.0
140
0.18
141
0.09
142
0.0
143
25.4
144
1.0
145
0.0
146
1.0
147
0.09
 71
     0
 72
     0
 73
     1
 74
     1
 75
     0
 76
     0
 77
     0
 78
     0
170
     0
171
     2
172
     0
173
     0
174
     0
175
     0
176
     0
177
     0
178
     0
270
     2
271
     4
272
     4
273
     2
274
     2
340
F
275
     0
280
     0
281
     0
282
     0
283
     1
284
     0
285
     0
286
     0
287
     3
288
     0
   0
DIMSTYLE
 105
3D
 100
AcDbSymbolTableRecord
 100
AcDbDimStyleTableRecord
   2
GMM001
  70
0
   3

   4

   5

   6
_OPEN30
   7
_OPEN30
  40
 1.0000000000000
  41
 16.000000000000
  42
 8.0000000000000
  43
 64.000000000000
  44
 12.000000000000
  45
0.0
  46
0.0
  47
0.0
  48
0.0
 140
 20.000000000000
 141
 8.0000000000000
 142
0.0
 143
 0.39400000000000E-1
 144
 1.0000000000000
 145
0.0
 146
 1.0000000000000
 147
 9.6726903611357
  71
0
  72
0
  73
0
  74
0
  75
0
  76
0
  77
3
  78
8
 170
0
 171
2
 172
1
 173
1
 174
0
 175
0
 176
3
 177
3
 178
7
 270
2
 271
6
 272
0
 273
2
 274
2
 340
3C
 275
0
 280
0
 281
0
 282
0
 283
1
 284
0
 285
0
 286
0
 287
3
 288
1
   0
DIMSTYLE
 105
3E
 100
AcDbSymbolTableRecord
 100
AcDbDimStyleTableRecord
   2
GMM002
  70
0
   3

   4

   5

   6
_OPEN30
   7
_OPEN30
  40
 1.0000000000000
  41
 16.000000000000
  42
 8.0000000000000
  43
 64.000000000000
  44
 12.000000000000
  45
0.0
  46
0.0
  47
0.0
  48
0.0
 140
 20.000000000000
 141
 8.0000000000000
 142
0.0
 143
 0.39400000000000E-1
 144
 1.0000000000000
 145
0.0
 146
 1.0000000000000
 147
 8.5714285714286
  71
0
  72
0
  73
0
  74
0
  75
0
  76
0
  77
3
  78
8
 170
0
 171
2
 172
1
 173
1
 174
0
 175
0
 176
3
 177
3
 178
7
 270
2
 271
6
 272
0
 273
2
 274
2
 340
3C
 275
0
 280
0
 281
0
 282
0
 283
1
 284
0
 285
0
 286
0
 287
3
 288
0
   0
DIMSTYLE
 105
3F
 100
AcDbSymbolTableRecord
 100
AcDbDimStyleTableRecord
   2
GMM003
  70
0
   3
（<>
   4

   5

   6
_OPEN30
   7
_OPEN30
  40
 1.0000000000000
  41
 16.000000000000
  42
 8.0000000000000
  43
 64.000000000000
  44
 12.000000000000
  45
0.0
  46
0.0
  47
0.0
  48
0.0
 140
 20.000000000000
 141
 8.0000000000000
 142
0.0
 143
 0.39400000000000E-1
 144
 1.0000000000000
 145
0.0
 146
 1.0000000000000
 147
 8.5714285714286
  71
0
  72
0
  73
0
  74
0
  75
0
  76
0
  77
3
  78
8
 170
0
 171
2
 172
1
 173
1
 174
0
 175
0
 176
3
 177
3
 178
7
 270
2
 271
6
 272
0
 273
2
 274
2
 340
3C
 275
0
 280
0
 281
0
 282
0
 283
1
 284
0
 285
0
 286
0
 287
3
 288
0
   0
DIMSTYLE
 105
40
 100
AcDbSymbolTableRecord
 100
AcDbDimStyleTableRecord
   2
GMM004
  70
0
   3
φ<>
   4

   5

   6
_OPEN30
   7
_OPEN30
  40
 1.0000000000000
  41
 16.000000000000
  42
 8.0000000000000
  43
 64.000000000000
  44
 12.000000000000
  45
0.0
  46
0.0
  47
0.0
  48
0.0
 140
 20.000000000000
 141
 8.0000000000000
 142
0.0
 143
 0.39400000000000E-1
 144
 1.0000000000000
 145
0.0
 146
 1.0000000000000
 147
 8.5714285714286
  71
0
  72
0
  73
0
  74
0
  75
0
  76
0
  77
3
  78
8
 170
0
 171
2
 172
1
 173
1
 174
0
 175
0
 176
3
 177
3
 178
7
 270
2
 271
6
 272
0
 273
2
 274
2
 340
3C
 275
0
 280
0
 281
0
 282
0
 283
1
 284
0
 285
0
 286
0
 287
3
 288
0
   0
DIMSTYLE
 105
41
 100
AcDbSymbolTableRecord
 100
AcDbDimStyleTableRecord
   2
GMM005
  70
0
   3

   4

   5

   6
_OPEN30
   7
_OPEN30
  40
 1.0000000000000
  41
 16.000000000000
  42
 8.0000000000000
  43
 64.000000000000
  44
 12.000000000000
  45
0.0
  46
0.0
  47
0.0
  48
0.0
 140
 20.000000000000
 141
 8.0000000000000
 142
0.0
 143
 0.39400000000000E-1
 144
 1.0000000000000
 145
0.0
 146
 1.0000000000000
 147
 9.1398007033995
  71
0
  72
0
  73
0
  74
0
  75
0
  76
0
  77
3
  78
8
 170
0
 171
2
 172
1
 173
1
 174
0
 175
0
 176
3
 177
3
 178
7
 270
2
 271
6
 272
0
 273
2
 274
2
 340
3C
 275
0
 280
0
 281
0
 282
0
 283
1
 284
0
 285
0
 286
0
 287
3
 288
1
   0
DIMSTYLE
 105
42
 100
AcDbSymbolTableRecord
 100
AcDbDimStyleTableRecord
   2
GMM006
  70
0
   3

   4

   5

   6
_OPEN30
   7
_OPEN30
  40
 1.0000000000000
  41
 16.000000000000
  42
 8.0000000000000
  43
 64.000000000000
  44
 12.000000000000
  45
0.0
  46
0.0
  47
0.0
  48
0.0
 140
 20.000000000000
 141
 8.0000000000000
 142
0.0
 143
 0.39400000000000E-1
 144
 1.0000000000000
 145
0.0
 146
 1.0000000000000
 147
0.0
  71
0
  72
0
  73
0
  74
0
  75
0
  76
0
  77
1
  78
8
 170
0
 171
2
 172
1
 173
1
 174
0
 175
0
 176
3
 177
3
 178
7
 270
2
 271
6
 272
0
 273
2
 274
2
 340
3C
 275
0
 280
0
 281
0
 282
0
 283
1
 284
0
 285
0
 286
0
 287
3
 288
0
   0
DIMSTYLE
 105
43
 100
AcDbSymbolTableRecord
 100
AcDbDimStyleTableRecord
   2
GMM007
  70
0
   3

   4

   5

   6
_OPEN30
   7
_NONE
  40
 1.0000000000000
  41
 16.000000000000
  42
 8.0000000000000
  43
 64.000000000000
  44
 12.000000000000
  45
0.0
  46
0.0
  47
0.0
  48
0.0
 140
 20.000000000000
 141
 8.0000000000000
 142
0.0
 143
 0.39400000000000E-1
 144
 1.0000000000000
 145
0.0
 146
 1.0000000000000
 147
 5.2439739227404
  71
0
  72
0
  73
0
  74
0
  75
0
  76
0
  77
3
  78
8
 170
0
 171
2
 172
1
 173
1
 174
0
 175
0
 176
3
 177
3
 178
7
 270
2
 271
6
 272
0
 273
2
 274
2
 340
3C
 275
0
 280
0
 281
0
 282
0
 283
1
 284
0
 285
0
 286
0
 287
3
 288
1
   0
DIMSTYLE
 105
44
 100
AcDbSymbolTableRecord
 100
AcDbDimStyleTableRecord
   2
GMM008
  70
0
   3

   4

   5

   6
_NONE
   7
_OPEN30
  40
 1.0000000000000
  41
 16.000000000000
  42
 8.0000000000000
  43
 64.000000000000
  44
 12.000000000000
  45
0.0
  46
0.0
  47
0.0
  48
0.0
 140
 20.000000000000
 141
 8.0000000000000
 142
0.0
 143
 0.39400000000000E-1
 144
 1.0000000000000
 145
0.0
 146
 1.0000000000000
 147
 6.1016927343951
  71
0
  72
0
  73
0
  74
0
  75
0
  76
0
  77
3
  78
8
 170
0
 171
2
 172
1
 173
1
 174
0
 175
0
 176
3
 177
3
 178
7
 270
2
 271
6
 272
0
 273
2
 274
2
 340
3C
 275
0
 280
0
 281
0
 282
0
 283
1
 284
0
 285
0
 286
0
 287
3
 288
1
   0
ENDTAB
  0
TABLE
  2
BLOCK_RECORD
  5
1
100
AcDbSymbolTable
 70
     0
  0
BLOCK_RECORD
  5
18
100
AcDbSymbolTableRecord
100
AcDbBlockTableRecord
  2
*MODEL_SPACE
  0
BLOCK_RECORD
  5
15
100
AcDbSymbolTableRecord
100
AcDbBlockTableRecord
  2
*PAPER_SPACE
   0
BLOCK_RECORD
   5
45
 100
AcDbSymbolTableRecord
 100
AcDbBlockTableRecord
   2
BLOCK001
   0
BLOCK_RECORD
   5
46
 100
AcDbSymbolTableRecord
 100
AcDbBlockTableRecord
   2
BLOCK002
   0
BLOCK_RECORD
   5
47
 100
AcDbSymbolTableRecord
 100
AcDbBlockTableRecord
   2
BLOCK003
   0
BLOCK_RECORD
   5
48
 100
AcDbSymbolTableRecord
 100
AcDbBlockTableRecord
   2
BLOCK004
   0
BLOCK_RECORD
   5
49
 100
AcDbSymbolTableRecord
 100
AcDbBlockTableRecord
   2
BLOCK005
   0
BLOCK_RECORD
   5
4A
 100
AcDbSymbolTableRecord
 100
AcDbBlockTableRecord
   2
BLOCK006
   0
BLOCK_RECORD
   5
4B
 100
AcDbSymbolTableRecord
 100
AcDbBlockTableRecord
   2
BLOCK007
   0
BLOCK_RECORD
   5
4C
 100
AcDbSymbolTableRecord
 100
AcDbBlockTableRecord
   2
BLOCK008
   0
BLOCK_RECORD
   5
4D
 100
AcDbSymbolTableRecord
 100
AcDbBlockTableRecord
   2
*D1
   0
BLOCK_RECORD
   5
4E
 100
AcDbSymbolTableRecord
 100
AcDbBlockTableRecord
   2
*D2
   0
BLOCK_RECORD
   5
4F
 100
AcDbSymbolTableRecord
 100
AcDbBlockTableRecord
   2
BLOCK009
   0
BLOCK_RECORD
   5
50
 100
AcDbSymbolTableRecord
 100
AcDbBlockTableRecord
   2
*D3
   0
BLOCK_RECORD
   5
51
 100
AcDbSymbolTableRecord
 100
AcDbBlockTableRecord
   2
*D4
   0
BLOCK_RECORD
   5
52
 100
AcDbSymbolTableRecord
 100
AcDbBlockTableRecord
   2
*D5
   0
BLOCK_RECORD
   5
53
 100
AcDbSymbolTableRecord
 100
AcDbBlockTableRecord
   2
*D6
   0
BLOCK_RECORD
   5
54
 100
AcDbSymbolTableRecord
 100
AcDbBlockTableRecord
   2
BLOCK010
   0
BLOCK_RECORD
   5
55
 100
AcDbSymbolTableRecord
 100
AcDbBlockTableRecord
   2
BLOCK011
   0
BLOCK_RECORD
   5
56
 100
AcDbSymbolTableRecord
 100
AcDbBlockTableRecord
   2
BLOCK012
   0
BLOCK_RECORD
   5
57
 100
AcDbSymbolTableRecord
 100
AcDbBlockTableRecord
   2
BLOCK013
   0
BLOCK_RECORD
   5
58
 100
AcDbSymbolTableRecord
 100
AcDbBlockTableRecord
   2
BLOCK014
   0
BLOCK_RECORD
   5
59
 100
AcDbSymbolTableRecord
 100
AcDbBlockTableRecord
   2
BLOCK015
   0
BLOCK_RECORD
   5
5A
 100
AcDbSymbolTableRecord
 100
AcDbBlockTableRecord
   2
BLOCK016
   0
BLOCK_RECORD
   5
5B
 100
AcDbSymbolTableRecord
 100
AcDbBlockTableRecord
   2
BLOCK017
   0
BLOCK_RECORD
   5
5C
 100
AcDbSymbolTableRecord
 100
AcDbBlockTableRecord
   2
*D7
   0
BLOCK_RECORD
   5
5D
 100
AcDbSymbolTableRecord
 100
AcDbBlockTableRecord
   2
*D8
   0
BLOCK_RECORD
   5
5E
 100
AcDbSymbolTableRecord
 100
AcDbBlockTableRecord
   2
*D9
   0
BLOCK_RECORD
   5
5F
 100
AcDbSymbolTableRecord
 100
AcDbBlockTableRecord
   2
*D10
   0
BLOCK_RECORD
   5
60
 100
AcDbSymbolTableRecord
 100
AcDbBlockTableRecord
   2
*D12
   0
BLOCK_RECORD
   5
61
 100
AcDbSymbolTableRecord
 100
AcDbBlockTableRecord
   2
*D13
   0
BLOCK_RECORD
   5
62
 100
AcDbSymbolTableRecord
 100
AcDbBlockTableRecord
   2
*D14
   0
BLOCK_RECORD
   5
63
 100
AcDbSymbolTableRecord
 100
AcDbBlockTableRecord
   2
BLOCK018
   0
BLOCK_RECORD
   5
64
 100
AcDbSymbolTableRecord
 100
AcDbBlockTableRecord
   2
*D15
   0
BLOCK_RECORD
   5
65
 100
AcDbSymbolTableRecord
 100
AcDbBlockTableRecord
   2
*D16
   0
BLOCK_RECORD
   5
66
 100
AcDbSymbolTableRecord
 100
AcDbBlockTableRecord
   2
BLOCK019
   0
BLOCK_RECORD
   5
67
 100
AcDbSymbolTableRecord
 100
AcDbBlockTableRecord
   2
BLOCK020
   0
BLOCK_RECORD
   5
68
 100
AcDbSymbolTableRecord
 100
AcDbBlockTableRecord
   2
BLOCK021
   0
BLOCK_RECORD
   5
69
 100
AcDbSymbolTableRecord
 100
AcDbBlockTableRecord
   2
BLOCK022
   0
BLOCK_RECORD
   5
6A
 100
AcDbSymbolTableRecord
 100
AcDbBlockTableRecord
   2
BLOCK023
   0
BLOCK_RECORD
   5
6B
 100
AcDbSymbolTableRecord
 100
AcDbBlockTableRecord
   2
BLOCK024
   0
BLOCK_RECORD
   5
6C
 100
AcDbSymbolTableRecord
 100
AcDbBlockTableRecord
   2
_ARCHTICK
   0
BLOCK_RECORD
   5
6D
 100
AcDbSymbolTableRecord
 100
AcDbBlockTableRecord
   2
_BOXBLANK
   0
BLOCK_RECORD
   5
6E
 100
AcDbSymbolTableRecord
 100
AcDbBlockTableRecord
   2
_BOXFILLED
   0
BLOCK_RECORD
   5
6F
 100
AcDbSymbolTableRecord
 100
AcDbBlockTableRecord
   2
_CLOSED
   0
BLOCK_RECORD
   5
70
 100
AcDbSymbolTableRecord
 100
AcDbBlockTableRecord
   2
_CLOSEDBLANK
   0
BLOCK_RECORD
   5
71
 100
AcDbSymbolTableRecord
 100
AcDbBlockTableRecord
   2
_DATUMBLANK
   0
BLOCK_RECORD
   5
72
 100
AcDbSymbolTableRecord
 100
AcDbBlockTableRecord
   2
_DATUMFILLED
   0
BLOCK_RECORD
   5
73
 100
AcDbSymbolTableRecord
 100
AcDbBlockTableRecord
   2
_DOT
   0
BLOCK_RECORD
   5
74
 100
AcDbSymbolTableRecord
 100
AcDbBlockTableRecord
   2
_DOTBLANK
   0
BLOCK_RECORD
   5
75
 100
AcDbSymbolTableRecord
 100
AcDbBlockTableRecord
   2
_DOTSMALL
   0
BLOCK_RECORD
   5
76
 100
AcDbSymbolTableRecord
 100
AcDbBlockTableRecord
   2
_INTEGRAL
   0
BLOCK_RECORD
   5
77
 100
AcDbSymbolTableRecord
 100
AcDbBlockTableRecord
   2
_NONE
   0
BLOCK_RECORD
   5
78
 100
AcDbSymbolTableRecord
 100
AcDbBlockTableRecord
   2
_OBLIQUE
   0
BLOCK_RECORD
   5
79
 100
AcDbSymbolTableRecord
 100
AcDbBlockTableRecord
   2
_OPEN
   0
BLOCK_RECORD
   5
7A
 100
AcDbSymbolTableRecord
 100
AcDbBlockTableRecord
   2
_OPEN30
   0
BLOCK_RECORD
   5
7B
 100
AcDbSymbolTableRecord
 100
AcDbBlockTableRecord
   2
_OPEN90
   0
BLOCK_RECORD
   5
7C
 100
AcDbSymbolTableRecord
 100
AcDbBlockTableRecord
   2
_ORIGIN
   0
ENDTAB
   0
ENDSEC
  0
SECTION
  2
BLOCKS
  0
BLOCK
  5
19
100
AcDbEntity
  8
0
100
AcDbBlockBegin
  2
*MODEL_SPACE
 70
     0
 10
0.0
 20
0.0
 30
0.0
  3
*MODEL_SPACE
  1

  0
ENDBLK
  5
1A
100
AcDbEntity
  8
0
100
AcDbBlockEnd
  0
BLOCK
  5
16
100
AcDbEntity
 67
     1
  8
0
100
AcDbBlockBegin
  2
*PAPER_SPACE
 70
     0
 10
0.0
 20
0.0
 30
0.0
  3
*PAPER_SPACE
  1

  0
ENDBLK
  5
17
100
AcDbEntity
 67
     1
  8
0
100
AcDbBlockEnd
   0
BLOCK
   5
7D
 100
AcDbEntity
   8
0
 100
AcDbBlockBegin
   2
_ARCHTICK
  70
0
  10
0.0
  20
0.0
  30
0.0
   3
_ARCHTICK
   0
POLYLINE
   5
7E
 100
AcDbEntity
   8
0
 370
-2
   6
BYBLOCK
  62
0
 100
AcDb2dPolyline
  66
1
  10
0.0
  20
0.0
  30
0.0
  70
1
  40
 0.15000000000000
  41
 0.15000000000000
   0
VERTEX
   5
7F
 100
AcDbEntity
   8
0
   6
BYBLOCK
  62
0
 100
AcDbVertex
 100
AcDb2dVertex
  10
-0.50000000000000
  20
-0.50000000000000
  30
0.0
  40
 0.15000000000000
  41
 0.15000000000000
   0
VERTEX
   5
80
 100
AcDbEntity
   8
0
   6
BYBLOCK
  62
0
 100
AcDbVertex
 100
AcDb2dVertex
  10
 0.50000000000000
  20
 0.50000000000000
  30
0.0
  40
 0.15000000000000
  41
 0.15000000000000
   0
SEQEND
   5
81
 100
AcDbEntity
   8
0
   6
BYBLOCK
  62
0
   0
ENDBLK
   5
82
 100
AcDbEntity
   8
0
 100
AcDbBlockEnd
   0
BLOCK
   5
83
 100
AcDbEntity
   8
0
 100
AcDbBlockBegin
   2
_OBLIQUE
  70
0
  10
0.0
  20
0.0
  30
0.0
   3
_OBLIQUE
   0
LINE
   5
84
 100
AcDbEntity
   8
0
 370
-2
 100
AcDbLine
   6
BYBLOCK
  62
0
  10
-0.50000000000000
  20
-0.50000000000000
  30
0.0
  11
 0.50000000000000
  21
 0.50000000000000
  31
0.0
   0
ENDBLK
   5
85
 100
AcDbEntity
   8
0
 100
AcDbBlockEnd
   0
BLOCK
   5
86
 100
AcDbEntity
   8
0
 100
AcDbBlockBegin
   2
_BOXBLANK
  70
0
  10
0.0
  20
0.0
  30
0.0
   3
_BOXBLANK
   0
LINE
   5
87
 100
AcDbEntity
   8
0
 370
-2
 100
AcDbLine
   6
BYBLOCK
  62
0
  10
-0.50000000000000
  20
-0.50000000000000
  30
0.0
  11
 0.50000000000000
  21
-0.50000000000000
  31
0.0
   0
LINE
   5
88
 100
AcDbEntity
   8
0
 370
-2
 100
AcDbLine
   6
BYBLOCK
  62
0
  10
 0.50000000000000
  20
-0.50000000000000
  30
0.0
  11
 0.50000000000000
  21
 0.50000000000000
  31
0.0
   0
LINE
   5
89
 100
AcDbEntity
   8
0
 370
-2
 100
AcDbLine
   6
BYBLOCK
  62
0
  10
 0.50000000000000
  20
 0.50000000000000
  30
0.0
  11
-0.50000000000000
  21
 0.50000000000000
  31
0.0
   0
LINE
   5
8A
 100
AcDbEntity
   8
0
 370
-2
 100
AcDbLine
   6
BYBLOCK
  62
0
  10
-0.50000000000000
  20
 0.50000000000000
  30
0.0
  11
-0.50000000000000
  21
-0.50000000000000
  31
0.0
   0
LINE
   5
8B
 100
AcDbEntity
   8
0
 370
-2
 100
AcDbLine
   6
BYBLOCK
  62
0
  10
-0.50000000000000
  20
0.0
  30
0.0
  11
-1.0000000000000
  21
0.0
  31
0.0
   0
ENDBLK
   5
8C
 100
AcDbEntity
   8
0
 100
AcDbBlockEnd
   0
BLOCK
   5
8D
 100
AcDbEntity
   8
0
 100
AcDbBlockBegin
   2
_BOXFILLED
  70
0
  10
0.0
  20
0.0
  30
0.0
   3
_BOXFILLED
   0
SOLID
   5
8E
 100
AcDbEntity
   8
0
 100
AcDbTrace
   6
BYBLOCK
  62
0
  10
-0.50000000000000
  20
 0.50000000000000
  30
0.0
  11
 0.50000000000000
  21
 0.50000000000000
  31
0.0
  12
-0.50000000000000
  22
-0.50000000000000
  32
0.0
  13
 0.50000000000000
  23
-0.50000000000000
  33
0.0
   0
LINE
   5
8F
 100
AcDbEntity
   8
0
 370
-2
 100
AcDbLine
   6
BYBLOCK
  62
0
  10
-0.50000000000000
  20
0.0
  30
0.0
  11
-1.0000000000000
  21
0.0
  31
0.0
   0
ENDBLK
   5
90
 100
AcDbEntity
   8
0
 100
AcDbBlockEnd
   0
BLOCK
   5
91
 100
AcDbEntity
   8
0
 100
AcDbBlockBegin
   2
_CLOSED
  70
0
  10
0.0
  20
0.0
  30
0.0
   3
_CLOSED
   0
LINE
   5
92
 100
AcDbEntity
   8
0
 370
-2
 100
AcDbLine
   6
BYBLOCK
  62
0
  10
-1.0000000000000
  20
 0.16666666666667
  30
0.0
  11
0.0
  21
0.0
  31
0.0
   0
LINE
   5
93
 100
AcDbEntity
   8
0
 370
-2
 100
AcDbLine
   6
BYBLOCK
  62
0
  10
0.0
  20
0.0
  30
0.0
  11
-1.0000000000000
  21
-0.16666666666667
  31
0.0
   0
LINE
   5
94
 100
AcDbEntity
   8
0
 370
-2
 100
AcDbLine
   6
BYBLOCK
  62
0
  10
-1.0000000000000
  20
 0.16666666666667
  30
0.0
  11
-1.0000000000000
  21
-0.16666666666667
  31
0.0
   0
LINE
   5
95
 100
AcDbEntity
   8
0
 370
-2
 100
AcDbLine
   6
BYBLOCK
  62
0
  10
0.0
  20
0.0
  30
0.0
  11
-1.0000000000000
  21
0.0
  31
0.0
   0
ENDBLK
   5
96
 100
AcDbEntity
   8
0
 100
AcDbBlockEnd
   0
BLOCK
   5
97
 100
AcDbEntity
   8
0
 100
AcDbBlockBegin
   2
_OPEN
  70
0
  10
0.0
  20
0.0
  30
0.0
   3
_OPEN
   0
LINE
   5
98
 100
AcDbEntity
   8
0
 370
-2
 100
AcDbLine
   6
BYBLOCK
  62
0
  10
-1.0000000000000
  20
 0.16666666666667
  30
0.0
  11
0.0
  21
0.0
  31
0.0
   0
LINE
   5
99
 100
AcDbEntity
   8
0
 370
-2
 100
AcDbLine
   6
BYBLOCK
  62
0
  10
0.0
  20
0.0
  30
0.0
  11
-1.0000000000000
  21
-0.16666666666667
  31
0.0
   0
LINE
   5
9A
 100
AcDbEntity
   8
0
 370
-2
 100
AcDbLine
   6
BYBLOCK
  62
0
  10
0.0
  20
0.0
  30
0.0
  11
-1.0000000000000
  21
0.0
  31
0.0
   0
ENDBLK
   5
9B
 100
AcDbEntity
   8
0
 100
AcDbBlockEnd
   0
BLOCK
   5
9C
 100
AcDbEntity
   8
0
 100
AcDbBlockBegin
   2
_OPEN30
  70
0
  10
0.0
  20
0.0
  30
0.0
   3
_OPEN30
   0
LINE
   5
9D
 100
AcDbEntity
   8
0
 370
-2
 100
AcDbLine
   6
BYBLOCK
  62
0
  10
-1.0000000000000
  20
 0.26794919243110
  30
0.0
  11
0.0
  21
0.0
  31
0.0
   0
LINE
   5
9E
 100
AcDbEntity
   8
0
 370
-2
 100
AcDbLine
   6
BYBLOCK
  62
0
  10
0.0
  20
0.0
  30
0.0
  11
-1.0000000000000
  21
-0.26794919243110
  31
0.0
   0
LINE
   5
9F
 100
AcDbEntity
   8
0
 370
-2
 100
AcDbLine
   6
BYBLOCK
  62
0
  10
0.0
  20
0.0
  30
0.0
  11
-1.0000000000000
  21
0.0
  31
0.0
   0
ENDBLK
   5
A0
 100
AcDbEntity
   8
0
 100
AcDbBlockEnd
   0
BLOCK
   5
A1
 100
AcDbEntity
   8
0
 100
AcDbBlockBegin
   2
_OPEN90
  70
0
  10
0.0
  20
0.0
  30
0.0
   3
_OPEN90
   0
LINE
   5
A2
 100
AcDbEntity
   8
0
 370
-2
 100
AcDbLine
   6
BYBLOCK
  62
0
  10
-0.50000000000000
  20
 0.50000000000000
  30
0.0
  11
0.0
  21
0.0
  31
0.0
   0
LINE
   5
A3
 100
AcDbEntity
   8
0
 370
-2
 100
AcDbLine
   6
BYBLOCK
  62
0
  10
0.0
  20
0.0
  30
0.0
  11
-0.50000000000000
  21
-0.50000000000000
  31
0.0
   0
LINE
   5
A4
 100
AcDbEntity
   8
0
 370
-2
 100
AcDbLine
   6
BYBLOCK
  62
0
  10
0.0
  20
0.0
  30
0.0
  11
-1.0000000000000
  21
0.0
  31
0.0
   0
ENDBLK
   5
A5
 100
AcDbEntity
   8
0
 100
AcDbBlockEnd
   0
BLOCK
   5
A6
 100
AcDbEntity
   8
0
 100
AcDbBlockBegin
   2
_CLOSEDBLANK
  70
0
  10
0.0
  20
0.0
  30
0.0
   3
_CLOSEDBLANK
   0
LINE
   5
A7
 100
AcDbEntity
   8
0
 370
-2
 100
AcDbLine
   6
BYBLOCK
  62
0
  10
-1.0000000000000
  20
 0.16666666666667
  30
0.0
  11
0.0
  21
0.0
  31
0.0
   0
LINE
   5
A8
 100
AcDbEntity
   8
0
 370
-2
 100
AcDbLine
   6
BYBLOCK
  62
0
  10
0.0
  20
0.0
  30
0.0
  11
-1.0000000000000
  21
-0.16666666666667
  31
0.0
   0
LINE
   5
A9
 100
AcDbEntity
   8
0
 370
-2
 100
AcDbLine
   6
BYBLOCK
  62
0
  10
-1.0000000000000
  20
 0.16666666666667
  30
0.0
  11
-1.0000000000000
  21
-0.16666666666667
  31
0.0
   0
ENDBLK
   5
AA
 100
AcDbEntity
   8
0
 100
AcDbBlockEnd
   0
BLOCK
   5
AB
 100
AcDbEntity
   8
0
 100
AcDbBlockBegin
   2
_DOT
  70
0
  10
0.0
  20
0.0
  30
0.0
   3
_DOT
   0
POLYLINE
   5
AC
 100
AcDbEntity
   8
0
 370
-2
   6
BYBLOCK
  62
0
 100
AcDb2dPolyline
  66
1
  10
0.0
  20
0.0
  30
0.0
  70
1
  40
 0.50000000000000
  41
 0.50000000000000
   0
VERTEX
   5
AD
 100
AcDbEntity
   8
0
   6
BYBLOCK
  62
0
 100
AcDbVertex
 100
AcDb2dVertex
  10
-0.25000000000000
  20
0.0
  30
0.0
  42
 1.0000000000000
  40
 0.50000000000000
  41
 0.50000000000000
   0
VERTEX
   5
AE
 100
AcDbEntity
   8
0
   6
BYBLOCK
  62
0
 100
AcDbVertex
 100
AcDb2dVertex
  10
 0.25000000000000
  20
0.0
  30
0.0
  42
 1.0000000000000
  40
 0.50000000000000
  41
 0.50000000000000
   0
SEQEND
   5
AF
 100
AcDbEntity
   8
0
   6
BYBLOCK
  62
0
   0
LINE
   5
B0
 100
AcDbEntity
   8
0
 370
-2
 100
AcDbLine
   6
BYBLOCK
  62
0
  10
-0.50000000000000
  20
0.0
  30
0.0
  11
-1.0000000000000
  21
0.0
  31
0.0
   0
ENDBLK
   5
B1
 100
AcDbEntity
   8
0
 100
AcDbBlockEnd
   0
BLOCK
   5
B2
 100
AcDbEntity
   8
0
 100
AcDbBlockBegin
   2
_DOTSMALL
  70
0
  10
0.0
  20
0.0
  30
0.0
   3
_DOTSMALL
   0
POLYLINE
   5
B3
 100
AcDbEntity
   8
0
 370
-2
   6
BYBLOCK
  62
0
 100
AcDb2dPolyline
  66
1
  10
0.0
  20
0.0
  30
0.0
  70
1
  40
 0.50000000000000
  41
 0.50000000000000
   0
VERTEX
   5
B4
 100
AcDbEntity
   8
0
   6
BYBLOCK
  62
0
 100
AcDbVertex
 100
AcDb2dVertex
  10
-0.62500000000000E-1
  20
0.0
  30
0.0
  42
 1.0000000000000
  40
 0.50000000000000
  41
 0.50000000000000
   0
VERTEX
   5
B5
 100
AcDbEntity
   8
0
   6
BYBLOCK
  62
0
 100
AcDbVertex
 100
AcDb2dVertex
  10
 0.62500000000000E-1
  20
0.0
  30
0.0
  42
 1.0000000000000
  40
 0.50000000000000
  41
 0.50000000000000
   0
SEQEND
   5
B6
 100
AcDbEntity
   8
0
   6
BYBLOCK
  62
0
   0
ENDBLK
   5
B7
 100
AcDbEntity
   8
0
 100
AcDbBlockEnd
   0
BLOCK
   5
B8
 100
AcDbEntity
   8
0
 100
AcDbBlockBegin
   2
_DATUMBLANK
  70
0
  10
0.0
  20
0.0
  30
0.0
   3
_DATUMBLANK
   0
LINE
   5
B9
 100
AcDbEntity
   8
0
 370
-2
 100
AcDbLine
   6
BYBLOCK
  62
0
  10
0.0
  20
 0.57735027000000
  30
0.0
  11
-1.0000000000000
  21
0.0
  31
0.0
   0
LINE
   5
BA
 100
AcDbEntity
   8
0
 370
-2
 100
AcDbLine
   6
BYBLOCK
  62
0
  10
-1.0000000000000
  20
0.0
  30
0.0
  11
0.0
  21
-0.57735027000000
  31
0.0
   0
LINE
   5
BB
 100
AcDbEntity
   8
0
 370
-2
 100
AcDbLine
   6
BYBLOCK
  62
0
  10
0.0
  20
-0.57735027000000
  30
0.0
  11
0.0
  21
 0.57735027000000
  31
0.0
   0
ENDBLK
   5
BC
 100
AcDbEntity
   8
0
 100
AcDbBlockEnd
   0
BLOCK
   5
BD
 100
AcDbEntity
   8
0
 100
AcDbBlockBegin
   2
_DATUMFILLED
  70
0
  10
0.0
  20
0.0
  30
0.0
   3
_DATUMFILLED
   0
SOLID
   5
BE
 100
AcDbEntity
   8
0
 100
AcDbTrace
   6
BYBLOCK
  62
0
  10
0.0
  20
 0.57735027000000
  30
0.0
  11
-1.0000000000000
  21
0.0
  31
0.0
  12
0.0
  22
-0.57735027000000
  32
0.0
  13
0.0
  23
-0.57735027000000
  33
0.0
   0
ENDBLK
   5
BF
 100
AcDbEntity
   8
0
 100
AcDbBlockEnd
   0
BLOCK
   5
C0
 100
AcDbEntity
   8
0
 100
AcDbBlockBegin
   2
_ORIGIN
  70
0
  10
0.0
  20
0.0
  30
0.0
   3
_ORIGIN
   0
CIRCLE
   5
C1
 100
AcDbEntity
   8
0
 370
-2
 100
AcDbCircle
   6
BYBLOCK
  62
0
  10
0.0
  20
0.0
  30
0.0
  40
 0.50000000000000
   0
LINE
   5
C2
 100
AcDbEntity
   8
0
 370
-2
 100
AcDbLine
   6
BYBLOCK
  62
0
  10
0.0
  20
0.0
  30
0.0
  11
-1.0000000000000
  21
0.0
  31
0.0
   0
ENDBLK
   5
C3
 100
AcDbEntity
   8
0
 100
AcDbBlockEnd
   0
BLOCK
   5
C4
 100
AcDbEntity
   8
0
 100
AcDbBlockBegin
   2
_NONE
  70
0
  10
0.0
  20
0.0
  30
0.0
   3
_NONE
   0
CIRCLE
   5
C5
 100
AcDbEntity
   8
0
 370
-2
 100
AcDbCircle
   6
BYBLOCK
  62
0
  10
0.0
  20
0.0
  30
0.0
  40
 0.25000000000000
   0
ENDBLK
   5
C6
 100
AcDbEntity
   8
0
 100
AcDbBlockEnd
   0
BLOCK
   5
C7
 100
AcDbEntity
   8
0
 100
AcDbBlockBegin
   2
_DOTBLANK
  70
0
  10
0.0
  20
0.0
  30
0.0
   3
_DOTBLANK
   0
CIRCLE
   5
C8
 100
AcDbEntity
   8
0
 370
-2
 100
AcDbCircle
   6
BYBLOCK
  62
0
  10
0.0
  20
0.0
  30
0.0
  40
 0.50000000000000
   0
LINE
   5
C9
 100
AcDbEntity
   8
0
 370
-2
 100
AcDbLine
   6
BYBLOCK
  62
0
  10
-0.50000000000000
  20
0.0
  30
0.0
  11
-1.0000000000000
  21
0.0
  31
0.0
   0
ENDBLK
   5
CA
 100
AcDbEntity
   8
0
 100
AcDbBlockEnd
   0
BLOCK
   5
CB
 100
AcDbEntity
   8
0
 100
AcDbBlockBegin
   2
_INTEGRAL
  70
0
  10
0.0
  20
0.0
  30
0.0
   3
_INTEGRAL
   0
ARC
   5
CC
 100
AcDbEntity
   8
0
 370
-2
   6
BYBLOCK
  62
0
 100
AcDbCircle
  10
 0.44488800000000
  20
-0.91335000000000E-1
  30
0.0
  40
 0.45416700000000
 100
AcDbArc
  50
 102.00000000000
  51
 168.00000000000
   0
ARC
   5
CD
 100
AcDbEntity
   8
0
 370
-2
   6
BYBLOCK
  62
0
 100
AcDbCircle
  10
-0.44488800000000
  20
 0.91335000000000E-1
  30
0.0
  40
 0.45416700000000
 100
AcDbArc
  50
 282.00000000000
  51
 348.00000000000
   0
ENDBLK
   5
CE
 100
AcDbEntity
   8
0
 100
AcDbBlockEnd
   0
BLOCK
   5
CF
 100
AcDbEntity
   8
0
 100
AcDbBlockBegin
   2
BLOCK001
  70
64
  10
0.0
  20
0.0
  30
0.0
   3
BLOCK001
   0
MTEXT
   5
D0
 100
AcDbEntity
   8
LEVEL001
 370
40
  62
7
 100
AcDbMText
  10
 1060.1717165629
  20
-130.29883714822
  30
0.0
  40
 32.000000000000
  41
0.0
  71
7
  72
1
   1
シマテック
   7
GMM003
   0
MTEXT
   5
D1
 100
AcDbEntity
   8
LEVEL001
 370
40
  62
7
 100
AcDbMText
  10
 1062.2647981396
  20
-130.29883714822
  30
0.0
  40
 32.000000000000
  41
0.0
  71
7
  72
1
   1
シマテック
   7
GMM003
   0
MTEXT
   5
D2
 100
AcDbEntity
   8
LEVEL001
 370
40
  62
7
 100
AcDbMText
  10
 873.08066518087
  20
-127.43187932661
  30
0.0
  40
 24.000000000000
  41
0.0
  71
7
  72
1
   1
株式会社
   7
GMM003
   0
ENDBLK
   5
D3
 100
AcDbEntity
   8
0
 100
AcDbBlockEnd
   0
BLOCK
   5
D4
 100
AcDbEntity
   8
0
 100
AcDbBlockBegin
   2
BLOCK002
  70
64
  10
0.0
  20
0.0
  30
0.0
   3
BLOCK002
   0
ARC
   5
D5
 100
AcDbEntity
   8
LEVEL001
 370
25
   6
CONTINUOUS
  62
3
 100
AcDbCircle
  10
 603.72883701363
  20
 319.47584989376
  30
0.0
  40
 1.2000000476837
 100
AcDbArc
  50
0.0
  51
 90.000580568998
   0
LINE
   5
D6
 100
AcDbEntity
   8
LEVEL001
 370
25
 100
AcDbLine
   6
CONTINUOUS
  62
3
  10
 603.72882485422
  20
 320.67584994138
  30
0.0
  11
 588.12884926828
  21
 320.67584994138
  31
0.0
   0
ARC
   5
D7
 100
AcDbEntity
   8
LEVEL001
 370
25
   6
CONTINUOUS
  62
3
 100
AcDbCircle
  10
 588.12883710887
  20
 319.47584989376
  30
0.0
  40
 1.2000000476837
 100
AcDbArc
  50
 89.999419431002
  51
 180.00058056900
   0
LINE
   5
D8
 100
AcDbEntity
   8
LEVEL001
 370
25
 100
AcDbLine
   6
CONTINUOUS
  62
3
  10
 586.92883706125
  20
 319.47583773435
  30
0.0
  11
 586.92883706125
  21
 308.67584994138
  31
0.0
   0
LINE
   5
D9
 100
AcDbEntity
   8
LEVEL001
 370
25
 100
AcDbLine
   6
CONTINUOUS
  62
3
  10
 604.92883706125
  20
 308.67584994138
  30
0.0
  11
 604.92883706125
  21
 319.47583773435
  31
0.0
   0
LWPOLYLINE
   5
DA
 100
AcDbEntity
   8
LEVEL001
 370
25
   6
CONTINUOUS
  62
3
 100
AcDbPolyline
  90
4
  70
0
  10
 606.67883706125
  20
 305.67584994138
  10
 606.67883706125
  20
 308.67584994138
  10
 585.17883706125
  20
 308.67584994138
  10
 585.17883706125
  20
 305.67584994138
   0
LINE
   5
DB
 100
AcDbEntity
   8
LEVEL001
 370
25
 100
AcDbLine
   6
CONTINUOUS
  62
3
  10
 594.19678139719
  20
 308.67584994138
  30
0.0
  11
 595.92883706125
  21
 305.67584994138
  31
0.0
   0
LINE
   5
DC
 100
AcDbEntity
   8
LEVEL001
 370
25
 100
AcDbLine
   6
CONTINUOUS
  62
3
  10
 595.92883706125
  20
 308.67584994138
  30
0.0
  11
 597.66089272531
  21
 305.67584994138
  31
0.0
   0
LINE
   5
DD
 100
AcDbEntity
   8
LEVEL001
 370
25
 100
AcDbLine
   6
DASHDOT
  62
3
  10
 595.92883706125
  20
 327.29666038959
  30
0.0
  11
 595.92883706125
  21
 277.84905323374
  31
0.0
   0
ENDBLK
   5
DE
 100
AcDbEntity
   8
0
 100
AcDbBlockEnd
   0
BLOCK
   5
DF
 100
AcDbEntity
   8
0
 100
AcDbBlockBegin
   2
BLOCK003
  70
64
  10
0.0
  20
0.0
  30
0.0
   3
BLOCK003
   0
ARC
   5
E0
 100
AcDbEntity
   8
LEVEL001
 370
25
   6
CONTINUOUS
  62
3
 100
AcDbCircle
  10
 715.72883701363
  20
 319.47584989376
  30
0.0
  40
 1.2000000476837
 100
AcDbArc
  50
0.0
  51
 90.000580568998
   0
LINE
   5
E1
 100
AcDbEntity
   8
LEVEL001
 370
25
 100
AcDbLine
   6
CONTINUOUS
  62
3
  10
 715.72882485422
  20
 320.67584994138
  30
0.0
  11
 700.12884926828
  21
 320.67584994138
  31
0.0
   0
ARC
   5
E2
 100
AcDbEntity
   8
LEVEL001
 370
25
   6
CONTINUOUS
  62
3
 100
AcDbCircle
  10
 700.12883710887
  20
 319.47584989376
  30
0.0
  40
 1.2000000476837
 100
AcDbArc
  50
 89.999419431002
  51
 180.00058056900
   0
LINE
   5
E3
 100
AcDbEntity
   8
LEVEL001
 370
25
 100
AcDbLine
   6
CONTINUOUS
  62
3
  10
 698.92883706125
  20
 319.47583773435
  30
0.0
  11
 698.92883706125
  21
 308.67584994138
  31
0.0
   0
LINE
   5
E4
 100
AcDbEntity
   8
LEVEL001
 370
25
 100
AcDbLine
   6
CONTINUOUS
  62
3
  10
 716.92883706125
  20
 308.67584994138
  30
0.0
  11
 716.92883706125
  21
 319.47583773435
  31
0.0
   0
LWPOLYLINE
   5
E5
 100
AcDbEntity
   8
LEVEL001
 370
25
   6
CONTINUOUS
  62
3
 100
AcDbPolyline
  90
4
  70
0
  10
 718.67883706125
  20
 305.67584994138
  10
 718.67883706125
  20
 308.67584994138
  10
 697.17883706125
  20
 308.67584994138
  10
 697.17883706125
  20
 305.67584994138
   0
LINE
   5
E6
 100
AcDbEntity
   8
LEVEL001
 370
25
 100
AcDbLine
   6
CONTINUOUS
  62
3
  10
 706.19678139719
  20
 308.67584994138
  30
0.0
  11
 707.92883706125
  21
 305.67584994138
  31
0.0
   0
LINE
   5
E7
 100
AcDbEntity
   8
LEVEL001
 370
25
 100
AcDbLine
   6
CONTINUOUS
  62
3
  10
 707.92883706125
  20
 308.67584994138
  30
0.0
  11
 709.66089272531
  21
 305.67584994138
  31
0.0
   0
LINE
   5
E8
 100
AcDbEntity
   8
LEVEL001
 370
25
 100
AcDbLine
   6
DASHDOT
  62
3
  10
 707.92883706125
  20
 327.29666038959
  30
0.0
  11
 707.92883706125
  21
 277.84905323374
  31
0.0
   0
ENDBLK
   5
E9
 100
AcDbEntity
   8
0
 100
AcDbBlockEnd
   0
BLOCK
   5
EA
 100
AcDbEntity
   8
0
 100
AcDbBlockBegin
   2
BLOCK004
  70
64
  10
0.0
  20
0.0
  30
0.0
   3
BLOCK004
   0
LWPOLYLINE
   5
EB
 100
AcDbEntity
   8
LEVEL001
 370
40
   6
CONTINUOUS
  62
7
 100
AcDbPolyline
  90
4
  70
1
  10
 165.92883706125
  20
 318.67584994138
  10
 605.92883706125
  20
 318.67584994138
  10
 605.92883706125
  20
 388.67584994138
  10
 165.92883706125
  20
 388.67584994138
   0
LINE
   5
EC
 100
AcDbEntity
   8
LEVEL001
 370
25
 100
AcDbLine
   6
DASHDOT
  62
3
  10
 565.92883706125
  20
 325.89592303549
  30
0.0
  11
 565.92883706125
  21
 286.39016313466
  31
0.0
   0
LWPOLYLINE
   5
ED
 100
AcDbEntity
   8
LEVEL001
 370
40
   6
CONTINUOUS
  62
7
 100
AcDbPolyline
  90
4
  70
0
  10
 540.92883706125
  20
 318.67584994138
  10
 540.92883706125
  20
 293.67584994138
  10
 590.92883706125
  20
 293.67584994138
  10
 590.92883706125
  20
 318.67584994138
   0
LINE
   5
EE
 100
AcDbEntity
   8
LEVEL001
 370
25
 100
AcDbLine
   6
DASHDOT
  62
3
  10
 205.92883706125
  20
 325.89592303549
  30
0.0
  11
 205.92883706125
  21
 286.39016313466
  31
0.0
   0
LWPOLYLINE
   5
EF
 100
AcDbEntity
   8
LEVEL001
 370
40
   6
CONTINUOUS
  62
7
 100
AcDbPolyline
  90
4
  70
0
  10
 230.92883706125
  20
 318.67584994138
  10
 230.92883706125
  20
 293.67584994138
  10
 180.92883706125
  20
 293.67584994138
  10
 180.92883706125
  20
 318.67584994138
   0
LWPOLYLINE
   5
F0
 100
AcDbEntity
   8
LEVEL001
 370
40
   6
CONTINUOUS
  62
7
 100
AcDbPolyline
  90
4
  70
0
  10
 205.92883706125
  20
 388.67584994138
  10
 205.92883706125
  20
 570.67584994138
  10
 565.92883706125
  20
 570.67584994138
  10
 565.92883706125
  20
 388.67584994138
   0
LWPOLYLINE
   5
F1
 100
AcDbEntity
   8
LEVEL001
 370
40
   6
CONTINUOUS
  62
7
 100
AcDbPolyline
  90
4
  70
0
  10
 236.92883706125
  20
 570.67584994138
  10
 236.92883706125
  20
 576.67584994138
  10
 534.92883706125
  20
 576.67584994138
  10
 534.92883706125
  20
 570.67584994138
   0
ENDBLK
   5
F2
 100
AcDbEntity
   8
0
 100
AcDbBlockEnd
   0
BLOCK
   5
F3
 100
AcDbEntity
   8
0
 100
AcDbBlockBegin
   2
BLOCK005
  70
64
  10
0.0
  20
0.0
  30
0.0
   3
BLOCK005
   0
LWPOLYLINE
   5
F4
 100
AcDbEntity
   8
LEVEL001
 370
40
   6
CONTINUOUS
  62
7
 100
AcDbPolyline
  90
3
  70
0
  10
 385.92883706125
  20
 592.67584994138
  10
 585.92883706125
  20
 610.67584994138
  10
 585.92883706125
  20
 677.16707801156
   0
LWPOLYLINE
   5
F5
 100
AcDbEntity
   8
LEVEL001
 370
40
   6
CONTINUOUS
  62
7
 100
AcDbPolyline
  90
4
  70
0
  10
 535.92883706125
  20
 606.50918327472
  10
 535.92883706125
  20
 592.67584994138
  10
 210.92883706125
  20
 592.67584994138
  10
 210.92883706112
  20
 650.85128853787
   0
LWPOLYLINE
   5
F6
 100
AcDbEntity
   8
LEVEL001
 370
40
   6
CONTINUOUS
  62
7
 100
AcDbPolyline
  90
4
  70
1
  10
 236.92883706125
  20
 576.67584994138
  10
 534.92883706125
  20
 576.67584994138
  10
 534.92883706125
  20
 592.67584994138
  10
 236.92883706125
  20
 592.67584994138
   0
LWPOLYLINE
   5
F7
 100
AcDbEntity
   8
LEVEL001
 370
40
   6
CONTINUOUS
  62
7
 100
AcDbPolyline
  90
8
  70
0
  10
 160.92883706125
  20
 698.67584994138
  10
 160.92883706125
  20
 645.67584994138
  10
 635.92883706125
  20
 680.67584994138
  10
 635.92883706125
  20
 750.67584994138
  10
 92.178837061248
  20
 750.67584994138
  10
 92.178837061248
  20
 698.67584994138
  10
 459.92883706125
  20
 698.67584994138
  10
 459.92883706125
  20
 750.67584994138
   0
ENDBLK
   5
F8
 100
AcDbEntity
   8
0
 100
AcDbBlockEnd
   0
BLOCK
   5
F9
 100
AcDbEntity
   8
0
 100
AcDbBlockBegin
   2
BLOCK006
  70
64
  10
0.0
  20
0.0
  30
0.0
   3
BLOCK006
   0
LWPOLYLINE
   5
FA
 100
AcDbEntity
   8
LEVEL001
 370
40
   6
CONTINUOUS
  62
7
 100
AcDbPolyline
  90
4
  70
1
  10
 545.92883706125
  20
 624.67584994138
  10
 775.92883706125
  20
 624.67584994138
  10
 775.92883706125
  20
 662.67584994138
  10
 545.92883706125
  20
 662.67584994138
   0
LWPOLYLINE
   5
FB
 100
AcDbEntity
   8
LEVEL001
 370
40
   6
CONTINUOUS
  62
7
 100
AcDbPolyline
  90
4
  70
1
  10
 427.92883706125
  20
 558.67584994138
  10
 527.92883706125
  20
 558.67584994138
  10
 527.92883706125
  20
 618.67584994138
  10
 427.92883706125
  20
 618.67584994138
   0
LWPOLYLINE
   5
FC
 100
AcDbEntity
   8
LEVEL001
 370
25
   6
CONTINUOUS
  62
3
 100
AcDbPolyline
  90
4
  70
1
  10
 553.92883706125
  20
 526.67584994138
  10
 569.92883706125
  20
 526.67584994138
  10
 569.92883706125
  20
 528.27584994138
  10
 553.92883706125
  20
 528.27584994138
   0
LWPOLYLINE
   5
FD
 100
AcDbEntity
   8
LEVEL001
 370
25
   6
CONTINUOUS
  62
3
 100
AcDbPolyline
  90
4
  70
0
  10
 553.92883706125
  20
 542.67584994138
  10
 553.92883706125
  20
 541.07584994138
  10
 569.92883706125
  20
 541.07584994138
  10
 569.92883706125
  20
 542.67584994138
   0
LINE
   5
FE
 100
AcDbEntity
   8
LEVEL001
 370
25
 100
AcDbLine
   6
CONTINUOUS
  62
3
  10
 555.42883706125
  20
 539.57584994138
  30
0.0
  11
 555.42883706125
  21
 529.77584994138
  31
0.0
   0
LINE
   5
FF
 100
AcDbEntity
   8
LEVEL001
 370
25
 100
AcDbLine
   6
CONTINUOUS
  62
3
  10
 568.42883706125
  20
 539.57584994138
  30
0.0
  11
 568.42883706125
  21
 529.77584994138
  31
0.0
   0
ARC
   5
100
 100
AcDbEntity
   8
LEVEL001
 370
25
   6
CONTINUOUS
  62
3
 100
AcDbCircle
  10
 569.92883706125
  20
 539.57584994138
  30
0.0
  40
 1.5000000000000
 100
AcDbArc
  50
 90.000000000000
  51
 180.00000000000
   0
ARC
   5
101
 100
AcDbEntity
   8
LEVEL001
 370
25
   6
CONTINUOUS
  62
3
 100
AcDbCircle
  10
 553.92883706125
  20
 539.57584994138
  30
0.0
  40
 1.5000000000000
 100
AcDbArc
  50
0.0
  51
 90.000000000000
   0
ARC
   5
102
 100
AcDbEntity
   8
LEVEL001
 370
25
   6
CONTINUOUS
  62
3
 100
AcDbCircle
  10
 553.92883706125
  20
 529.77584994138
  30
0.0
  40
 1.5000000000000
 100
AcDbArc
  50
 270.00000000000
  51
0.0
   0
ARC
   5
103
 100
AcDbEntity
   8
LEVEL001
 370
25
   6
CONTINUOUS
  62
3
 100
AcDbCircle
  10
 569.92883706125
  20
 529.77584994138
  30
0.0
  40
 1.5000000000000
 100
AcDbArc
  50
 180.00000000000
  51
 270.00000000000
   0
LINE
   5
104
 100
AcDbEntity
   8
LEVEL001
 370
25
 100
AcDbLine
   6
CONTINUOUS
  62
3
  10
 564.92883706125
  20
 509.27584078611
  30
0.0
  11
 558.92883706125
  21
 509.27584078611
  31
0.0
   0
LINE
   5
105
 100
AcDbEntity
   8
LEVEL001
 370
25
 100
AcDbLine
   6
CONTINUOUS
  62
3
  10
 558.92883706125
  20
 524.67584994138
  30
0.0
  11
 564.92883706125
  21
 524.67584994138
  31
0.0
   0
LWPOLYLINE
   5
106
 100
AcDbEntity
   8
LEVEL001
 370
25
   6
CONTINUOUS
  62
3
 100
AcDbPolyline
  90
4
  70
0
  10
 568.02883706125
  20
 517.67584994138
  10
 568.02883706125
  20
 516.17584994138
  10
 555.82883706125
  20
 516.17584994138
  10
 555.82883706125
  20
 517.67584994138
   0
LINE
   5
107
 100
AcDbEntity
   8
LEVEL001
 370
25
 100
AcDbLine
   6
CONTINUOUS
  62
3
  10
 562.79486246504
  20
 516.17584994138
  30
0.0
  11
 561.92883706125
  21
 517.67584994138
  31
0.0
   0
LINE
   5
108
 100
AcDbEntity
   8
LEVEL001
 370
25
 100
AcDbLine
   6
CONTINUOUS
  62
3
  10
 561.92883706125
  20
 516.17584994138
  30
0.0
  11
 561.06281165753
  21
 517.67584994138
  31
0.0
   0
LINE
   5
109
 100
AcDbEntity
   8
LEVEL001
 370
25
 100
AcDbLine
   6
CONTINUOUS
  62
3
  10
 557.59871004247
  20
 511.17584994138
  30
0.0
  11
 566.25896408027
  21
 511.17584994138
  31
0.0
   0
LINE
   5
10A
 100
AcDbEntity
   8
LEVEL001
 370
25
 100
AcDbLine
   6
CONTINUOUS
  62
3
  10
 564.81558840732
  20
 511.85204820489
  30
0.0
  11
 564.81558840732
  21
 516.17584994138
  31
0.0
   0
LINE
   5
10B
 100
AcDbEntity
   8
LEVEL001
 370
25
 100
AcDbLine
   6
CONTINUOUS
  62
3
  10
 559.04208571542
  20
 511.85204820489
  30
0.0
  11
 559.04208571542
  21
 516.17584994138
  31
0.0
   0
LINE
   5
10C
 100
AcDbEntity
   8
LEVEL001
 370
25
 100
AcDbLine
   6
CONTINUOUS
  62
3
  10
 567.70233975323
  20
 511.85204820489
  30
0.0
  11
 567.70233975323
  21
 516.17584994138
  31
0.0
   0
LINE
   5
10D
 100
AcDbEntity
   8
LEVEL001
 370
25
 100
AcDbLine
   6
CONTINUOUS
  62
3
  10
 556.15533436951
  20
 516.17584994138
  30
0.0
  11
 556.15533436951
  21
 511.85204820489
  31
0.0
   0
ARC
   5
10E
 100
AcDbEntity
   8
LEVEL001
 370
25
   6
CONTINUOUS
  62
3
 100
AcDbCircle
  10
 566.25896408027
  20
 513.05442429003
  30
0.0
  40
 1.8785743486438
 100
AcDbArc
  50
 219.79533255711
  51
 320.20466744289
   0
ARC
   5
10F
 100
AcDbEntity
   8
LEVEL001
 370
25
   6
CONTINUOUS
  62
3
 100
AcDbCircle
  10
 561.92883706125
  20
 517.67584994138
  30
0.0
  40
 6.5000000000000
 100
AcDbArc
  50
 243.63323154779
  51
 296.36676845411
   0
ARC
   5
110
 100
AcDbEntity
   8
LEVEL001
 370
25
   6
CONTINUOUS
  62
3
 100
AcDbCircle
  10
 557.59871004247
  20
 513.05442429003
  30
0.0
  40
 1.8785743486438
 100
AcDbArc
  50
 219.79533255711
  51
 320.20466744289
   0
LINE
   5
111
 100
AcDbEntity
   8
LEVEL001
 370
25
 100
AcDbLine
   6
CONTINUOUS
  62
3
  10
 559.52883553537
  20
 524.67584994138
  30
0.0
  11
 559.52883553537
  21
 517.67584994138
  31
0.0
   0
LINE
   5
112
 100
AcDbEntity
   8
LEVEL001
 370
25
 100
AcDbLine
   6
CONTINUOUS
  62
3
  10
 559.52883553537
  20
 511.17584994138
  30
0.0
  11
 559.52883553537
  21
 508.67584994138
  31
0.0
   0
LINE
   5
113
 100
AcDbEntity
   8
LEVEL001
 370
25
 100
AcDbLine
   6
CONTINUOUS
  62
3
  10
 558.92883706125
  20
 526.67584994138
  30
0.0
  11
 558.92883706125
  21
 517.67584994138
  31
0.0
   0
LINE
   5
114
 100
AcDbEntity
   8
LEVEL001
 370
25
 100
AcDbLine
   6
CONTINUOUS
  62
3
  10
 564.32883858713
  20
 508.67584994138
  30
0.0
  11
 564.32883858713
  21
 511.17584994138
  31
0.0
   0
LINE
   5
115
 100
AcDbEntity
   8
LEVEL001
 370
25
 100
AcDbLine
   6
CONTINUOUS
  62
3
  10
 564.32883858713
  20
 517.67584994138
  30
0.0
  11
 564.32883858713
  21
 524.67584994138
  31
0.0
   0
LWPOLYLINE
   5
116
 100
AcDbEntity
   8
LEVEL001
 370
25
   6
CONTINUOUS
  62
3
 100
AcDbPolyline
  90
6
  70
0
  10
 558.92883706125
  20
 511.17584994138
  10
 558.92883706125
  20
 509.27584078611
  10
 559.52883553537
  20
 508.67584994138
  10
 564.32883858713
  20
 508.67584994138
  10
 564.92883706125
  20
 509.27584078611
  10
 564.92883706125
  20
 511.17584994138
   0
LINE
   5
117
 100
AcDbEntity
   8
LEVEL001
 370
25
 100
AcDbLine
   6
CONTINUOUS
  62
3
  10
 564.92883706125
  20
 517.67584994138
  30
0.0
  11
 564.92883706125
  21
 526.67584994138
  31
0.0
   0
LWPOLYLINE
   5
118
 100
AcDbEntity
   8
LEVEL001
 370
25
   6
CONTINUOUS
  62
3
 100
AcDbPolyline
  90
4
  70
1
  10
 733.92883706125
  20
 526.67584994138
  10
 749.92883706125
  20
 526.67584994138
  10
 749.92883706125
  20
 528.27584994138
  10
 733.92883706125
  20
 528.27584994138
   0
LWPOLYLINE
   5
119
 100
AcDbEntity
   8
LEVEL001
 370
25
   6
CONTINUOUS
  62
3
 100
AcDbPolyline
  90
4
  70
0
  10
 733.92883706125
  20
 542.67584994138
  10
 733.92883706125
  20
 541.07584994138
  10
 749.92883706125
  20
 541.07584994138
  10
 749.92883706125
  20
 542.67584994138
   0
LINE
   5
11A
 100
AcDbEntity
   8
LEVEL001
 370
25
 100
AcDbLine
   6
CONTINUOUS
  62
3
  10
 735.42883706125
  20
 539.57584994138
  30
0.0
  11
 735.42883706125
  21
 529.77584994138
  31
0.0
   0
LINE
   5
11B
 100
AcDbEntity
   8
LEVEL001
 370
25
 100
AcDbLine
   6
CONTINUOUS
  62
3
  10
 748.42883706125
  20
 539.57584994138
  30
0.0
  11
 748.42883706125
  21
 529.77584994138
  31
0.0
   0
ARC
   5
11C
 100
AcDbEntity
   8
LEVEL001
 370
25
   6
CONTINUOUS
  62
3
 100
AcDbCircle
  10
 749.92883706125
  20
 539.57584994138
  30
0.0
  40
 1.5000000000000
 100
AcDbArc
  50
 90.000000000000
  51
 180.00000000000
   0
ARC
   5
11D
 100
AcDbEntity
   8
LEVEL001
 370
25
   6
CONTINUOUS
  62
3
 100
AcDbCircle
  10
 733.92883706125
  20
 539.57584994138
  30
0.0
  40
 1.5000000000000
 100
AcDbArc
  50
0.0
  51
 90.000000000000
   0
ARC
   5
11E
 100
AcDbEntity
   8
LEVEL001
 370
25
   6
CONTINUOUS
  62
3
 100
AcDbCircle
  10
 733.92883706125
  20
 529.77584994138
  30
0.0
  40
 1.5000000000000
 100
AcDbArc
  50
 270.00000000000
  51
0.0
   0
ARC
   5
11F
 100
AcDbEntity
   8
LEVEL001
 370
25
   6
CONTINUOUS
  62
3
 100
AcDbCircle
  10
 749.92883706125
  20
 529.77584994138
  30
0.0
  40
 1.5000000000000
 100
AcDbArc
  50
 180.00000000000
  51
 270.00000000000
   0
LINE
   5
120
 100
AcDbEntity
   8
LEVEL001
 370
25
 100
AcDbLine
   6
DASHDOT
  62
3
  10
 561.92883706125
  20
 549.69931272455
  30
0.0
  11
 561.92883706125
  21
 502.18171563718
  31
0.0
   0
LINE
   5
121
 100
AcDbEntity
   8
LEVEL001
 370
25
 100
AcDbLine
   6
DASHDOT
  62
3
  10
 741.92883706125
  20
 549.69931272455
  30
0.0
  11
 741.92883706125
  21
 502.18171563718
  31
0.0
   0
LINE
   5
122
 100
AcDbEntity
   8
LEVEL001
 370
25
 100
AcDbLine
   6
CONTINUOUS
  62
3
  10
 744.92883706125
  20
 509.27584078611
  30
0.0
  11
 738.92883706125
  21
 509.27584078611
  31
0.0
   0
LINE
   5
123
 100
AcDbEntity
   8
LEVEL001
 370
25
 100
AcDbLine
   6
CONTINUOUS
  62
3
  10
 738.92883706125
  20
 524.67584994138
  30
0.0
  11
 744.92883706125
  21
 524.67584994138
  31
0.0
   0
LWPOLYLINE
   5
124
 100
AcDbEntity
   8
LEVEL001
 370
25
   6
CONTINUOUS
  62
3
 100
AcDbPolyline
  90
4
  70
0
  10
 748.02883706125
  20
 517.67584994138
  10
 748.02883706125
  20
 516.17584994138
  10
 735.82883706125
  20
 516.17584994138
  10
 735.82883706125
  20
 517.67584994138
   0
LINE
   5
125
 100
AcDbEntity
   8
LEVEL001
 370
25
 100
AcDbLine
   6
CONTINUOUS
  62
3
  10
 742.79486246504
  20
 516.17584994138
  30
0.0
  11
 741.92883706125
  21
 517.67584994138
  31
0.0
   0
LINE
   5
126
 100
AcDbEntity
   8
LEVEL001
 370
25
 100
AcDbLine
   6
CONTINUOUS
  62
3
  10
 741.92883706125
  20
 516.17584994138
  30
0.0
  11
 741.06281165753
  21
 517.67584994138
  31
0.0
   0
LINE
   5
127
 100
AcDbEntity
   8
LEVEL001
 370
25
 100
AcDbLine
   6
CONTINUOUS
  62
3
  10
 737.59871004247
  20
 511.17584994138
  30
0.0
  11
 746.25896408027
  21
 511.17584994138
  31
0.0
   0
LINE
   5
128
 100
AcDbEntity
   8
LEVEL001
 370
25
 100
AcDbLine
   6
CONTINUOUS
  62
3
  10
 744.81558840732
  20
 511.85204820489
  30
0.0
  11
 744.81558840732
  21
 516.17584994138
  31
0.0
   0
LINE
   5
129
 100
AcDbEntity
   8
LEVEL001
 370
25
 100
AcDbLine
   6
CONTINUOUS
  62
3
  10
 739.04208571542
  20
 511.85204820489
  30
0.0
  11
 739.04208571542
  21
 516.17584994138
  31
0.0
   0
LINE
   5
12A
 100
AcDbEntity
   8
LEVEL001
 370
25
 100
AcDbLine
   6
CONTINUOUS
  62
3
  10
 747.70233975323
  20
 511.85204820489
  30
0.0
  11
 747.70233975323
  21
 516.17584994138
  31
0.0
   0
LINE
   5
12B
 100
AcDbEntity
   8
LEVEL001
 370
25
 100
AcDbLine
   6
CONTINUOUS
  62
3
  10
 736.15533436951
  20
 516.17584994138
  30
0.0
  11
 736.15533436951
  21
 511.85204820489
  31
0.0
   0
ARC
   5
12C
 100
AcDbEntity
   8
LEVEL001
 370
25
   6
CONTINUOUS
  62
3
 100
AcDbCircle
  10
 746.25896408027
  20
 513.05442429003
  30
0.0
  40
 1.8785743486438
 100
AcDbArc
  50
 219.79533255711
  51
 320.20466744289
   0
ARC
   5
12D
 100
AcDbEntity
   8
LEVEL001
 370
25
   6
CONTINUOUS
  62
3
 100
AcDbCircle
  10
 741.92883706125
  20
 517.67584994138
  30
0.0
  40
 6.5000000000000
 100
AcDbArc
  50
 243.63323154779
  51
 296.36676845411
   0
ARC
   5
12E
 100
AcDbEntity
   8
LEVEL001
 370
25
   6
CONTINUOUS
  62
3
 100
AcDbCircle
  10
 737.59871004247
  20
 513.05442429003
  30
0.0
  40
 1.8785743486438
 100
AcDbArc
  50
 219.79533255711
  51
 320.20466744289
   0
LINE
   5
12F
 100
AcDbEntity
   8
LEVEL001
 370
25
 100
AcDbLine
   6
CONTINUOUS
  62
3
  10
 739.52883553537
  20
 524.67584994138
  30
0.0
  11
 739.52883553537
  21
 517.67584994138
  31
0.0
   0
LINE
   5
130
 100
AcDbEntity
   8
LEVEL001
 370
25
 100
AcDbLine
   6
CONTINUOUS
  62
3
  10
 739.52883553537
  20
 511.17584994138
  30
0.0
  11
 739.52883553537
  21
 508.67584994138
  31
0.0
   0
LINE
   5
131
 100
AcDbEntity
   8
LEVEL001
 370
25
 100
AcDbLine
   6
CONTINUOUS
  62
3
  10
 738.92883706125
  20
 526.67584994138
  30
0.0
  11
 738.92883706125
  21
 517.67584994138
  31
0.0
   0
LINE
   5
132
 100
AcDbEntity
   8
LEVEL001
 370
25
 100
AcDbLine
   6
CONTINUOUS
  62
3
  10
 744.32883858713
  20
 508.67584994138
  30
0.0
  11
 744.32883858713
  21
 511.17584994138
  31
0.0
   0
LINE
   5
133
 100
AcDbEntity
   8
LEVEL001
 370
25
 100
AcDbLine
   6
CONTINUOUS
  62
3
  10
 744.32883858713
  20
 517.67584994138
  30
0.0
  11
 744.32883858713
  21
 524.67584994138
  31
0.0
   0
LWPOLYLINE
   5
134
 100
AcDbEntity
   8
LEVEL001
 370
25
   6
CONTINUOUS
  62
3
 100
AcDbPolyline
  90
6
  70
0
  10
 738.92883706125
  20
 511.17584994138
  10
 738.92883706125
  20
 509.27584078611
  10
 739.52883553537
  20
 508.67584994138
  10
 744.32883858713
  20
 508.67584994138
  10
 744.92883706125
  20
 509.27584078611
  10
 744.92883706125
  20
 511.17584994138
   0
LINE
   5
135
 100
AcDbEntity
   8
LEVEL001
 370
25
 100
AcDbLine
   6
CONTINUOUS
  62
3
  10
 744.92883706125
  20
 517.67584994138
  30
0.0
  11
 744.92883706125
  21
 526.67584994138
  31
0.0
   0
LWPOLYLINE
   5
136
 100
AcDbEntity
   8
LEVEL001
 370
40
   6
CONTINUOUS
  62
7
 100
AcDbPolyline
  90
8
  70
0
  10
 545.92883706125
  20
 558.67584994138
  10
 477.92883706125
  20
 558.67584994138
  10
 477.92883706125
  20
 542.67584994138
  10
 794.92883706125
  20
 542.67584994138
  10
 794.92883706125
  20
 562.67584994138
  10
 775.92883706125
  20
 618.67584994138
  10
 545.92883706125
  20
 618.67584994138
  10
 545.92883706125
  20
 542.67584994138
   0
LINE
   5
137
 100
AcDbEntity
   8
LEVEL001
 370
25
 100
AcDbLine
   6
DOT
  62
3
  10
 545.92883706125
  20
 659.17584994138
  30
0.0
  11
 775.92883706125
  21
 659.17584994138
  31
0.0
   0
ENDBLK
   5
138
 100
AcDbEntity
   8
0
 100
AcDbBlockEnd
   0
BLOCK
   5
139
 100
AcDbEntity
   8
0
 100
AcDbBlockBegin
   2
BLOCK007
  70
64
  10
0.0
  20
0.0
  30
0.0
   3
BLOCK007
   0
LINE
   5
13A
 100
AcDbEntity
   8
LEVEL001
 370
25
 100
AcDbLine
   6
CONTINUOUS
  62
3
  10
 597.67883706125
  20
 517.67584994138
  30
0.0
  11
 597.67883706125
  21
 514.67584994138
  31
0.0
   0
LINE
   5
13B
 100
AcDbEntity
   8
LEVEL001
 370
25
 100
AcDbLine
   6
CONTINUOUS
  62
3
  10
 575.95918679269
  20
 514.67584994138
  30
0.0
  11
 597.89850258859
  21
 514.67584994138
  31
0.0
   0
LINE
   5
13C
 100
AcDbEntity
   8
LEVEL001
 370
25
 100
AcDbLine
   6
CONTINUOUS
  62
3
  10
 576.17883706125
  20
 514.67584994138
  30
0.0
  11
 576.17883706125
  21
 517.67584994138
  31
0.0
   0
LINE
   5
13D
 100
AcDbEntity
   8
LEVEL001
 370
25
 100
AcDbLine
   6
CONTINUOUS
  62
3
  10
 585.19678139719
  20
 514.67584994138
  30
0.0
  11
 586.92883706125
  21
 517.67584994138
  31
0.0
   0
LINE
   5
13E
 100
AcDbEntity
   8
LEVEL001
 370
25
 100
AcDbLine
   6
CONTINUOUS
  62
3
  10
 586.92883706125
  20
 514.67584994138
  30
0.0
  11
 588.66089272531
  21
 517.67584994138
  31
0.0
   0
LINE
   5
13F
 100
AcDbEntity
   8
LEVEL001
 370
25
 100
AcDbLine
   6
CONTINUOUS
  62
3
  10
 581.44401955637
  20
 505.88955648120
  30
0.0
  11
 581.44401955637
  21
 514.67584994138
  31
0.0
   0
LINE
   5
140
 100
AcDbEntity
   8
LEVEL001
 370
25
 100
AcDbLine
   6
CONTINUOUS
  62
3
  10
 592.41366982492
  20
 505.88955648120
  30
0.0
  11
 592.41366982492
  21
 514.67584994138
  31
0.0
   0
LINE
   5
141
 100
AcDbEntity
   8
LEVEL001
 370
25
 100
AcDbLine
   6
CONTINUOUS
  62
3
  10
 575.95918679269
  20
 505.88955648120
  30
0.0
  11
 575.95918679269
  21
 514.67584994138
  31
0.0
   0
LINE
   5
142
 100
AcDbEntity
   8
LEVEL001
 370
25
 100
AcDbLine
   6
CONTINUOUS
  62
3
  10
 597.89850258859
  20
 514.67584994138
  30
0.0
  11
 597.89850258859
  21
 505.88955648120
  31
0.0
   0
ARC
   5
143
 100
AcDbEntity
   8
LEVEL001
 370
25
   6
CONTINUOUS
  62
3
 100
AcDbCircle
  10
 595.15608620676
  20
 508.38100060223
  30
0.0
  40
 3.7051506608504
 100
AcDbArc
  50
 222.25457128816
  51
 317.74532444163
   0
ARC
   5
144
 100
AcDbEntity
   8
LEVEL001
 370
25
   6
CONTINUOUS
  62
3
 100
AcDbCircle
  10
 586.92883706125
  20
 517.67584994138
  30
0.0
  40
 12.999997561209
 100
AcDbArc
  50
 245.04482311550
  51
 294.95522901974
   0
ARC
   5
145
 100
AcDbEntity
   8
LEVEL001
 370
25
   6
CONTINUOUS
  62
3
 100
AcDbCircle
  10
 578.70160317453
  20
 508.38100060223
  30
0.0
  40
 3.7051506608504
 100
AcDbArc
  50
 222.25467555837
  51
 317.74532444163
   0
LINE
   5
146
 100
AcDbEntity
   8
LEVEL001
 370
25
 100
AcDbLine
   6
CONTINUOUS
  62
3
  10
 578.70160317453
  20
 504.67584994138
  30
0.0
  11
 595.15608620676
  21
 504.67584994138
  31
0.0
   0
LINE
   5
147
 100
AcDbEntity
   8
LEVEL001
 370
25
 100
AcDbLine
   6
CONTINUOUS
  62
3
  10
 578.70160317453
  20
 477.67584994138
  30
0.0
  11
 595.15608620676
  21
 477.67584994138
  31
0.0
   0
LINE
   5
148
 100
AcDbEntity
   8
LEVEL001
 370
25
 100
AcDbLine
   6
CONTINUOUS
  62
3
  10
 581.44401955637
  20
 476.46214340157
  30
0.0
  11
 581.44401955637
  21
 467.67584994138
  31
0.0
   0
LINE
   5
149
 100
AcDbEntity
   8
LEVEL001
 370
25
 100
AcDbLine
   6
CONTINUOUS
  62
3
  10
 592.41366982492
  20
 476.46214340157
  30
0.0
  11
 592.41366982492
  21
 467.67584994138
  31
0.0
   0
LINE
   5
14A
 100
AcDbEntity
   8
LEVEL001
 370
25
 100
AcDbLine
   6
CONTINUOUS
  62
3
  10
 575.95918679269
  20
 476.46214340157
  30
0.0
  11
 575.95918679269
  21
 467.67584994138
  31
0.0
   0
LINE
   5
14B
 100
AcDbEntity
   8
LEVEL001
 370
25
 100
AcDbLine
   6
CONTINUOUS
  62
3
  10
 597.89850258859
  20
 467.67584994138
  30
0.0
  11
 597.89850258859
  21
 476.46214340157
  31
0.0
   0
ARC
   5
14C
 100
AcDbEntity
   8
LEVEL001
 370
25
   6
CONTINUOUS
  62
3
 100
AcDbCircle
  10
 578.70160317453
  20
 473.97069928053
  30
0.0
  40
 3.7051506608504
 100
AcDbArc
  50
 42.254675558368
  51
 137.74532444163
   0
ARC
   5
14D
 100
AcDbEntity
   8
LEVEL001
 370
25
   6
CONTINUOUS
  62
3
 100
AcDbCircle
  10
 586.92883706125
  20
 464.67584994138
  30
0.0
  40
 12.999997561209
 100
AcDbArc
  50
 65.044770980260
  51
 114.95517688450
   0
ARC
   5
14E
 100
AcDbEntity
   8
LEVEL001
 370
25
   6
CONTINUOUS
  62
3
 100
AcDbCircle
  10
 595.15608620676
  20
 473.97069928053
  30
0.0
  40
 3.7051506608504
 100
AcDbArc
  50
 42.254675558367
  51
 137.74542871184
   0
LINE
   5
14F
 100
AcDbEntity
   8
LEVEL001
 370
25
 100
AcDbLine
   6
CONTINUOUS
  62
3
  10
 580.92883706125
  20
 477.67584994138
  30
0.0
  11
 580.92883706125
  21
 504.67584994138
  31
0.0
   0
LINE
   5
150
 100
AcDbEntity
   8
LEVEL001
 370
25
 100
AcDbLine
   6
CONTINUOUS
  62
3
  10
 582.24884438547
  20
 504.67584994138
  30
0.0
  11
 582.24884438547
  21
 477.67584994138
  31
0.0
   0
LINE
   5
151
 100
AcDbEntity
   8
LEVEL001
 370
25
 100
AcDbLine
   6
CONTINUOUS
  62
3
  10
 591.60884499582
  20
 477.67584994138
  30
0.0
  11
 591.60884499582
  21
 504.67584994138
  31
0.0
   0
LINE
   5
152
 100
AcDbEntity
   8
LEVEL001
 370
25
 100
AcDbLine
   6
CONTINUOUS
  62
3
  10
 592.92883706125
  20
 504.67584994138
  30
0.0
  11
 592.92883706125
  21
 477.67584994138
  31
0.0
   0
LINE
   5
153
 100
AcDbEntity
   8
LEVEL001
 370
25
 100
AcDbLine
   6
DASHDOT
  62
3
  10
 586.92883706125
  20
 423.79959788662
  30
0.0
  11
 586.92883706125
  21
 524.27292305368
  31
0.0
   0
LINE
   5
154
 100
AcDbEntity
   8
LEVEL001
 370
25
 100
AcDbLine
   6
CONTINUOUS
  62
3
  10
 597.67883706125
  20
 455.67584994138
  30
0.0
  11
 597.67883706125
  21
 452.67584994138
  31
0.0
   0
LINE
   5
155
 100
AcDbEntity
   8
LEVEL001
 370
25
 100
AcDbLine
   6
CONTINUOUS
  62
3
  10
 575.95918679269
  20
 452.67584994138
  30
0.0
  11
 597.89850258859
  21
 452.67584994138
  31
0.0
   0
LINE
   5
156
 100
AcDbEntity
   8
LEVEL001
 370
25
 100
AcDbLine
   6
CONTINUOUS
  62
3
  10
 576.17883706125
  20
 452.67584994138
  30
0.0
  11
 576.17883706125
  21
 455.67584994138
  31
0.0
   0
LINE
   5
157
 100
AcDbEntity
   8
LEVEL001
 370
25
 100
AcDbLine
   6
CONTINUOUS
  62
3
  10
 585.19678139719
  20
 452.67584994138
  30
0.0
  11
 586.92883706125
  21
 455.67584994138
  31
0.0
   0
LINE
   5
158
 100
AcDbEntity
   8
LEVEL001
 370
25
 100
AcDbLine
   6
CONTINUOUS
  62
3
  10
 586.92883706125
  20
 452.67584994138
  30
0.0
  11
 588.66089272531
  21
 455.67584994138
  31
0.0
   0
LINE
   5
159
 100
AcDbEntity
   8
LEVEL001
 370
25
 100
AcDbLine
   6
CONTINUOUS
  62
3
  10
 578.70160317453
  20
 442.67584994138
  30
0.0
  11
 595.15608620676
  21
 442.67584994138
  31
0.0
   0
LINE
   5
15A
 100
AcDbEntity
   8
LEVEL001
 370
25
 100
AcDbLine
   6
CONTINUOUS
  62
3
  10
 581.44401955637
  20
 443.88955648120
  30
0.0
  11
 581.44401955637
  21
 452.67584994138
  31
0.0
   0
LINE
   5
15B
 100
AcDbEntity
   8
LEVEL001
 370
25
 100
AcDbLine
   6
CONTINUOUS
  62
3
  10
 592.41366982492
  20
 443.88955648120
  30
0.0
  11
 592.41366982492
  21
 452.67584994138
  31
0.0
   0
LINE
   5
15C
 100
AcDbEntity
   8
LEVEL001
 370
25
 100
AcDbLine
   6
CONTINUOUS
  62
3
  10
 575.95918679269
  20
 443.88955648120
  30
0.0
  11
 575.95918679269
  21
 452.67584994138
  31
0.0
   0
LINE
   5
15D
 100
AcDbEntity
   8
LEVEL001
 370
25
 100
AcDbLine
   6
CONTINUOUS
  62
3
  10
 597.89850258859
  20
 452.67584994138
  30
0.0
  11
 597.89850258859
  21
 443.88955648120
  31
0.0
   0
ARC
   5
15E
 100
AcDbEntity
   8
LEVEL001
 370
25
   6
CONTINUOUS
  62
3
 100
AcDbCircle
  10
 578.70160317453
  20
 446.38100060223
  30
0.0
  40
 3.7051506608504
 100
AcDbArc
  50
 222.25467555837
  51
 317.74532444163
   0
ARC
   5
15F
 100
AcDbEntity
   8
LEVEL001
 370
25
   6
CONTINUOUS
  62
3
 100
AcDbCircle
  10
 586.92883706125
  20
 455.67584994138
  30
0.0
  40
 12.999997561209
 100
AcDbArc
  50
 245.04482311550
  51
 294.95522901974
   0
ARC
   5
160
 100
AcDbEntity
   8
LEVEL001
 370
25
   6
CONTINUOUS
  62
3
 100
AcDbCircle
  10
 595.15608620676
  20
 446.38100060223
  30
0.0
  40
 3.7051506608504
 100
AcDbArc
  50
 222.25457128816
  51
 317.74532444163
   0
LINE
   5
161
 100
AcDbEntity
   8
LEVEL001
 370
25
 100
AcDbLine
   6
CONTINUOUS
  62
3
  10
 580.92883706125
  20
 431.99584963621
  30
0.0
  11
 592.92883706125
  21
 431.99584963621
  31
0.0
   0
LWPOLYLINE
   5
162
 100
AcDbEntity
   8
LEVEL001
 370
25
   6
CONTINUOUS
  62
3
 100
AcDbPolyline
  90
6
  70
0
  10
 580.92883706125
  20
 442.67584994138
  10
 580.92883706125
  20
 431.99584963621
  10
 582.24884438547
  20
 430.67584994138
  10
 591.60884499582
  20
 430.67584994138
  10
 592.92883706125
  20
 431.99584963621
  10
 592.92883706125
  20
 442.67584994138
   0
LINE
   5
163
 100
AcDbEntity
   8
LEVEL001
 370
25
 100
AcDbLine
   6
CONTINUOUS
  62
3
  10
 582.24884438547
  20
 430.67584994138
  30
0.0
  11
 582.24884438547
  21
 442.67584994138
  31
0.0
   0
LINE
   5
164
 100
AcDbEntity
   8
LEVEL001
 370
25
 100
AcDbLine
   6
CONTINUOUS
  62
3
  10
 591.60884499582
  20
 430.67584994138
  30
0.0
  11
 591.60884499582
  21
 442.67584994138
  31
0.0
   0
ENDBLK
   5
165
 100
AcDbEntity
   8
0
 100
AcDbBlockEnd
   0
BLOCK
   5
166
 100
AcDbEntity
   8
0
 100
AcDbBlockBegin
   2
BLOCK008
  70
64
  10
0.0
  20
0.0
  30
0.0
   3
BLOCK008
   0
LINE
   5
167
 100
AcDbEntity
   8
LEVEL001
 370
25
 100
AcDbLine
   6
CONTINUOUS
  62
3
  10
 727.67883706125
  20
 517.67584994138
  30
0.0
  11
 727.67883706125
  21
 514.67584994138
  31
0.0
   0
LINE
   5
168
 100
AcDbEntity
   8
LEVEL001
 370
25
 100
AcDbLine
   6
CONTINUOUS
  62
3
  10
 705.95918679269
  20
 514.67584994138
  30
0.0
  11
 727.89850258859
  21
 514.67584994138
  31
0.0
   0
LINE
   5
169
 100
AcDbEntity
   8
LEVEL001
 370
25
 100
AcDbLine
   6
CONTINUOUS
  62
3
  10
 706.17883706125
  20
 514.67584994138
  30
0.0
  11
 706.17883706125
  21
 517.67584994138
  31
0.0
   0
LINE
   5
16A
 100
AcDbEntity
   8
LEVEL001
 370
25
 100
AcDbLine
   6
CONTINUOUS
  62
3
  10
 715.19678139719
  20
 514.67584994138
  30
0.0
  11
 716.92883706125
  21
 517.67584994138
  31
0.0
   0
LINE
   5
16B
 100
AcDbEntity
   8
LEVEL001
 370
25
 100
AcDbLine
   6
CONTINUOUS
  62
3
  10
 716.92883706125
  20
 514.67584994138
  30
0.0
  11
 718.66089272531
  21
 517.67584994138
  31
0.0
   0
LINE
   5
16C
 100
AcDbEntity
   8
LEVEL001
 370
25
 100
AcDbLine
   6
CONTINUOUS
  62
3
  10
 711.44401955637
  20
 505.88955648120
  30
0.0
  11
 711.44401955637
  21
 514.67584994138
  31
0.0
   0
LINE
   5
16D
 100
AcDbEntity
   8
LEVEL001
 370
25
 100
AcDbLine
   6
CONTINUOUS
  62
3
  10
 722.41366982492
  20
 505.88955648120
  30
0.0
  11
 722.41366982492
  21
 514.67584994138
  31
0.0
   0
LINE
   5
16E
 100
AcDbEntity
   8
LEVEL001
 370
25
 100
AcDbLine
   6
CONTINUOUS
  62
3
  10
 705.95918679269
  20
 505.88955648120
  30
0.0
  11
 705.95918679269
  21
 514.67584994138
  31
0.0
   0
LINE
   5
16F
 100
AcDbEntity
   8
LEVEL001
 370
25
 100
AcDbLine
   6
CONTINUOUS
  62
3
  10
 727.89850258859
  20
 514.67584994138
  30
0.0
  11
 727.89850258859
  21
 505.88955648120
  31
0.0
   0
ARC
   5
170
 100
AcDbEntity
   8
LEVEL001
 370
25
   6
CONTINUOUS
  62
3
 100
AcDbCircle
  10
 725.15608620676
  20
 508.38100060223
  30
0.0
  40
 3.7051506608504
 100
AcDbArc
  50
 222.25457128816
  51
 317.74532444163
   0
ARC
   5
171
 100
AcDbEntity
   8
LEVEL001
 370
25
   6
CONTINUOUS
  62
3
 100
AcDbCircle
  10
 716.92883706125
  20
 517.67584994138
  30
0.0
  40
 12.999997561209
 100
AcDbArc
  50
 245.04482311550
  51
 294.95522901974
   0
ARC
   5
172
 100
AcDbEntity
   8
LEVEL001
 370
25
   6
CONTINUOUS
  62
3
 100
AcDbCircle
  10
 708.70160317453
  20
 508.38100060223
  30
0.0
  40
 3.7051506608504
 100
AcDbArc
  50
 222.25467555837
  51
 317.74532444163
   0
LINE
   5
173
 100
AcDbEntity
   8
LEVEL001
 370
25
 100
AcDbLine
   6
CONTINUOUS
  62
3
  10
 708.70160317453
  20
 504.67584994138
  30
0.0
  11
 725.15608620676
  21
 504.67584994138
  31
0.0
   0
LINE
   5
174
 100
AcDbEntity
   8
LEVEL001
 370
25
 100
AcDbLine
   6
CONTINUOUS
  62
3
  10
 708.70160317453
  20
 477.67584994138
  30
0.0
  11
 725.15608620676
  21
 477.67584994138
  31
0.0
   0
LINE
   5
175
 100
AcDbEntity
   8
LEVEL001
 370
25
 100
AcDbLine
   6
CONTINUOUS
  62
3
  10
 711.44401955637
  20
 476.46214340157
  30
0.0
  11
 711.44401955637
  21
 467.67584994138
  31
0.0
   0
LINE
   5
176
 100
AcDbEntity
   8
LEVEL001
 370
25
 100
AcDbLine
   6
CONTINUOUS
  62
3
  10
 722.41366982492
  20
 476.46214340157
  30
0.0
  11
 722.41366982492
  21
 467.67584994138
  31
0.0
   0
LINE
   5
177
 100
AcDbEntity
   8
LEVEL001
 370
25
 100
AcDbLine
   6
CONTINUOUS
  62
3
  10
 705.95918679269
  20
 476.46214340157
  30
0.0
  11
 705.95918679269
  21
 467.67584994138
  31
0.0
   0
LINE
   5
178
 100
AcDbEntity
   8
LEVEL001
 370
25
 100
AcDbLine
   6
CONTINUOUS
  62
3
  10
 727.89850258859
  20
 467.67584994138
  30
0.0
  11
 727.89850258859
  21
 476.46214340157
  31
0.0
   0
ARC
   5
179
 100
AcDbEntity
   8
LEVEL001
 370
25
   6
CONTINUOUS
  62
3
 100
AcDbCircle
  10
 708.70160317453
  20
 473.97069928053
  30
0.0
  40
 3.7051506608504
 100
AcDbArc
  50
 42.254675558368
  51
 137.74532444163
   0
ARC
   5
17A
 100
AcDbEntity
   8
LEVEL001
 370
25
   6
CONTINUOUS
  62
3
 100
AcDbCircle
  10
 716.92883706125
  20
 464.67584994138
  30
0.0
  40
 12.999997561209
 100
AcDbArc
  50
 65.044770980260
  51
 114.95517688450
   0
ARC
   5
17B
 100
AcDbEntity
   8
LEVEL001
 370
25
   6
CONTINUOUS
  62
3
 100
AcDbCircle
  10
 725.15608620676
  20
 473.97069928053
  30
0.0
  40
 3.7051506608504
 100
AcDbArc
  50
 42.254675558367
  51
 137.74542871184
   0
LINE
   5
17C
 100
AcDbEntity
   8
LEVEL001
 370
25
 100
AcDbLine
   6
CONTINUOUS
  62
3
  10
 710.92883706125
  20
 477.67584994138
  30
0.0
  11
 710.92883706125
  21
 504.67584994138
  31
0.0
   0
LINE
   5
17D
 100
AcDbEntity
   8
LEVEL001
 370
25
 100
AcDbLine
   6
CONTINUOUS
  62
3
  10
 712.24884438547
  20
 504.67584994138
  30
0.0
  11
 712.24884438547
  21
 477.67584994138
  31
0.0
   0
LINE
   5
17E
 100
AcDbEntity
   8
LEVEL001
 370
25
 100
AcDbLine
   6
CONTINUOUS
  62
3
  10
 721.60884499582
  20
 477.67584994138
  30
0.0
  11
 721.60884499582
  21
 504.67584994138
  31
0.0
   0
LINE
   5
17F
 100
AcDbEntity
   8
LEVEL001
 370
25
 100
AcDbLine
   6
CONTINUOUS
  62
3
  10
 722.92883706125
  20
 504.67584994138
  30
0.0
  11
 722.92883706125
  21
 477.67584994138
  31
0.0
   0
LINE
   5
180
 100
AcDbEntity
   8
LEVEL001
 370
25
 100
AcDbLine
   6
DASHDOT
  62
3
  10
 716.92883706125
  20
 423.79959788662
  30
0.0
  11
 716.92883706125
  21
 524.27292305368
  31
0.0
   0
LINE
   5
181
 100
AcDbEntity
   8
LEVEL001
 370
25
 100
AcDbLine
   6
CONTINUOUS
  62
3
  10
 727.67883706125
  20
 455.67584994138
  30
0.0
  11
 727.67883706125
  21
 452.67584994138
  31
0.0
   0
LINE
   5
182
 100
AcDbEntity
   8
LEVEL001
 370
25
 100
AcDbLine
   6
CONTINUOUS
  62
3
  10
 705.95918679269
  20
 452.67584994138
  30
0.0
  11
 727.89850258859
  21
 452.67584994138
  31
0.0
   0
LINE
   5
183
 100
AcDbEntity
   8
LEVEL001
 370
25
 100
AcDbLine
   6
CONTINUOUS
  62
3
  10
 706.17883706125
  20
 452.67584994138
  30
0.0
  11
 706.17883706125
  21
 455.67584994138
  31
0.0
   0
LINE
   5
184
 100
AcDbEntity
   8
LEVEL001
 370
25
 100
AcDbLine
   6
CONTINUOUS
  62
3
  10
 715.19678139719
  20
 452.67584994138
  30
0.0
  11
 716.92883706125
  21
 455.67584994138
  31
0.0
   0
LINE
   5
185
 100
AcDbEntity
   8
LEVEL001
 370
25
 100
AcDbLine
   6
CONTINUOUS
  62
3
  10
 716.92883706125
  20
 452.67584994138
  30
0.0
  11
 718.66089272531
  21
 455.67584994138
  31
0.0
   0
LINE
   5
186
 100
AcDbEntity
   8
LEVEL001
 370
25
 100
AcDbLine
   6
CONTINUOUS
  62
3
  10
 708.70160317453
  20
 442.67584994138
  30
0.0
  11
 725.15608620676
  21
 442.67584994138
  31
0.0
   0
LINE
   5
187
 100
AcDbEntity
   8
LEVEL001
 370
25
 100
AcDbLine
   6
CONTINUOUS
  62
3
  10
 711.44401955637
  20
 443.88955648120
  30
0.0
  11
 711.44401955637
  21
 452.67584994138
  31
0.0
   0
LINE
   5
188
 100
AcDbEntity
   8
LEVEL001
 370
25
 100
AcDbLine
   6
CONTINUOUS
  62
3
  10
 722.41366982492
  20
 443.88955648120
  30
0.0
  11
 722.41366982492
  21
 452.67584994138
  31
0.0
   0
LINE
   5
189
 100
AcDbEntity
   8
LEVEL001
 370
25
 100
AcDbLine
   6
CONTINUOUS
  62
3
  10
 705.95918679269
  20
 443.88955648120
  30
0.0
  11
 705.95918679269
  21
 452.67584994138
  31
0.0
   0
LINE
   5
18A
 100
AcDbEntity
   8
LEVEL001
 370
25
 100
AcDbLine
   6
CONTINUOUS
  62
3
  10
 727.89850258859
  20
 452.67584994138
  30
0.0
  11
 727.89850258859
  21
 443.88955648120
  31
0.0
   0
ARC
   5
18B
 100
AcDbEntity
   8
LEVEL001
 370
25
   6
CONTINUOUS
  62
3
 100
AcDbCircle
  10
 708.70160317453
  20
 446.38100060223
  30
0.0
  40
 3.7051506608504
 100
AcDbArc
  50
 222.25467555837
  51
 317.74532444163
   0
ARC
   5
18C
 100
AcDbEntity
   8
LEVEL001
 370
25
   6
CONTINUOUS
  62
3
 100
AcDbCircle
  10
 716.92883706125
  20
 455.67584994138
  30
0.0
  40
 12.999997561209
 100
AcDbArc
  50
 245.04482311550
  51
 294.95522901974
   0
ARC
   5
18D
 100
AcDbEntity
   8
LEVEL001
 370
25
   6
CONTINUOUS
  62
3
 100
AcDbCircle
  10
 725.15608620676
  20
 446.38100060223
  30
0.0
  40
 3.7051506608504
 100
AcDbArc
  50
 222.25457128816
  51
 317.74532444163
   0
LINE
   5
18E
 100
AcDbEntity
   8
LEVEL001
 370
25
 100
AcDbLine
   6
CONTINUOUS
  62
3
  10
 710.92883706125
  20
 431.99584963621
  30
0.0
  11
 722.92883706125
  21
 431.99584963621
  31
0.0
   0
LWPOLYLINE
   5
18F
 100
AcDbEntity
   8
LEVEL001
 370
25
   6
CONTINUOUS
  62
3
 100
AcDbPolyline
  90
6
  70
0
  10
 710.92883706125
  20
 442.67584994138
  10
 710.92883706125
  20
 431.99584963621
  10
 712.24884438547
  20
 430.67584994138
  10
 721.60884499582
  20
 430.67584994138
  10
 722.92883706125
  20
 431.99584963621
  10
 722.92883706125
  20
 442.67584994138
   0
LINE
   5
190
 100
AcDbEntity
   8
LEVEL001
 370
25
 100
AcDbLine
   6
CONTINUOUS
  62
3
  10
 712.24884438547
  20
 430.67584994138
  30
0.0
  11
 712.24884438547
  21
 442.67584994138
  31
0.0
   0
LINE
   5
191
 100
AcDbEntity
   8
LEVEL001
 370
25
 100
AcDbLine
   6
CONTINUOUS
  62
3
  10
 721.60884499582
  20
 430.67584994138
  30
0.0
  11
 721.60884499582
  21
 442.67584994138
  31
0.0
   0
ENDBLK
   5
192
 100
AcDbEntity
   8
0
 100
AcDbBlockEnd
   0
BLOCK
   5
193
 100
AcDbEntity
   8
0
 100
AcDbBlockBegin
   2
*D1
  70
65
  10
0.0
  20
0.0
  30
0.0
   3
*D1
   0
LINE
   5
194
 100
AcDbEntity
   8
LEVEL001
 370
25
 100
AcDbLine
   6
CONTINUOUS
  62
3
  10
 773.92883706125
  20
 293.67584994138
  30
0.0
  11
 848.25791324736
  21
 293.67584994138
  31
0.0
   0
LINE
   5
195
 100
AcDbEntity
   8
LEVEL001
 370
25
 100
AcDbLine
   6
CONTINUOUS
  62
3
  10
 836.25791324736
  20
 257.67584994138
  30
0.0
  11
 836.25791324736
  21
 285.67584994138
  31
0.0
   0
LINE
   5
196
 100
AcDbEntity
   8
LEVEL001
 370
25
 100
AcDbLine
   6
CONTINUOUS
  62
3
  10
 836.25791324736
  20
 373.22617270341
  30
0.0
  11
 836.25791324736
  21
 285.67584994138
  31
0.0
   0
INSERT
   5
197
 100
AcDbEntity
   8
LEVEL001
   6
CONTINUOUS
  62
3
 100
AcDbBlockReference
   2
_OPEN30
  10
 836.25791324736
  20
 277.67584994138
  30
0.0
  41
 16.000000000000
  42
 16.000000000000
  43
 16.000000000000
  50
 90.000000000000
   0
INSERT
   5
198
 100
AcDbEntity
   8
LEVEL001
   6
CONTINUOUS
  62
3
 100
AcDbBlockReference
   2
_OPEN30
  10
 836.25791324736
  20
 293.67584994138
  30
0.0
  41
 16.000000000000
  42
 16.000000000000
  43
 16.000000000000
  50
 270.00000000000
   0
MTEXT
   5
199
 100
AcDbEntity
   8
LEVEL001
 370
40
  62
7
 100
AcDbMText
  10
 826.58522288623
  20
 317.22617270341
  30
0.0
  40
 20.000000000000
  41
0.0
  71
7
  72
1
   1
\A1;１６
   7
GMM003
  11
0.0
  21
 1.0000000000000
  31
0.0
   0
ENDBLK
   5
19A
 100
AcDbEntity
   8
0
 100
AcDbBlockEnd
   0
BLOCK
   5
19B
 100
AcDbEntity
   8
0
 100
AcDbBlockBegin
   2
*D2
  70
65
  10
0.0
  20
0.0
  30
0.0
   3
*D2
   0
LINE
   5
19C
 100
AcDbEntity
   8
LEVEL001
 370
25
 100
AcDbLine
   6
CONTINUOUS
  62
3
  10
 773.92883706125
  20
 277.67584994138
  30
0.0
  11
 895.61078546307
  21
 277.67584994138
  31
0.0
   0
LINE
   5
19D
 100
AcDbEntity
   8
LEVEL001
 370
25
 100
AcDbLine
   6
CONTINUOUS
  62
3
  10
 883.61078546307
  20
 277.67584994138
  30
0.0
  11
 883.61078546307
  21
 488.17584994138
  31
0.0
   0
LINE
   5
19E
 100
AcDbEntity
   8
LEVEL001
 370
25
 100
AcDbLine
   6
CONTINUOUS
  62
3
  10
 883.61078546307
  20
 698.67584994138
  30
0.0
  11
 883.61078546307
  21
 488.17584994138
  31
0.0
   0
INSERT
   5
19F
 100
AcDbEntity
   8
LEVEL001
   6
CONTINUOUS
  62
3
 100
AcDbBlockReference
   2
_OPEN30
  10
 883.61078546307
  20
 277.67584994138
  30
0.0
  41
 16.000000000000
  42
 16.000000000000
  43
 16.000000000000
  50
 270.00000000000
   0
INSERT
   5
1A0
 100
AcDbEntity
   8
LEVEL001
   6
CONTINUOUS
  62
3
 100
AcDbBlockReference
   2
_OPEN30
  10
 883.61078546307
  20
 698.67584994138
  30
0.0
  41
 16.000000000000
  42
 16.000000000000
  43
 16.000000000000
  50
 90.000000000000
   0
MTEXT
   5
1A1
 100
AcDbEntity
   8
LEVEL001
 370
40
  62
7
 100
AcDbMText
  10
 875.03935689164
  20
 488.17584994138
  30
0.0
  40
 20.000000000000
  41
0.0
  71
8
  72
1
   1
\A1;４２１
   7
GMM003
  11
0.0
  21
 1.0000000000000
  31
0.0
   0
ENDBLK
   5
1A2
 100
AcDbEntity
   8
0
 100
AcDbBlockEnd
   0
BLOCK
   5
1A3
 100
AcDbEntity
   8
0
 100
AcDbBlockBegin
   2
BLOCK009
  70
64
  10
0.0
  20
0.0
  30
0.0
   3
BLOCK009
   0
LINE
   5
1A4
 100
AcDbEntity
   8
LEVEL001
 370
25
 100
AcDbLine
   6
DASHDOT
  62
3
  10
 651.92883706125
  20
 484.26611634293
  30
0.0
  11
 651.92883706125
  21
 282.36542298219
  31
0.0
   0
LWPOLYLINE
   5
1A5
 100
AcDbEntity
   8
LEVEL001
 370
40
   6
CONTINUOUS
  62
7
 100
AcDbPolyline
  90
4
  70
1
  10
 571.92883706125
  20
 455.67584994138
  10
 731.92883706125
  20
 455.67584994138
  10
 731.92883706125
  20
 467.67584994138
  10
 571.92883706125
  20
 467.67584994138
   0
LINE
   5
1A6
 100
AcDbEntity
   8
LEVEL001
 370
40
 100
AcDbLine
   6
CONTINUOUS
  62
7
  10
 621.67883706125
  20
 455.67584994138
  30
0.0
  11
 621.67883706125
  21
 305.67584994138
  31
0.0
   0
LINE
   5
1A7
 100
AcDbEntity
   8
LEVEL001
 370
40
 100
AcDbLine
   6
CONTINUOUS
  62
7
  10
 682.17883706125
  20
 455.67584994138
  30
0.0
  11
 682.17883706125
  21
 305.67584994138
  31
0.0
   0
LINE
   5
1A8
 100
AcDbEntity
   8
LEVEL001
 370
25
 100
AcDbLine
   6
DOT
  62
3
  10
 625.47883706125
  20
 455.67584994138
  30
0.0
  11
 625.47883706125
  21
 305.67584994138
  31
0.0
   0
LINE
   5
1A9
 100
AcDbEntity
   8
LEVEL001
 370
25
 100
AcDbLine
   6
DOT
  62
3
  10
 678.37883706125
  20
 455.67584994138
  30
0.0
  11
 678.37883706125
  21
 305.67584994138
  31
0.0
   0
LWPOLYLINE
   5
1AA
 100
AcDbEntity
   8
LEVEL001
 370
40
   6
CONTINUOUS
  62
7
 100
AcDbPolyline
  90
4
  70
1
  10
 571.92883706125
  20
 293.67584994138
  10
 731.92883706125
  20
 293.67584994138
  10
 731.92883706125
  20
 305.67584994138
  10
 571.92883706125
  20
 305.67584994138
   0
ENDBLK
   5
1AB
 100
AcDbEntity
   8
0
 100
AcDbBlockEnd
   0
BLOCK
   5
1AC
 100
AcDbEntity
   8
0
 100
AcDbBlockBegin
   2
*D3
  70
65
  10
0.0
  20
0.0
  30
0.0
   3
*D3
   0
LINE
   5
1AD
 100
AcDbEntity
   8
LEVEL001
 370
25
 100
AcDbLine
   6
CONTINUOUS
  62
3
  10
 125.92883706125
  20
 277.67584994138
  30
0.0
  11
 16.095157557415
  21
 277.67584994138
  31
0.0
   0
LINE
   5
1AE
 100
AcDbEntity
   8
LEVEL001
 370
25
 100
AcDbLine
   6
CONTINUOUS
  62
3
  10
 84.178837061248
  20
 750.67584994138
  30
0.0
  11
 16.095157557415
  21
 750.67584994138
  31
0.0
   0
LINE
   5
1AF
 100
AcDbEntity
   8
LEVEL001
 370
25
 100
AcDbLine
   6
CONTINUOUS
  62
3
  10
 28.095157557415
  20
 277.67584994138
  30
0.0
  11
 28.095157557415
  21
 514.17584994138
  31
0.0
   0
LINE
   5
1B0
 100
AcDbEntity
   8
LEVEL001
 370
25
 100
AcDbLine
   6
CONTINUOUS
  62
3
  10
 28.095157557415
  20
 750.67584994138
  30
0.0
  11
 28.095157557415
  21
 514.17584994138
  31
0.0
   0
INSERT
   5
1B1
 100
AcDbEntity
   8
LEVEL001
   6
CONTINUOUS
  62
3
 100
AcDbBlockReference
   2
_OPEN30
  10
 28.095157557415
  20
 277.67584994138
  30
0.0
  41
 16.000000000000
  42
 16.000000000000
  43
 16.000000000000
  50
 270.00000000000
   0
INSERT
   5
1B2
 100
AcDbEntity
   8
LEVEL001
   6
CONTINUOUS
  62
3
 100
AcDbBlockReference
   2
_OPEN30
  10
 28.095157557415
  20
 750.67584994138
  30
0.0
  41
 16.000000000000
  42
 16.000000000000
  43
 16.000000000000
  50
 90.000000000000
   0
MTEXT
   5
1B3
 100
AcDbEntity
   8
LEVEL001
 370
40
  62
7
 100
AcDbMText
  10
 19.523728985987
  20
 514.17584994138
  30
0.0
  40
 20.000000000000
  41
0.0
  71
8
  72
1
   1
\A1;（４７３）
   7
GMM003
  11
0.0
  21
 1.0000000000000
  31
0.0
   0
ENDBLK
   5
1B4
 100
AcDbEntity
   8
0
 100
AcDbBlockEnd
   0
BLOCK
   5
1B5
 100
AcDbEntity
   8
0
 100
AcDbBlockBegin
   2
*D4
  70
65
  10
0.0
  20
0.0
  30
0.0
   3
*D4
   0
LINE
   5
1B6
 100
AcDbEntity
   8
LEVEL001
 370
25
 100
AcDbLine
   6
CONTINUOUS
  62
3
  10
 135.92883706125
  20
 758.67584994138
  30
0.0
  11
 135.92883706125
  21
 882.03684270723
  31
0.0
   0
LINE
   5
1B7
 100
AcDbEntity
   8
LEVEL001
 370
25
 100
AcDbLine
   6
CONTINUOUS
  62
3
  10
 635.92883706125
  20
 758.67584994138
  30
0.0
  11
 635.92883706125
  21
 882.03684270723
  31
0.0
   0
LINE
   5
1B8
 100
AcDbEntity
   8
LEVEL001
 370
25
 100
AcDbLine
   6
CONTINUOUS
  62
3
  10
 135.92883706125
  20
 870.03684270723
  30
0.0
  11
 385.92883706125
  21
 870.03684270723
  31
0.0
   0
LINE
   5
1B9
 100
AcDbEntity
   8
LEVEL001
 370
25
 100
AcDbLine
   6
CONTINUOUS
  62
3
  10
 635.92883706125
  20
 870.03684270723
  30
0.0
  11
 385.92883706125
  21
 870.03684270723
  31
0.0
   0
INSERT
   5
1BA
 100
AcDbEntity
   8
LEVEL001
   6
CONTINUOUS
  62
3
 100
AcDbBlockReference
   2
_OPEN30
  10
 135.92883706125
  20
 870.03684270723
  30
0.0
  41
 16.000000000000
  42
 16.000000000000
  43
 16.000000000000
  50
 180.00000000000
   0
INSERT
   5
1BB
 100
AcDbEntity
   8
LEVEL001
   6
CONTINUOUS
  62
3
 100
AcDbBlockReference
   2
_OPEN30
  10
 635.92883706125
  20
 870.03684270723
  30
0.0
  41
 16.000000000000
  42
 16.000000000000
  43
 16.000000000000
  50
0.0
   0
MTEXT
   5
1BC
 100
AcDbEntity
   8
LEVEL001
 370
40
  62
7
 100
AcDbMText
  10
 385.92883706125
  20
 878.60827127866
  30
0.0
  40
 20.000000000000
  41
0.0
  71
8
  72
1
   1
\A1;φ５００
   7
GMM003
   0
ENDBLK
   5
1BD
 100
AcDbEntity
   8
0
 100
AcDbBlockEnd
   0
BLOCK
   5
1BE
 100
AcDbEntity
   8
0
 100
AcDbBlockBegin
   2
*D5
  70
65
  10
0.0
  20
0.0
  30
0.0
   3
*D5
   0
LINE
   5
1BF
 100
AcDbEntity
   8
LEVEL001
 370
25
 100
AcDbLine
   6
CONTINUOUS
  62
3
  10
 385.92883706125
  20
 763.29968655695
  30
0.0
  11
 385.92883706125
  21
 821.69929660023
  31
0.0
   0
LINE
   5
1C0
 100
AcDbEntity
   8
LEVEL001
 370
25
 100
AcDbLine
   6
CONTINUOUS
  62
3
  10
 385.92883706125
  20
 809.69929660023
  30
0.0
  11
 425.92883706125
  21
 809.69929660023
  31
0.0
   0
LINE
   5
1C1
 100
AcDbEntity
   8
LEVEL001
 370
25
 100
AcDbLine
   6
CONTINUOUS
  62
3
  10
 465.92883706125
  20
 809.69929660023
  30
0.0
  11
 425.92883706125
  21
 809.69929660023
  31
0.0
   0
INSERT
   5
1C2
 100
AcDbEntity
   8
LEVEL001
   6
CONTINUOUS
  62
3
 100
AcDbBlockReference
   2
_OPEN30
  10
 385.92883706125
  20
 809.69929660023
  30
0.0
  41
 16.000000000000
  42
 16.000000000000
  43
 16.000000000000
  50
 180.00000000000
   0
INSERT
   5
1C3
 100
AcDbEntity
   8
LEVEL001
   6
CONTINUOUS
  62
3
 100
AcDbBlockReference
   2
_OPEN30
  10
 465.92883706125
  20
 809.69929660023
  30
0.0
  41
 16.000000000000
  42
 16.000000000000
  43
 16.000000000000
  50
0.0
   0
MTEXT
   5
1C4
 100
AcDbEntity
   8
LEVEL001
 370
40
  62
7
 100
AcDbMText
  10
 425.92883706125
  20
 818.27072517166
  30
0.0
  40
 20.000000000000
  41
0.0
  71
8
  72
1
   1
\A1;８０
   7
GMM003
   0
ENDBLK
   5
1C5
 100
AcDbEntity
   8
0
 100
AcDbBlockEnd
   0
BLOCK
   5
1C6
 100
AcDbEntity
   8
0
 100
AcDbBlockBegin
   2
*D6
  70
65
  10
0.0
  20
0.0
  30
0.0
   3
*D6
   0
LINE
   5
1C7
 100
AcDbEntity
   8
LEVEL001
 370
25
 100
AcDbLine
   6
CONTINUOUS
  62
3
  10
 465.92883706125
  20
 706.67584994138
  30
0.0
  11
 465.92883706125
  21
 821.69929660023
  31
0.0
   0
LINE
   5
1C8
 100
AcDbEntity
   8
LEVEL001
 370
25
 100
AcDbLine
   6
CONTINUOUS
  62
3
  10
 985.92883706125
  20
 706.67584994138
  30
0.0
  11
 985.92883706125
  21
 821.69929660023
  31
0.0
   0
LINE
   5
1C9
 100
AcDbEntity
   8
LEVEL001
 370
25
 100
AcDbLine
   6
CONTINUOUS
  62
3
  10
 465.92883706125
  20
 809.69929660023
  30
0.0
  11
 725.92883706125
  21
 809.69929660023
  31
0.0
   0
LINE
   5
1CA
 100
AcDbEntity
   8
LEVEL001
 370
25
 100
AcDbLine
   6
CONTINUOUS
  62
3
  10
 985.92883706125
  20
 809.69929660023
  30
0.0
  11
 725.92883706125
  21
 809.69929660023
  31
0.0
   0
INSERT
   5
1CB
 100
AcDbEntity
   8
LEVEL001
   6
CONTINUOUS
  62
3
 100
AcDbBlockReference
   2
_OPEN30
  10
 465.92883706125
  20
 809.69929660023
  30
0.0
  41
 16.000000000000
  42
 16.000000000000
  43
 16.000000000000
  50
 180.00000000000
   0
INSERT
   5
1CC
 100
AcDbEntity
   8
LEVEL001
   6
CONTINUOUS
  62
3
 100
AcDbBlockReference
   2
_OPEN30
  10
 985.92883706125
  20
 809.69929660023
  30
0.0
  41
 16.000000000000
  42
 16.000000000000
  43
 16.000000000000
  50
0.0
   0
MTEXT
   5
1CD
 100
AcDbEntity
   8
LEVEL001
 370
40
  62
7
 100
AcDbMText
  10
 725.92883706125
  20
 818.27072517166
  30
0.0
  40
 20.000000000000
  41
0.0
  71
8
  72
1
   1
\A1;５２０
   7
GMM003
   0
ENDBLK
   5
1CE
 100
AcDbEntity
   8
0
 100
AcDbBlockEnd
   0
BLOCK
   5
1CF
 100
AcDbEntity
   8
0
 100
AcDbBlockBegin
   2
BLOCK010
  70
64
  10
0.0
  20
0.0
  30
0.0
   3
BLOCK010
   0
CIRCLE
   5
1D0
 100
AcDbEntity
   8
LEVEL001
 370
9
 100
AcDbCircle
   6
CONTINUOUS
  62
11
  10
 561.92883706125
  20
 1533.0381008206
  30
0.0
  40
 3.0000000000000
   0
LINE
   5
1D1
 100
AcDbEntity
   8
LEVEL001
 370
9
 100
AcDbLine
   6
DASHDOT
  62
11
  10
 567.92883706125
  20
 1533.0381008206
  30
0.0
  11
 555.92883706125
  21
 1533.0381008206
  31
0.0
   0
LINE
   5
1D2
 100
AcDbEntity
   8
LEVEL001
 370
9
 100
AcDbLine
   6
DASHDOT
  62
11
  10
 561.92883706125
  20
 1527.0381008206
  30
0.0
  11
 561.92883706125
  21
 1539.0381008206
  31
0.0
   0
CIRCLE
   5
1D3
 100
AcDbEntity
   8
LEVEL001
 370
9
 100
AcDbCircle
   6
CONTINUOUS
  62
11
  10
 561.92883706125
  20
 1533.0381008206
  30
0.0
  40
 2.0000000000000
   0
CIRCLE
   5
1D4
 100
AcDbEntity
   8
LEVEL001
 370
9
 100
AcDbCircle
   6
DOT
  62
11
  10
 561.92883706125
  20
 1533.0381008206
  30
0.0
  40
 8.0000000000000
   0
CIRCLE
   5
1D5
 100
AcDbEntity
   8
LEVEL001
 370
9
 100
AcDbCircle
   6
CONTINUOUS
  62
11
  10
 741.92883706125
  20
 1533.0381008206
  30
0.0
  40
 3.0000000000000
   0
LINE
   5
1D6
 100
AcDbEntity
   8
LEVEL001
 370
9
 100
AcDbLine
   6
DASHDOT
  62
11
  10
 747.92883706125
  20
 1533.0381008206
  30
0.0
  11
 735.92883706125
  21
 1533.0381008206
  31
0.0
   0
LINE
   5
1D7
 100
AcDbEntity
   8
LEVEL001
 370
9
 100
AcDbLine
   6
DASHDOT
  62
11
  10
 741.92883706125
  20
 1527.0381008206
  30
0.0
  11
 741.92883706125
  21
 1539.0381008206
  31
0.0
   0
CIRCLE
   5
1D8
 100
AcDbEntity
   8
LEVEL001
 370
9
 100
AcDbCircle
   6
CONTINUOUS
  62
11
  10
 741.92883706125
  20
 1533.0381008206
  30
0.0
  40
 2.0000000000000
   0
CIRCLE
   5
1D9
 100
AcDbEntity
   8
LEVEL001
 370
9
 100
AcDbCircle
   6
DOT
  62
11
  10
 741.92883706125
  20
 1533.0381008206
  30
0.0
  40
 8.0000000000000
   0
CIRCLE
   5
1DA
 100
AcDbEntity
   8
LEVEL001
 370
9
 100
AcDbCircle
   6
CONTINUOUS
  62
11
  10
 561.92883706125
  20
 1573.0381008206
  30
0.0
  40
 3.0000000000000
   0
LINE
   5
1DB
 100
AcDbEntity
   8
LEVEL001
 370
9
 100
AcDbLine
   6
DASHDOT
  62
11
  10
 567.92883706125
  20
 1573.0381008206
  30
0.0
  11
 555.92883706125
  21
 1573.0381008206
  31
0.0
   0
LINE
   5
1DC
 100
AcDbEntity
   8
LEVEL001
 370
9
 100
AcDbLine
   6
DASHDOT
  62
11
  10
 561.92883706125
  20
 1567.0381008206
  30
0.0
  11
 561.92883706125
  21
 1579.0381008206
  31
0.0
   0
CIRCLE
   5
1DD
 100
AcDbEntity
   8
LEVEL001
 370
9
 100
AcDbCircle
   6
CONTINUOUS
  62
11
  10
 561.92883706125
  20
 1573.0381008206
  30
0.0
  40
 2.0000000000000
   0
CIRCLE
   5
1DE
 100
AcDbEntity
   8
LEVEL001
 370
9
 100
AcDbCircle
   6
DOT
  62
11
  10
 561.92883706125
  20
 1573.0381008206
  30
0.0
  40
 8.0000000000000
   0
CIRCLE
   5
1DF
 100
AcDbEntity
   8
LEVEL001
 370
9
 100
AcDbCircle
   6
CONTINUOUS
  62
11
  10
 741.92883706125
  20
 1573.0381008206
  30
0.0
  40
 3.0000000000000
   0
LINE
   5
1E0
 100
AcDbEntity
   8
LEVEL001
 370
9
 100
AcDbLine
   6
DASHDOT
  62
11
  10
 747.92883706125
  20
 1573.0381008206
  30
0.0
  11
 735.92883706125
  21
 1573.0381008206
  31
0.0
   0
LINE
   5
1E1
 100
AcDbEntity
   8
LEVEL001
 370
9
 100
AcDbLine
   6
DASHDOT
  62
11
  10
 741.92883706125
  20
 1567.0381008206
  30
0.0
  11
 741.92883706125
  21
 1579.0381008206
  31
0.0
   0
CIRCLE
   5
1E2
 100
AcDbEntity
   8
LEVEL001
 370
9
 100
AcDbCircle
   6
CONTINUOUS
  62
11
  10
 741.92883706125
  20
 1573.0381008206
  30
0.0
  40
 2.0000000000000
   0
CIRCLE
   5
1E3
 100
AcDbEntity
   8
LEVEL001
 370
9
 100
AcDbCircle
   6
DOT
  62
11
  10
 741.92883706125
  20
 1573.0381008206
  30
0.0
  40
 8.0000000000000
   0
ENDBLK
   5
1E4
 100
AcDbEntity
   8
0
 100
AcDbBlockEnd
   0
BLOCK
   5
1E5
 100
AcDbEntity
   8
0
 100
AcDbBlockBegin
   2
BLOCK011
  70
64
  10
0.0
  20
0.0
  30
0.0
   3
BLOCK011
   0
CIRCLE
   5
1E6
 100
AcDbEntity
   8
LEVEL001
 370
9
 100
AcDbCircle
   6
DOT
  62
11
  10
 651.92883706125
  20
 1553.0381008206
  30
0.0
  40
 30.250000000000
   0
CIRCLE
   5
1E7
 100
AcDbEntity
   8
LEVEL001
 370
9
 100
AcDbCircle
   6
DOT
  62
11
  10
 651.92883706125
  20
 1553.0381008206
  30
0.0
  40
 26.450000000000
   0
ENDBLK
   5
1E8
 100
AcDbEntity
   8
0
 100
AcDbBlockEnd
   0
BLOCK
   5
1E9
 100
AcDbEntity
   8
0
 100
AcDbBlockBegin
   2
BLOCK012
  70
64
  10
0.0
  20
0.0
  30
0.0
   3
BLOCK012
   0
ARC
   5
1EA
 100
AcDbEntity
   8
LEVEL001
 370
9
   6
DOT
  62
11
 100
AcDbCircle
  10
 587.92883706125
  20
 1528.0381008206
  30
0.0
  40
 7.0000000000000
 100
AcDbArc
  50
 90.000000000000
  51
 270.00000000000
   0
ARC
   5
1EB
 100
AcDbEntity
   8
LEVEL001
 370
9
   6
DOT
  62
11
 100
AcDbCircle
  10
 603.92883706125
  20
 1528.0381008206
  30
0.0
  40
 7.0000000000000
 100
AcDbArc
  50
 270.00000000000
  51
 90.000000000000
   0
LINE
   5
1EC
 100
AcDbEntity
   8
LEVEL001
 370
9
 100
AcDbLine
   6
DOT
  62
11
  10
 587.92883706125
  20
 1521.0381008206
  30
0.0
  11
 603.92883706125
  21
 1521.0381008206
  31
0.0
   0
LINE
   5
1ED
 100
AcDbEntity
   8
LEVEL001
 370
9
 100
AcDbLine
   6
DOT
  62
11
  10
 587.92883706125
  20
 1535.0381008206
  30
0.0
  11
 603.92883706125
  21
 1535.0381008206
  31
0.0
   0
LINE
   5
1EE
 100
AcDbEntity
   8
LEVEL001
 370
9
 100
AcDbLine
   6
DASHDOT
  62
11
  10
 615.07898235782
  20
 1528.0381008206
  30
0.0
  11
 575.71733194178
  21
 1528.0381008206
  31
0.0
   0
LINE
   5
1EF
 100
AcDbEntity
   8
LEVEL001
 370
9
 100
AcDbLine
   6
DASHDOT
  62
11
  10
 595.92883706125
  20
 1516.3930424117
  30
0.0
  11
 595.92883706125
  21
 1541.6150708336
  31
0.0
   0
ENDBLK
   5
1F0
 100
AcDbEntity
   8
0
 100
AcDbBlockEnd
   0
BLOCK
   5
1F1
 100
AcDbEntity
   8
0
 100
AcDbBlockBegin
   2
BLOCK013
  70
64
  10
0.0
  20
0.0
  30
0.0
   3
BLOCK013
   0
ARC
   5
1F2
 100
AcDbEntity
   8
LEVEL001
 370
9
   6
DOT
  62
11
 100
AcDbCircle
  10
 587.92883706125
  20
 1578.0381008206
  30
0.0
  40
 7.0000000000000
 100
AcDbArc
  50
 90.000000000000
  51
 270.00000000000
   0
ARC
   5
1F3
 100
AcDbEntity
   8
LEVEL001
 370
9
   6
DOT
  62
11
 100
AcDbCircle
  10
 603.92883706125
  20
 1578.0381008206
  30
0.0
  40
 7.0000000000000
 100
AcDbArc
  50
 270.00000000000
  51
 90.000000000000
   0
LINE
   5
1F4
 100
AcDbEntity
   8
LEVEL001
 370
9
 100
AcDbLine
   6
DOT
  62
11
  10
 587.92883706125
  20
 1585.0381008206
  30
0.0
  11
 603.92883706125
  21
 1585.0381008206
  31
0.0
   0
LINE
   5
1F5
 100
AcDbEntity
   8
LEVEL001
 370
9
 100
AcDbLine
   6
DOT
  62
11
  10
 587.92883706125
  20
 1571.0381008206
  30
0.0
  11
 603.92883706125
  21
 1571.0381008206
  31
0.0
   0
LINE
   5
1F6
 100
AcDbEntity
   8
LEVEL001
 370
9
 100
AcDbLine
   6
DASHDOT
  62
11
  10
 615.07898235782
  20
 1578.0381008206
  30
0.0
  11
 575.71733194178
  21
 1578.0381008206
  31
0.0
   0
LINE
   5
1F7
 100
AcDbEntity
   8
LEVEL001
 370
9
 100
AcDbLine
   6
DASHDOT
  62
11
  10
 595.92883706125
  20
 1589.6831592296
  30
0.0
  11
 595.92883706125
  21
 1564.4611308077
  31
0.0
   0
ENDBLK
   5
1F8
 100
AcDbEntity
   8
0
 100
AcDbBlockEnd
   0
BLOCK
   5
1F9
 100
AcDbEntity
   8
0
 100
AcDbBlockBegin
   2
BLOCK014
  70
64
  10
0.0
  20
0.0
  30
0.0
   3
BLOCK014
   0
ARC
   5
1FA
 100
AcDbEntity
   8
LEVEL001
 370
9
   6
DOT
  62
11
 100
AcDbCircle
  10
 715.92883706125
  20
 1528.0381008206
  30
0.0
  40
 7.0000000000000
 100
AcDbArc
  50
 270.00000000000
  51
 90.000000000000
   0
ARC
   5
1FB
 100
AcDbEntity
   8
LEVEL001
 370
9
   6
DOT
  62
11
 100
AcDbCircle
  10
 699.92883706125
  20
 1528.0381008206
  30
0.0
  40
 7.0000000000000
 100
AcDbArc
  50
 90.000000000000
  51
 270.00000000000
   0
LINE
   5
1FC
 100
AcDbEntity
   8
LEVEL001
 370
9
 100
AcDbLine
   6
DOT
  62
11
  10
 715.92883706125
  20
 1521.0381008206
  30
0.0
  11
 699.92883706125
  21
 1521.0381008206
  31
0.0
   0
LINE
   5
1FD
 100
AcDbEntity
   8
LEVEL001
 370
9
 100
AcDbLine
   6
DOT
  62
11
  10
 715.92883706125
  20
 1535.0381008206
  30
0.0
  11
 699.92883706125
  21
 1535.0381008206
  31
0.0
   0
LINE
   5
1FE
 100
AcDbEntity
   8
LEVEL001
 370
9
 100
AcDbLine
   6
DASHDOT
  62
11
  10
 688.77869176468
  20
 1528.0381008206
  30
0.0
  11
 728.14034218071
  21
 1528.0381008206
  31
0.0
   0
LINE
   5
1FF
 100
AcDbEntity
   8
LEVEL001
 370
9
 100
AcDbLine
   6
DASHDOT
  62
11
  10
 707.92883706125
  20
 1516.3930424117
  30
0.0
  11
 707.92883706125
  21
 1541.6150708336
  31
0.0
   0
ENDBLK
   5
200
 100
AcDbEntity
   8
0
 100
AcDbBlockEnd
   0
BLOCK
   5
201
 100
AcDbEntity
   8
0
 100
AcDbBlockBegin
   2
BLOCK015
  70
64
  10
0.0
  20
0.0
  30
0.0
   3
BLOCK015
   0
ARC
   5
202
 100
AcDbEntity
   8
LEVEL001
 370
9
   6
DOT
  62
11
 100
AcDbCircle
  10
 715.92883706125
  20
 1578.0381008206
  30
0.0
  40
 7.0000000000000
 100
AcDbArc
  50
 270.00000000000
  51
 90.000000000000
   0
ARC
   5
203
 100
AcDbEntity
   8
LEVEL001
 370
9
   6
DOT
  62
11
 100
AcDbCircle
  10
 699.92883706125
  20
 1578.0381008206
  30
0.0
  40
 7.0000000000000
 100
AcDbArc
  50
 90.000000000000
  51
 270.00000000000
   0
LINE
   5
204
 100
AcDbEntity
   8
LEVEL001
 370
9
 100
AcDbLine
   6
DOT
  62
11
  10
 715.92883706125
  20
 1585.0381008206
  30
0.0
  11
 699.92883706125
  21
 1585.0381008206
  31
0.0
   0
LINE
   5
205
 100
AcDbEntity
   8
LEVEL001
 370
9
 100
AcDbLine
   6
DOT
  62
11
  10
 715.92883706125
  20
 1571.0381008206
  30
0.0
  11
 699.92883706125
  21
 1571.0381008206
  31
0.0
   0
LINE
   5
206
 100
AcDbEntity
   8
LEVEL001
 370
9
 100
AcDbLine
   6
DASHDOT
  62
11
  10
 688.77869176468
  20
 1578.0381008206
  30
0.0
  11
 728.14034218071
  21
 1578.0381008206
  31
0.0
   0
LINE
   5
207
 100
AcDbEntity
   8
LEVEL001
 370
9
 100
AcDbLine
   6
DASHDOT
  62
11
  10
 707.92883706125
  20
 1589.6831592296
  30
0.0
  11
 707.92883706125
  21
 1564.4611308077
  31
0.0
   0
ENDBLK
   5
208
 100
AcDbEntity
   8
0
 100
AcDbBlockEnd
   0
BLOCK
   5
209
 100
AcDbEntity
   8
0
 100
AcDbBlockBegin
   2
BLOCK016
  70
64
  10
0.0
  20
0.0
  30
0.0
   3
BLOCK016
   0
CIRCLE
   5
20A
 100
AcDbEntity
   8
LEVEL001
 370
9
 100
AcDbCircle
   6
CONTINUOUS
  62
11
  10
 565.92883706125
  20
 1253.0381008206
  30
0.0
  40
 25.000000000000
   0
CIRCLE
   5
20B
 100
AcDbEntity
   8
LEVEL001
 370
9
 100
AcDbCircle
   6
CONTINUOUS
  62
11
  10
 295.92883706125
  20
 1097.1535281394
  30
0.0
  40
 25.000000000000
   0
CIRCLE
   5
20C
 100
AcDbEntity
   8
LEVEL001
 370
9
 100
AcDbCircle
   6
CONTINUOUS
  62
11
  10
 295.92883706125
  20
 1408.9226735018
  30
0.0
  40
 25.000000000000
   0
LINE
   5
20D
 100
AcDbEntity
   8
LEVEL001
 370
9
 100
AcDbLine
   6
DASHDOT
  62
11
  10
 275.88115989130
  20
 1443.6462689339
  30
0.0
  11
 318.23058496026
  21
 1370.2949130432
  31
0.0
   0
LINE
   5
20E
 100
AcDbEntity
   8
LEVEL001
 370
9
 100
AcDbLine
   6
DASHDOT
  62
11
  10
 276.07527664764
  20
 1062.7661527919
  30
0.0
  11
 316.95330886785
  21
 1133.5689815108
  31
0.0
   0
CIRCLE
   5
20F
 100
AcDbEntity
   8
LEVEL001
 370
9
 100
AcDbCircle
   6
DASHDOT
  62
11
  10
 385.92883706125
  20
 1253.0381008206
  30
0.0
  40
 180.00000000000
   0
ENDBLK
   5
210
 100
AcDbEntity
   8
0
 100
AcDbBlockEnd
   0
BLOCK
   5
211
 100
AcDbEntity
   8
0
 100
AcDbBlockBegin
   2
BLOCK017
  70
64
  10
0.0
  20
0.0
  30
0.0
   3
BLOCK017
   0
ARC
   5
212
 100
AcDbEntity
   8
LEVEL001
 370
40
   6
CONTINUOUS
  62
7
 100
AcDbCircle
  10
 385.92883706125
  20
 1240.5381008206
  30
0.0
  40
 250.00000000000
 100
AcDbArc
  50
 270.00000000000
  51
 90.000000000000
   0
ARC
   5
213
 100
AcDbEntity
   8
LEVEL001
 370
40
   6
CONTINUOUS
  62
7
 100
AcDbCircle
  10
 385.92883706125
  20
 1265.5381008206
  30
0.0
  40
 225.00000000000
 100
AcDbArc
  50
 90.000000000000
  51
 270.00000000000
   0
ARC
   5
214
 100
AcDbEntity
   8
LEVEL001
 370
40
   6
CONTINUOUS
  62
7
 100
AcDbCircle
  10
 385.92883706125
  20
 1240.5381008206
  30
0.0
  40
 200.00000000000
 100
AcDbArc
  50
 270.00000000000
  51
 90.000000000000
   0
ARC
   5
215
 100
AcDbEntity
   8
LEVEL001
 370
40
   6
CONTINUOUS
  62
7
 100
AcDbCircle
  10
 385.92883706125
  20
 1265.5381008206
  30
0.0
  40
 175.00000000000
 100
AcDbArc
  50
 90.000000000000
  51
 270.00000000000
   0
ARC
   5
216
 100
AcDbEntity
   8
LEVEL001
 370
40
   6
CONTINUOUS
  62
7
 100
AcDbCircle
  10
 385.92883706125
  20
 1284.2881008206
  30
0.0
  40
 293.75000000000
 100
AcDbArc
  50
 90.000000000000
  51
 270.00000000000
   0
ARC
   5
217
 100
AcDbEntity
   8
LEVEL001
 370
40
   6
CONTINUOUS
  62
7
 100
AcDbCircle
  10
 385.92883706125
  20
 1240.5381008206
  30
0.0
  40
 150.00000000000
 100
AcDbArc
  50
 270.00000000000
  51
 90.000000000000
   0
ARC
   5
218
 100
AcDbEntity
   8
LEVEL001
 370
40
   6
CONTINUOUS
  62
7
 100
AcDbCircle
  10
 385.92883706125
  20
 1284.2881008206
  30
0.0
  40
 243.75000000000
 100
AcDbArc
  50
 90.000000000000
  51
 122.69944263635
   0
ARC
   5
219
 100
AcDbEntity
   8
LEVEL001
 370
25
   6
DASHDOT
  62
3
 100
AcDbCircle
  10
 385.92883706125
  20
 1284.2881008206
  30
0.0
  40
 268.75000000000
 100
AcDbArc
  50
 90.000000000000
  51
 133.17219404156
   0
LINE
   5
21A
 100
AcDbEntity
   8
LEVEL001
 370
40
 100
AcDbLine
   6
CONTINUOUS
  62
7
  10
 385.92883706125
  20
 1528.0381008206
  30
0.0
  11
 459.92883706125
  21
 1528.0381008206
  31
0.0
   0
LWPOLYLINE
   5
21B
 100
AcDbEntity
   8
LEVEL001
 370
40
   6
CONTINUOUS
  62
7
 100
AcDbPolyline
  90
3
  70
0
  10
 459.92883706125
  20
 1479.3350857262
  10
 459.92883706125
  20
 1578.0381008206
  10
 385.92883706125
  20
 1578.0381008206
   0
ENDBLK
   5
21C
 100
AcDbEntity
   8
0
 100
AcDbBlockEnd
   0
BLOCK
   5
21D
 100
AcDbEntity
   8
0
 100
AcDbBlockBegin
   2
*D7
  70
65
  10
0.0
  20
0.0
  30
0.0
   3
*D7
   0
LINE
   5
21E
 100
AcDbEntity
   8
LEVEL001
 370
25
 100
AcDbLine
   6
CONTINUOUS
  62
3
  10
 773.92883706125
  20
 1633.0381008206
  30
0.0
  11
 895.61078546307
  21
 1633.0381008206
  31
0.0
   0
LINE
   5
21F
 100
AcDbEntity
   8
LEVEL001
 370
25
 100
AcDbLine
   6
CONTINUOUS
  62
3
  10
 883.61078546307
  20
 1633.0381008206
  30
0.0
  11
 883.61078546307
  21
 1593.0381008206
  31
0.0
   0
LINE
   5
220
 100
AcDbEntity
   8
LEVEL001
 370
25
 100
AcDbLine
   6
CONTINUOUS
  62
3
  10
 883.61078546307
  20
 1553.0381008206
  30
0.0
  11
 883.61078546307
  21
 1593.0381008206
  31
0.0
   0
INSERT
   5
221
 100
AcDbEntity
   8
LEVEL001
   6
CONTINUOUS
  62
3
 100
AcDbBlockReference
   2
_OPEN30
  10
 883.61078546307
  20
 1633.0381008206
  30
0.0
  41
 16.000000000000
  42
 16.000000000000
  43
 16.000000000000
  50
 90.000000000000
   0
INSERT
   5
222
 100
AcDbEntity
   8
LEVEL001
   6
CONTINUOUS
  62
3
 100
AcDbBlockReference
   2
_OPEN30
  10
 883.61078546307
  20
 1553.0381008206
  30
0.0
  41
 16.000000000000
  42
 16.000000000000
  43
 16.000000000000
  50
 270.00000000000
   0
MTEXT
   5
223
 100
AcDbEntity
   8
LEVEL001
 370
40
  62
7
 100
AcDbMText
  10
 874.47098475967
  20
 1602.6065213811
  30
0.0
  40
 20.000000000000
  41
0.0
  71
8
  72
1
   1
\A1;８０
   7
GMM003
  11
0.0
  21
 1.0000000000000
  31
0.0
   0
ENDBLK
   5
224
 100
AcDbEntity
   8
0
 100
AcDbBlockEnd
   0
BLOCK
   5
225
 100
AcDbEntity
   8
0
 100
AcDbBlockBegin
   2
*D8
  70
65
  10
0.0
  20
0.0
  30
0.0
   3
*D8
   0
LINE
   5
226
 100
AcDbEntity
   8
LEVEL001
 370
25
 100
AcDbLine
   6
CONTINUOUS
  62
3
  10
 883.61078546307
  20
 1553.0381008206
  30
0.0
  11
 871.61078546307
  21
 1553.0381008206
  31
0.0
   0
LINE
   5
227
 100
AcDbEntity
   8
LEVEL001
 370
25
 100
AcDbLine
   6
CONTINUOUS
  62
3
  10
 848.48706144740
  20
 1253.0381008206
  30
0.0
  11
 895.61078546307
  21
 1253.0381008206
  31
0.0
   0
LINE
   5
228
 100
AcDbEntity
   8
LEVEL001
 370
25
 100
AcDbLine
   6
CONTINUOUS
  62
3
  10
 883.61078546307
  20
 1553.0381008206
  30
0.0
  11
 883.61078546307
  21
 1403.0381008206
  31
0.0
   0
LINE
   5
229
 100
AcDbEntity
   8
LEVEL001
 370
25
 100
AcDbLine
   6
CONTINUOUS
  62
3
  10
 883.61078546307
  20
 1253.0381008206
  30
0.0
  11
 883.61078546307
  21
 1403.0381008206
  31
0.0
   0
INSERT
   5
22A
 100
AcDbEntity
   8
LEVEL001
   6
CONTINUOUS
  62
3
 100
AcDbBlockReference
   2
_OPEN30
  10
 883.61078546307
  20
 1553.0381008206
  30
0.0
  41
 16.000000000000
  42
 16.000000000000
  43
 16.000000000000
  50
 90.000000000000
   0
INSERT
   5
22B
 100
AcDbEntity
   8
LEVEL001
   6
CONTINUOUS
  62
3
 100
AcDbBlockReference
   2
_OPEN30
  10
 883.61078546307
  20
 1253.0381008206
  30
0.0
  41
 16.000000000000
  42
 16.000000000000
  43
 16.000000000000
  50
 270.00000000000
   0
MTEXT
   5
22C
 100
AcDbEntity
   8
LEVEL001
 370
40
  62
7
 100
AcDbMText
  10
 875.03935689164
  20
 1403.0381008206
  30
0.0
  40
 20.000000000000
  41
0.0
  71
8
  72
1
   1
\A1;（３００）
   7
GMM003
  11
0.0
  21
 1.0000000000000
  31
0.0
   0
ENDBLK
   5
22D
 100
AcDbEntity
   8
0
 100
AcDbBlockEnd
   0
BLOCK
   5
22E
 100
AcDbEntity
   8
0
 100
AcDbBlockBegin
   2
*D9
  70
65
  10
0.0
  20
0.0
  30
0.0
   3
*D9
   0
LINE
   5
22F
 100
AcDbEntity
   8
LEVEL001
 370
25
 100
AcDbLine
   6
CONTINUOUS
  62
3
  10
 135.92883706125
  20
 1641.0381008206
  30
0.0
  11
 135.92883706125
  21
 1806.9232121923
  31
0.0
   0
LINE
   5
230
 100
AcDbEntity
   8
LEVEL001
 370
25
 100
AcDbLine
   6
CONTINUOUS
  62
3
  10
 135.92883706125
  20
 1794.9232121923
  30
0.0
  11
 450.92883706125
  21
 1794.9232121923
  31
0.0
   0
LINE
   5
231
 100
AcDbEntity
   8
LEVEL001
 370
25
 100
AcDbLine
   6
CONTINUOUS
  62
3
  10
 765.92883706125
  20
 1794.9232121923
  30
0.0
  11
 450.92883706125
  21
 1794.9232121923
  31
0.0
   0
INSERT
   5
232
 100
AcDbEntity
   8
LEVEL001
   6
CONTINUOUS
  62
3
 100
AcDbBlockReference
   2
_OPEN30
  10
 135.92883706125
  20
 1794.9232121923
  30
0.0
  41
 16.000000000000
  42
 16.000000000000
  43
 16.000000000000
  50
 180.00000000000
   0
INSERT
   5
233
 100
AcDbEntity
   8
LEVEL001
   6
CONTINUOUS
  62
3
 100
AcDbBlockReference
   2
_OPEN30
  10
 765.92883706125
  20
 1794.9232121923
  30
0.0
  41
 16.000000000000
  42
 16.000000000000
  43
 16.000000000000
  50
0.0
   0
MTEXT
   5
234
 100
AcDbEntity
   8
LEVEL001
 370
40
  62
7
 100
AcDbMText
  10
 450.92883706125
  20
 1803.4946407637
  30
0.0
  40
 20.000000000000
  41
0.0
  71
8
  72
1
   1
\A1;６３０
   7
GMM003
   0
ENDBLK
   5
235
 100
AcDbEntity
   8
0
 100
AcDbBlockEnd
   0
BLOCK
   5
236
 100
AcDbEntity
   8
0
 100
AcDbBlockBegin
   2
*D10
  70
65
  10
0.0
  20
0.0
  30
0.0
   3
*D10
   0
LINE
   5
237
 100
AcDbEntity
   8
LEVEL001
 370
25
 100
AcDbLine
   6
CONTINUOUS
  62
3
  10
 765.92883706125
  20
 1641.0381008206
  30
0.0
  11
 765.92883706125
  21
 1806.9232121923
  31
0.0
   0
LINE
   5
238
 100
AcDbEntity
   8
LEVEL001
 370
25
 100
AcDbLine
   6
CONTINUOUS
  62
3
  10
 985.92883706125
  20
 1577.0381008206
  30
0.0
  11
 985.92883706125
  21
 1806.9232121923
  31
0.0
   0
LINE
   5
239
 100
AcDbEntity
   8
LEVEL001
 370
25
 100
AcDbLine
   6
CONTINUOUS
  62
3
  10
 765.92883706125
  20
 1794.9232121923
  30
0.0
  11
 875.92883706125
  21
 1794.9232121923
  31
0.0
   0
LINE
   5
23A
 100
AcDbEntity
   8
LEVEL001
 370
25
 100
AcDbLine
   6
CONTINUOUS
  62
3
  10
 985.92883706125
  20
 1794.9232121923
  30
0.0
  11
 875.92883706125
  21
 1794.9232121923
  31
0.0
   0
INSERT
   5
23B
 100
AcDbEntity
   8
LEVEL001
   6
CONTINUOUS
  62
3
 100
AcDbBlockReference
   2
_OPEN30
  10
 765.92883706125
  20
 1794.9232121923
  30
0.0
  41
 16.000000000000
  42
 16.000000000000
  43
 16.000000000000
  50
 180.00000000000
   0
INSERT
   5
23C
 100
AcDbEntity
   8
LEVEL001
   6
CONTINUOUS
  62
3
 100
AcDbBlockReference
   2
_OPEN30
  10
 985.92883706125
  20
 1794.9232121923
  30
0.0
  41
 16.000000000000
  42
 16.000000000000
  43
 16.000000000000
  50
0.0
   0
MTEXT
   5
23D
 100
AcDbEntity
   8
LEVEL001
 370
40
  62
7
 100
AcDbMText
  10
 875.92883706125
  20
 1803.4946407637
  30
0.0
  40
 20.000000000000
  41
0.0
  71
8
  72
1
   1
\A1;２２０
   7
GMM003
   0
ENDBLK
   5
23E
 100
AcDbEntity
   8
0
 100
AcDbBlockEnd
   0
BLOCK
   5
23F
 100
AcDbEntity
   8
0
 100
AcDbBlockBegin
   2
*D12
  70
65
  10
0.0
  20
0.0
  30
0.0
   3
*D12
   0
LINE
   5
240
 100
AcDbEntity
   8
LEVEL001
 370
25
 100
AcDbLine
   6
CONTINUOUS
  62
3
  10
 127.92883706125
  20
 1633.0381008206
  30
0.0
  11
 29.362758413633
  21
 1633.0381008206
  31
0.0
   0
LINE
   5
241
 100
AcDbEntity
   8
LEVEL001
 370
25
 100
AcDbLine
   6
CONTINUOUS
  62
3
  10
 41.362758413633
  20
 1713.8359698128
  30
0.0
  11
 41.362758413633
  21
 1620.5381008206
  31
0.0
   0
LINE
   5
242
 100
AcDbEntity
   8
LEVEL001
 370
25
 100
AcDbLine
   6
CONTINUOUS
  62
3
  10
 41.362758413633
  20
 1608.0381008206
  30
0.0
  11
 41.362758413633
  21
 1620.5381008206
  31
0.0
   0
INSERT
   5
243
 100
AcDbEntity
   8
LEVEL001
   6
CONTINUOUS
  62
3
 100
AcDbBlockReference
   2
_OPEN30
  10
 41.362758413633
  20
 1633.0381008206
  30
0.0
  41
 16.000000000000
  42
 16.000000000000
  43
 16.000000000000
  50
 270.00000000000
   0
MTEXT
   5
244
 100
AcDbEntity
   8
LEVEL001
 370
40
  62
7
 100
AcDbMText
  10
 36.118784490893
  20
 1657.8359698128
  30
0.0
  40
 20.000000000000
  41
0.0
  71
7
  72
1
   1
\A1;２５
   7
GMM003
  11
0.0
  21
 1.0000000000000
  31
0.0
   0
ENDBLK
   5
245
 100
AcDbEntity
   8
0
 100
AcDbBlockEnd
   0
BLOCK
   5
246
 100
AcDbEntity
   8
0
 100
AcDbBlockBegin
   2
*D13
  70
65
  10
0.0
  20
0.0
  30
0.0
   3
*D13
   0
LINE
   5
247
 100
AcDbEntity
   8
LEVEL001
 370
25
 100
AcDbLine
   6
CONTINUOUS
  62
3
  10
 140.92883706125
  20
 1608.0381008206
  30
0.0
  11
 29.362758413633
  21
 1608.0381008206
  31
0.0
   0
LINE
   5
248
 100
AcDbEntity
   8
LEVEL001
 370
25
 100
AcDbLine
   6
CONTINUOUS
  62
3
  10
 140.92883706125
  20
 1038.0381008206
  30
0.0
  11
 29.362758413633
  21
 1038.0381008206
  31
0.0
   0
LINE
   5
249
 100
AcDbEntity
   8
LEVEL001
 370
25
 100
AcDbLine
   6
CONTINUOUS
  62
3
  10
 41.362758413633
  20
 1608.0381008206
  30
0.0
  11
 41.362758413633
  21
 1323.0381008206
  31
0.0
   0
LINE
   5
24A
 100
AcDbEntity
   8
LEVEL001
 370
25
 100
AcDbLine
   6
CONTINUOUS
  62
3
  10
 41.362758413633
  20
 1038.0381008206
  30
0.0
  11
 41.362758413633
  21
 1323.0381008206
  31
0.0
   0
INSERT
   5
24B
 100
AcDbEntity
   8
LEVEL001
   6
CONTINUOUS
  62
3
 100
AcDbBlockReference
   2
_OPEN30
  10
 41.362758413633
  20
 1608.0381008206
  30
0.0
  41
 16.000000000000
  42
 16.000000000000
  43
 16.000000000000
  50
 90.000000000000
   0
INSERT
   5
24C
 100
AcDbEntity
   8
LEVEL001
   6
CONTINUOUS
  62
3
 100
AcDbBlockReference
   2
_OPEN30
  10
 41.362758413633
  20
 1038.0381008206
  30
0.0
  41
 16.000000000000
  42
 16.000000000000
  43
 16.000000000000
  50
 270.00000000000
   0
MTEXT
   5
24D
 100
AcDbEntity
   8
LEVEL001
 370
40
  62
7
 100
AcDbMText
  10
 32.791329842205
  20
 1323.0381008206
  30
0.0
  40
 20.000000000000
  41
0.0
  71
8
  72
1
   1
\A1;５７０
   7
GMM003
  11
0.0
  21
 1.0000000000000
  31
0.0
   0
ENDBLK
   5
24E
 100
AcDbEntity
   8
0
 100
AcDbBlockEnd
   0
BLOCK
   5
24F
 100
AcDbEntity
   8
0
 100
AcDbBlockBegin
   2
*D14
  70
65
  10
0.0
  20
0.0
  30
0.0
   3
*D14
   0
LINE
   5
250
 100
AcDbEntity
   8
LEVEL001
 370
25
 100
AcDbLine
   6
CONTINUOUS
  62
3
  10
 127.92883706125
  20
 1633.0381008206
  30
0.0
  11
-26.749885626054
  21
 1633.0381008206
  31
0.0
   0
LINE
   5
251
 100
AcDbEntity
   8
LEVEL001
 370
25
 100
AcDbLine
   6
CONTINUOUS
  62
3
  10
 127.92883706125
  20
 1013.0381008206
  30
0.0
  11
-26.749885626054
  21
 1013.0381008206
  31
0.0
   0
LINE
   5
252
 100
AcDbEntity
   8
LEVEL001
 370
25
 100
AcDbLine
   6
CONTINUOUS
  62
3
  10
-14.749885626054
  20
 1633.0381008206
  30
0.0
  11
-14.749885626054
  21
 1323.0381008206
  31
0.0
   0
LINE
   5
253
 100
AcDbEntity
   8
LEVEL001
 370
25
 100
AcDbLine
   6
CONTINUOUS
  62
3
  10
-14.749885626054
  20
 1013.0381008206
  30
0.0
  11
-14.749885626054
  21
 1323.0381008206
  31
0.0
   0
INSERT
   5
254
 100
AcDbEntity
   8
LEVEL001
   6
CONTINUOUS
  62
3
 100
AcDbBlockReference
   2
_OPEN30
  10
-14.749885626054
  20
 1633.0381008206
  30
0.0
  41
 16.000000000000
  42
 16.000000000000
  43
 16.000000000000
  50
 90.000000000000
   0
INSERT
   5
255
 100
AcDbEntity
   8
LEVEL001
   6
CONTINUOUS
  62
3
 100
AcDbBlockReference
   2
_OPEN30
  10
-14.749885626054
  20
 1013.0381008206
  30
0.0
  41
 16.000000000000
  42
 16.000000000000
  43
 16.000000000000
  50
 270.00000000000
   0
MTEXT
   5
256
 100
AcDbEntity
   8
LEVEL001
 370
40
  62
7
 100
AcDbMText
  10
-23.321314197483
  20
 1323.0381008206
  30
0.0
  40
 20.000000000000
  41
0.0
  71
8
  72
1
   1
\A1;６２０
   7
GMM003
  11
0.0
  21
 1.0000000000000
  31
0.0
   0
ENDBLK
   5
257
 100
AcDbEntity
   8
0
 100
AcDbBlockEnd
   0
BLOCK
   5
258
 100
AcDbEntity
   8
0
 100
AcDbBlockBegin
   2
BLOCK018
  70
64
  10
0.0
  20
0.0
  30
0.0
   3
BLOCK018
   0
LINE
   5
259
 100
AcDbEntity
   8
LEVEL001
 370
40
 100
AcDbLine
   6
CONTINUOUS
  62
7
  10
 775.92883706125
  20
 1523.0381008206
  30
0.0
  11
 794.92883706125
  21
 1523.0381008206
  31
0.0
   0
LWPOLYLINE
   5
25A
 100
AcDbEntity
   8
LEVEL001
 370
40
   6
CONTINUOUS
  62
7
 100
AcDbPolyline
  90
4
  70
0
  10
 775.92883706125
  20
 1537.0381008206
  10
 775.92883706125
  20
 1519.5381008206
  10
 545.92883706125
  20
 1519.5381008206
  10
 545.92883706125
  20
 1537.0381008206
   0
LWPOLYLINE
   5
25B
 100
AcDbEntity
   8
LEVEL001
 370
40
   6
CONTINUOUS
  62
7
 100
AcDbPolyline
  90
3
  70
0
  10
 775.92883706125
  20
 1519.5381008206
  10
 794.92883706125
  20
 1519.5381008206
  10
 794.92883706125
  20
 1537.0381008206
   0
LINE
   5
25C
 100
AcDbEntity
   8
LEVEL001
 370
40
 100
AcDbLine
   6
CONTINUOUS
  62
7
  10
 775.92883706125
  20
 1583.0381008206
  30
0.0
  11
 794.92883706125
  21
 1583.0381008206
  31
0.0
   0
LWPOLYLINE
   5
25D
 100
AcDbEntity
   8
LEVEL001
 370
40
   6
CONTINUOUS
  62
7
 100
AcDbPolyline
  90
4
  70
0
  10
 545.92883706125
  20
 1569.0381008206
  10
 545.92883706125
  20
 1586.5381008206
  10
 775.92883706125
  20
 1586.5381008206
  10
 775.92883706125
  20
 1569.0381008206
   0
LWPOLYLINE
   5
25E
 100
AcDbEntity
   8
LEVEL001
 370
40
   6
CONTINUOUS
  62
7
 100
AcDbPolyline
  90
3
  70
0
  10
 794.92883706125
  20
 1569.0381008206
  10
 794.92883706125
  20
 1586.5381008206
  10
 775.92883706125
  20
 1586.5381008206
   0
LINE
   5
25F
 100
AcDbEntity
   8
LEVEL001
 370
40
 100
AcDbLine
   6
CONTINUOUS
  62
7
  10
 527.92883706125
  20
 1569.0381008206
  30
0.0
  11
 527.92883706125
  21
 1583.0381008206
  31
0.0
   0
LINE
   5
260
 100
AcDbEntity
   8
LEVEL001
 370
40
 100
AcDbLine
   6
CONTINUOUS
  62
7
  10
 527.92883706125
  20
 1523.0381008206
  30
0.0
  11
 527.92883706125
  21
 1537.0381008206
  31
0.0
   0
LWPOLYLINE
   5
261
 100
AcDbEntity
   8
LEVEL001
 370
40
   6
CONTINUOUS
  62
7
 100
AcDbPolyline
  90
3
  70
0
  10
 545.92883706125
  20
 1523.0381008206
  10
 427.92883706125
  20
 1523.0381008206
  10
 427.92883706125
  20
 1528.0381008206
   0
LWPOLYLINE
   5
262
 100
AcDbEntity
   8
LEVEL001
 370
40
   6
CONTINUOUS
  62
7
 100
AcDbPolyline
  90
3
  70
0
  10
 427.92883706125
  20
 1578.0381008206
  10
 427.92883706125
  20
 1583.0381008206
  10
 545.92883706125
  20
 1583.0381008206
   0
ENDBLK
   5
263
 100
AcDbEntity
   8
0
 100
AcDbBlockEnd
   0
BLOCK
   5
264
 100
AcDbEntity
   8
0
 100
AcDbBlockBegin
   2
*D15
  70
65
  10
0.0
  20
0.0
  30
0.0
   3
*D15
   0
LINE
   5
265
 100
AcDbEntity
   8
LEVEL001
 370
25
 100
AcDbLine
   6
CONTINUOUS
  62
3
  10
 160.92883706125
  20
 1628.0381008206
  30
0.0
  11
 160.92883706125
  21
 1737.2866354045
  31
0.0
   0
LINE
   5
266
 100
AcDbEntity
   8
LEVEL001
 370
25
 100
AcDbLine
   6
CONTINUOUS
  62
3
  10
 160.92883706125
  20
 1725.2866354045
  30
0.0
  11
 450.92883706125
  21
 1725.2866354045
  31
0.0
   0
LINE
   5
267
 100
AcDbEntity
   8
LEVEL001
 370
25
 100
AcDbLine
   6
CONTINUOUS
  62
3
  10
 740.92883706125
  20
 1725.2866354045
  30
0.0
  11
 450.92883706125
  21
 1725.2866354045
  31
0.0
   0
INSERT
   5
268
 100
AcDbEntity
   8
LEVEL001
   6
CONTINUOUS
  62
3
 100
AcDbBlockReference
   2
_OPEN30
  10
 160.92883706125
  20
 1725.2866354045
  30
0.0
  41
 16.000000000000
  42
 16.000000000000
  43
 16.000000000000
  50
 180.00000000000
   0
INSERT
   5
269
 100
AcDbEntity
   8
LEVEL001
   6
CONTINUOUS
  62
3
 100
AcDbBlockReference
   2
_OPEN30
  10
 740.92883706125
  20
 1725.2866354045
  30
0.0
  41
 16.000000000000
  42
 16.000000000000
  43
 16.000000000000
  50
0.0
   0
MTEXT
   5
26A
 100
AcDbEntity
   8
LEVEL001
 370
40
  62
7
 100
AcDbMText
  10
 450.92883706125
  20
 1733.8580639759
  30
0.0
  40
 20.000000000000
  41
0.0
  71
8
  72
1
   1
\A1;５８０
   7
GMM003
   0
ENDBLK
   5
26B
 100
AcDbEntity
   8
0
 100
AcDbBlockEnd
   0
BLOCK
   5
26C
 100
AcDbEntity
   8
0
 100
AcDbBlockBegin
   2
*D16
  70
65
  10
0.0
  20
0.0
  30
0.0
   3
*D16
   0
LINE
   5
26D
 100
AcDbEntity
   8
LEVEL001
 370
25
 100
AcDbLine
   6
CONTINUOUS
  62
3
  10
 740.92883706125
  20
 1628.0381008206
  30
0.0
  11
 740.92883706125
  21
 1737.2866354045
  31
0.0
   0
LINE
   5
26E
 100
AcDbEntity
   8
LEVEL001
 370
25
 100
AcDbLine
   6
CONTINUOUS
  62
3
  10
 765.92883706125
  20
 1641.0381008206
  30
0.0
  11
 765.92883706125
  21
 1737.2866354045
  31
0.0
   0
LINE
   5
26F
 100
AcDbEntity
   8
LEVEL001
 370
25
 100
AcDbLine
   6
CONTINUOUS
  62
3
  10
 740.92883706125
  20
 1725.2866354045
  30
0.0
  11
 753.42883706125
  21
 1725.2866354045
  31
0.0
   0
LINE
   5
270
 100
AcDbEntity
   8
LEVEL001
 370
25
 100
AcDbLine
   6
CONTINUOUS
  62
3
  10
 846.52069453578
  20
 1725.2866354045
  30
0.0
  11
 753.42883706125
  21
 1725.2866354045
  31
0.0
   0
INSERT
   5
271
 100
AcDbEntity
   8
LEVEL001
   6
CONTINUOUS
  62
3
 100
AcDbBlockReference
   2
_OPEN30
  10
 765.92883706125
  20
 1725.2866354045
  30
0.0
  41
 16.000000000000
  42
 16.000000000000
  43
 16.000000000000
  50
 180.00000000000
   0
MTEXT
   5
272
 100
AcDbEntity
   8
LEVEL001
 370
40
  62
7
 100
AcDbMText
  10
 790.52069453578
  20
 1731.3883281389
  30
0.0
  40
 20.000000000000
  41
0.0
  71
7
  72
1
   1
\A1;２５
   7
GMM003
   0
ENDBLK
   5
273
 100
AcDbEntity
   8
0
 100
AcDbBlockEnd
   0
BLOCK
   5
274
 100
AcDbEntity
   8
0
 100
AcDbBlockBegin
   2
BLOCK019
  70
64
  10
0.0
  20
0.0
  30
0.0
   3
BLOCK019
   0
ARC
   5
275
 100
AcDbEntity
   8
LEVEL001
 370
25
   6
CONTINUOUS
  62
3
 100
AcDbCircle
  10
 1152.1930355509
  20
 319.47584989376
  30
0.0
  40
 1.2000000476837
 100
AcDbArc
  50
 89.999419431002
  51
 180.00058056900
   0
LINE
   5
276
 100
AcDbEntity
   8
LEVEL001
 370
25
 100
AcDbLine
   6
CONTINUOUS
  62
3
  10
 1152.1930477103
  20
 320.67584994138
  30
0.0
  11
 1167.7930232963
  21
 320.67584994138
  31
0.0
   0
ARC
   5
277
 100
AcDbEntity
   8
LEVEL001
 370
25
   6
CONTINUOUS
  62
3
 100
AcDbCircle
  10
 1167.7930354557
  20
 319.47584989376
  30
0.0
  40
 1.2000000476837
 100
AcDbArc
  50
0.0
  51
 90.000580568998
   0
LINE
   5
278
 100
AcDbEntity
   8
LEVEL001
 370
25
 100
AcDbLine
   6
CONTINUOUS
  62
3
  10
 1168.9930355033
  20
 319.47583773435
  30
0.0
  11
 1168.9930355033
  21
 308.67584994138
  31
0.0
   0
LINE
   5
279
 100
AcDbEntity
   8
LEVEL001
 370
25
 100
AcDbLine
   6
CONTINUOUS
  62
3
  10
 1150.9930355033
  20
 308.67584994138
  30
0.0
  11
 1150.9930355033
  21
 319.47583773435
  31
0.0
   0
LWPOLYLINE
   5
27A
 100
AcDbEntity
   8
LEVEL001
 370
25
   6
CONTINUOUS
  62
3
 100
AcDbPolyline
  90
4
  70
0
  10
 1149.2430355033
  20
 305.67584994138
  10
 1149.2430355033
  20
 308.67584994138
  10
 1170.7430355033
  20
 308.67584994138
  10
 1170.7430355033
  20
 305.67584994138
   0
LINE
   5
27B
 100
AcDbEntity
   8
LEVEL001
 370
25
 100
AcDbLine
   6
CONTINUOUS
  62
3
  10
 1161.7250911674
  20
 308.67584994138
  30
0.0
  11
 1159.9930355033
  21
 305.67584994138
  31
0.0
   0
LINE
   5
27C
 100
AcDbEntity
   8
LEVEL001
 370
25
 100
AcDbLine
   6
CONTINUOUS
  62
3
  10
 1159.9930355033
  20
 308.67584994138
  30
0.0
  11
 1158.2609798392
  21
 305.67584994138
  31
0.0
   0
LINE
   5
27D
 100
AcDbEntity
   8
LEVEL001
 370
25
 100
AcDbLine
   6
DASHDOT
  62
3
  10
 1159.9930355033
  20
 327.29666038959
  30
0.0
  11
 1159.9930355033
  21
 277.84905323374
  31
0.0
   0
ENDBLK
   5
27E
 100
AcDbEntity
   8
0
 100
AcDbBlockEnd
   0
BLOCK
   5
27F
 100
AcDbEntity
   8
0
 100
AcDbBlockBegin
   2
BLOCK020
  70
64
  10
0.0
  20
0.0
  30
0.0
   3
BLOCK020
   0
ARC
   5
280
 100
AcDbEntity
   8
LEVEL001
 370
25
   6
CONTINUOUS
  62
3
 100
AcDbCircle
  10
 1102.1930355509
  20
 319.47584989376
  30
0.0
  40
 1.2000000476837
 100
AcDbArc
  50
 89.999419431002
  51
 180.00058056900
   0
LINE
   5
281
 100
AcDbEntity
   8
LEVEL001
 370
25
 100
AcDbLine
   6
CONTINUOUS
  62
3
  10
 1102.1930477103
  20
 320.67584994138
  30
0.0
  11
 1117.7930232963
  21
 320.67584994138
  31
0.0
   0
ARC
   5
282
 100
AcDbEntity
   8
LEVEL001
 370
25
   6
CONTINUOUS
  62
3
 100
AcDbCircle
  10
 1117.7930354557
  20
 319.47584989376
  30
0.0
  40
 1.2000000476837
 100
AcDbArc
  50
0.0
  51
 90.000580568998
   0
LINE
   5
283
 100
AcDbEntity
   8
LEVEL001
 370
25
 100
AcDbLine
   6
CONTINUOUS
  62
3
  10
 1118.9930355033
  20
 319.47583773435
  30
0.0
  11
 1118.9930355033
  21
 308.67584994138
  31
0.0
   0
LINE
   5
284
 100
AcDbEntity
   8
LEVEL001
 370
25
 100
AcDbLine
   6
CONTINUOUS
  62
3
  10
 1100.9930355033
  20
 308.67584994138
  30
0.0
  11
 1100.9930355033
  21
 319.47583773435
  31
0.0
   0
LWPOLYLINE
   5
285
 100
AcDbEntity
   8
LEVEL001
 370
25
   6
CONTINUOUS
  62
3
 100
AcDbPolyline
  90
4
  70
0
  10
 1099.2430355033
  20
 305.67584994138
  10
 1099.2430355033
  20
 308.67584994138
  10
 1120.7430355033
  20
 308.67584994138
  10
 1120.7430355033
  20
 305.67584994138
   0
LINE
   5
286
 100
AcDbEntity
   8
LEVEL001
 370
25
 100
AcDbLine
   6
CONTINUOUS
  62
3
  10
 1111.7250911674
  20
 308.67584994138
  30
0.0
  11
 1109.9930355033
  21
 305.67584994138
  31
0.0
   0
LINE
   5
287
 100
AcDbEntity
   8
LEVEL001
 370
25
 100
AcDbLine
   6
CONTINUOUS
  62
3
  10
 1109.9930355033
  20
 308.67584994138
  30
0.0
  11
 1108.2609798392
  21
 305.67584994138
  31
0.0
   0
LINE
   5
288
 100
AcDbEntity
   8
LEVEL001
 370
25
 100
AcDbLine
   6
DASHDOT
  62
3
  10
 1109.9930355033
  20
 327.29666038959
  30
0.0
  11
 1109.9930355033
  21
 277.84905323374
  31
0.0
   0
ENDBLK
   5
289
 100
AcDbEntity
   8
0
 100
AcDbBlockEnd
   0
BLOCK
   5
28A
 100
AcDbEntity
   8
0
 100
AcDbBlockBegin
   2
BLOCK021
  70
64
  10
0.0
  20
0.0
  30
0.0
   3
BLOCK021
   0
LINE
   5
28B
 100
AcDbEntity
   8
LEVEL001
 370
40
 100
AcDbLine
   6
CONTINUOUS
  62
7
  10
 1164.9930355033
  20
 558.67584994138
  30
0.0
  11
 1104.9930355033
  21
 558.67584994138
  31
0.0
   0
LWPOLYLINE
   5
28C
 100
AcDbEntity
   8
LEVEL001
 370
25
   6
CONTINUOUS
  62
3
 100
AcDbPolyline
  90
4
  70
1
  10
 1122.9930355033
  20
 526.67584994138
  10
 1106.9930355033
  20
 526.67584994138
  10
 1106.9930355033
  20
 528.27584994138
  10
 1122.9930355033
  20
 528.27584994138
   0
LWPOLYLINE
   5
28D
 100
AcDbEntity
   8
LEVEL001
 370
25
   6
CONTINUOUS
  62
3
 100
AcDbPolyline
  90
4
  70
0
  10
 1122.9930355033
  20
 542.67584994138
  10
 1122.9930355033
  20
 541.07584994138
  10
 1106.9930355033
  20
 541.07584994138
  10
 1106.9930355033
  20
 542.67584994138
   0
LINE
   5
28E
 100
AcDbEntity
   8
LEVEL001
 370
25
 100
AcDbLine
   6
CONTINUOUS
  62
3
  10
 1121.4930355033
  20
 539.57584994138
  30
0.0
  11
 1121.4930355033
  21
 529.77584994138
  31
0.0
   0
LINE
   5
28F
 100
AcDbEntity
   8
LEVEL001
 370
25
 100
AcDbLine
   6
CONTINUOUS
  62
3
  10
 1108.4930355033
  20
 539.57584994138
  30
0.0
  11
 1108.4930355033
  21
 529.77584994138
  31
0.0
   0
ARC
   5
290
 100
AcDbEntity
   8
LEVEL001
 370
25
   6
CONTINUOUS
  62
3
 100
AcDbCircle
  10
 1106.9930355033
  20
 539.57584994138
  30
0.0
  40
 1.5000000000000
 100
AcDbArc
  50
0.0
  51
 90.000000000000
   0
ARC
   5
291
 100
AcDbEntity
   8
LEVEL001
 370
25
   6
CONTINUOUS
  62
3
 100
AcDbCircle
  10
 1122.9930355033
  20
 539.57584994138
  30
0.0
  40
 1.5000000000000
 100
AcDbArc
  50
 90.000000000000
  51
 180.00000000000
   0
ARC
   5
292
 100
AcDbEntity
   8
LEVEL001
 370
25
   6
CONTINUOUS
  62
3
 100
AcDbCircle
  10
 1122.9930355033
  20
 529.77584994138
  30
0.0
  40
 1.5000000000000
 100
AcDbArc
  50
 180.00000000000
  51
 270.00000000000
   0
ARC
   5
293
 100
AcDbEntity
   8
LEVEL001
 370
25
   6
CONTINUOUS
  62
3
 100
AcDbCircle
  10
 1106.9930355033
  20
 529.77584994138
  30
0.0
  40
 1.5000000000000
 100
AcDbArc
  50
 270.00000000000
  51
0.0
   0
LINE
   5
294
 100
AcDbEntity
   8
LEVEL001
 370
25
 100
AcDbLine
   6
DASHDOT
  62
3
  10
 1114.9930355033
  20
 549.69931272455
  30
0.0
  11
 1114.9930355033
  21
 502.18171563718
  31
0.0
   0
LINE
   5
295
 100
AcDbEntity
   8
LEVEL001
 370
25
 100
AcDbLine
   6
CONTINUOUS
  62
3
  10
 1111.9930355033
  20
 509.27584078611
  30
0.0
  11
 1117.9930355033
  21
 509.27584078611
  31
0.0
   0
LINE
   5
296
 100
AcDbEntity
   8
LEVEL001
 370
25
 100
AcDbLine
   6
CONTINUOUS
  62
3
  10
 1117.9930355033
  20
 524.67584994138
  30
0.0
  11
 1111.9930355033
  21
 524.67584994138
  31
0.0
   0
LWPOLYLINE
   5
297
 100
AcDbEntity
   8
LEVEL001
 370
25
   6
CONTINUOUS
  62
3
 100
AcDbPolyline
  90
4
  70
0
  10
 1108.8930355033
  20
 517.67584994138
  10
 1108.8930355033
  20
 516.17584994138
  10
 1121.0930355033
  20
 516.17584994138
  10
 1121.0930355033
  20
 517.67584994138
   0
LINE
   5
298
 100
AcDbEntity
   8
LEVEL001
 370
25
 100
AcDbLine
   6
CONTINUOUS
  62
3
  10
 1114.1270100995
  20
 516.17584994138
  30
0.0
  11
 1114.9930355033
  21
 517.67584994138
  31
0.0
   0
LINE
   5
299
 100
AcDbEntity
   8
LEVEL001
 370
25
 100
AcDbLine
   6
CONTINUOUS
  62
3
  10
 1114.9930355033
  20
 516.17584994138
  30
0.0
  11
 1115.8590609070
  21
 517.67584994138
  31
0.0
   0
LINE
   5
29A
 100
AcDbEntity
   8
LEVEL001
 370
25
 100
AcDbLine
   6
CONTINUOUS
  62
3
  10
 1119.3231625221
  20
 511.17584994138
  30
0.0
  11
 1110.6629084843
  21
 511.17584994138
  31
0.0
   0
LINE
   5
29B
 100
AcDbEntity
   8
LEVEL001
 370
25
 100
AcDbLine
   6
CONTINUOUS
  62
3
  10
 1112.1062841572
  20
 511.85204820489
  30
0.0
  11
 1112.1062841572
  21
 516.17584994138
  31
0.0
   0
LINE
   5
29C
 100
AcDbEntity
   8
LEVEL001
 370
25
 100
AcDbLine
   6
CONTINUOUS
  62
3
  10
 1117.8797868491
  20
 511.85204820489
  30
0.0
  11
 1117.8797868491
  21
 516.17584994138
  31
0.0
   0
LINE
   5
29D
 100
AcDbEntity
   8
LEVEL001
 370
25
 100
AcDbLine
   6
CONTINUOUS
  62
3
  10
 1109.2195328113
  20
 511.85204820489
  30
0.0
  11
 1109.2195328113
  21
 516.17584994138
  31
0.0
   0
LINE
   5
29E
 100
AcDbEntity
   8
LEVEL001
 370
25
 100
AcDbLine
   6
CONTINUOUS
  62
3
  10
 1120.7665381950
  20
 516.17584994138
  30
0.0
  11
 1120.7665381950
  21
 511.85204820489
  31
0.0
   0
ARC
   5
29F
 100
AcDbEntity
   8
LEVEL001
 370
25
   6
CONTINUOUS
  62
3
 100
AcDbCircle
  10
 1110.6629084843
  20
 513.05442429003
  30
0.0
  40
 1.8785743486438
 100
AcDbArc
  50
 219.79533255711
  51
 320.20466744289
   0
ARC
   5
2A0
 100
AcDbEntity
   8
LEVEL001
 370
25
   6
CONTINUOUS
  62
3
 100
AcDbCircle
  10
 1114.9930355033
  20
 517.67584994138
  30
0.0
  40
 6.5000000000000
 100
AcDbArc
  50
 243.63323154589
  51
 296.36676845221
   0
ARC
   5
2A1
 100
AcDbEntity
   8
LEVEL001
 370
25
   6
CONTINUOUS
  62
3
 100
AcDbCircle
  10
 1119.3231625221
  20
 513.05442429003
  30
0.0
  40
 1.8785743486438
 100
AcDbArc
  50
 219.79533255711
  51
 320.20466744289
   0
LINE
   5
2A2
 100
AcDbEntity
   8
LEVEL001
 370
25
 100
AcDbLine
   6
CONTINUOUS
  62
3
  10
 1117.3930370292
  20
 524.67584994138
  30
0.0
  11
 1117.3930370292
  21
 517.67584994138
  31
0.0
   0
LINE
   5
2A3
 100
AcDbEntity
   8
LEVEL001
 370
25
 100
AcDbLine
   6
CONTINUOUS
  62
3
  10
 1117.3930370292
  20
 511.17584994138
  30
0.0
  11
 1117.3930370292
  21
 508.67584994138
  31
0.0
   0
LINE
   5
2A4
 100
AcDbEntity
   8
LEVEL001
 370
25
 100
AcDbLine
   6
CONTINUOUS
  62
3
  10
 1117.9930355033
  20
 526.67584994138
  30
0.0
  11
 1117.9930355033
  21
 517.67584994138
  31
0.0
   0
LINE
   5
2A5
 100
AcDbEntity
   8
LEVEL001
 370
25
 100
AcDbLine
   6
CONTINUOUS
  62
3
  10
 1112.5930339774
  20
 508.67584994138
  30
0.0
  11
 1112.5930339774
  21
 511.17584994138
  31
0.0
   0
LINE
   5
2A6
 100
AcDbEntity
   8
LEVEL001
 370
25
 100
AcDbLine
   6
CONTINUOUS
  62
3
  10
 1112.5930339774
  20
 517.67584994138
  30
0.0
  11
 1112.5930339774
  21
 524.67584994138
  31
0.0
   0
LWPOLYLINE
   5
2A7
 100
AcDbEntity
   8
LEVEL001
 370
25
   6
CONTINUOUS
  62
3
 100
AcDbPolyline
  90
6
  70
0
  10
 1117.9930355033
  20
 511.17584994138
  10
 1117.9930355033
  20
 509.27584078611
  10
 1117.3930370292
  20
 508.67584994138
  10
 1112.5930339774
  20
 508.67584994138
  10
 1111.9930355033
  20
 509.27584078611
  10
 1111.9930355033
  20
 511.17584994138
   0
LINE
   5
2A8
 100
AcDbEntity
   8
LEVEL001
 370
25
 100
AcDbLine
   6
CONTINUOUS
  62
3
  10
 1111.9930355033
  20
 517.67584994138
  30
0.0
  11
 1111.9930355033
  21
 526.67584994138
  31
0.0
   0
LWPOLYLINE
   5
2A9
 100
AcDbEntity
   8
LEVEL001
 370
25
   6
CONTINUOUS
  62
3
 100
AcDbPolyline
  90
4
  70
1
  10
 1162.9930355033
  20
 526.67584994138
  10
 1146.9930355033
  20
 526.67584994138
  10
 1146.9930355033
  20
 528.27584994138
  10
 1162.9930355033
  20
 528.27584994138
   0
LWPOLYLINE
   5
2AA
 100
AcDbEntity
   8
LEVEL001
 370
25
   6
CONTINUOUS
  62
3
 100
AcDbPolyline
  90
4
  70
0
  10
 1162.9930355033
  20
 542.67584994138
  10
 1162.9930355033
  20
 541.07584994138
  10
 1146.9930355033
  20
 541.07584994138
  10
 1146.9930355033
  20
 542.67584994138
   0
LINE
   5
2AB
 100
AcDbEntity
   8
LEVEL001
 370
25
 100
AcDbLine
   6
CONTINUOUS
  62
3
  10
 1161.4930355033
  20
 539.57584994138
  30
0.0
  11
 1161.4930355033
  21
 529.77584994138
  31
0.0
   0
LINE
   5
2AC
 100
AcDbEntity
   8
LEVEL001
 370
25
 100
AcDbLine
   6
CONTINUOUS
  62
3
  10
 1148.4930355033
  20
 539.57584994138
  30
0.0
  11
 1148.4930355033
  21
 529.77584994138
  31
0.0
   0
ARC
   5
2AD
 100
AcDbEntity
   8
LEVEL001
 370
25
   6
CONTINUOUS
  62
3
 100
AcDbCircle
  10
 1146.9930355033
  20
 539.57584994138
  30
0.0
  40
 1.5000000000000
 100
AcDbArc
  50
0.0
  51
 90.000000000000
   0
ARC
   5
2AE
 100
AcDbEntity
   8
LEVEL001
 370
25
   6
CONTINUOUS
  62
3
 100
AcDbCircle
  10
 1162.9930355033
  20
 539.57584994138
  30
0.0
  40
 1.5000000000000
 100
AcDbArc
  50
 90.000000000000
  51
 180.00000000000
   0
ARC
   5
2AF
 100
AcDbEntity
   8
LEVEL001
 370
25
   6
CONTINUOUS
  62
3
 100
AcDbCircle
  10
 1162.9930355033
  20
 529.77584994138
  30
0.0
  40
 1.5000000000000
 100
AcDbArc
  50
 180.00000000000
  51
 270.00000000000
   0
ARC
   5
2B0
 100
AcDbEntity
   8
LEVEL001
 370
25
   6
CONTINUOUS
  62
3
 100
AcDbCircle
  10
 1146.9930355033
  20
 529.77584994138
  30
0.0
  40
 1.5000000000000
 100
AcDbArc
  50
 270.00000000000
  51
0.0
   0
LINE
   5
2B1
 100
AcDbEntity
   8
LEVEL001
 370
25
 100
AcDbLine
   6
DASHDOT
  62
3
  10
 1154.9930355033
  20
 549.69931272455
  30
0.0
  11
 1154.9930355033
  21
 502.18171563718
  31
0.0
   0
LINE
   5
2B2
 100
AcDbEntity
   8
LEVEL001
 370
25
 100
AcDbLine
   6
CONTINUOUS
  62
3
  10
 1151.9930355033
  20
 509.27584078611
  30
0.0
  11
 1157.9930355033
  21
 509.27584078611
  31
0.0
   0
LINE
   5
2B3
 100
AcDbEntity
   8
LEVEL001
 370
25
 100
AcDbLine
   6
CONTINUOUS
  62
3
  10
 1157.9930355033
  20
 524.67584994138
  30
0.0
  11
 1151.9930355033
  21
 524.67584994138
  31
0.0
   0
LWPOLYLINE
   5
2B4
 100
AcDbEntity
   8
LEVEL001
 370
25
   6
CONTINUOUS
  62
3
 100
AcDbPolyline
  90
4
  70
0
  10
 1148.8930355033
  20
 517.67584994138
  10
 1148.8930355033
  20
 516.17584994138
  10
 1161.0930355033
  20
 516.17584994138
  10
 1161.0930355033
  20
 517.67584994138
   0
LINE
   5
2B5
 100
AcDbEntity
   8
LEVEL001
 370
25
 100
AcDbLine
   6
CONTINUOUS
  62
3
  10
 1154.1270100995
  20
 516.17584994138
  30
0.0
  11
 1154.9930355033
  21
 517.67584994138
  31
0.0
   0
LINE
   5
2B6
 100
AcDbEntity
   8
LEVEL001
 370
25
 100
AcDbLine
   6
CONTINUOUS
  62
3
  10
 1154.9930355033
  20
 516.17584994138
  30
0.0
  11
 1155.8590609070
  21
 517.67584994138
  31
0.0
   0
LINE
   5
2B7
 100
AcDbEntity
   8
LEVEL001
 370
25
 100
AcDbLine
   6
CONTINUOUS
  62
3
  10
 1159.3231625221
  20
 511.17584994138
  30
0.0
  11
 1150.6629084843
  21
 511.17584994138
  31
0.0
   0
LINE
   5
2B8
 100
AcDbEntity
   8
LEVEL001
 370
25
 100
AcDbLine
   6
CONTINUOUS
  62
3
  10
 1152.1062841572
  20
 511.85204820489
  30
0.0
  11
 1152.1062841572
  21
 516.17584994138
  31
0.0
   0
LINE
   5
2B9
 100
AcDbEntity
   8
LEVEL001
 370
25
 100
AcDbLine
   6
CONTINUOUS
  62
3
  10
 1157.8797868491
  20
 511.85204820489
  30
0.0
  11
 1157.8797868491
  21
 516.17584994138
  31
0.0
   0
LINE
   5
2BA
 100
AcDbEntity
   8
LEVEL001
 370
25
 100
AcDbLine
   6
CONTINUOUS
  62
3
  10
 1149.2195328113
  20
 511.85204820489
  30
0.0
  11
 1149.2195328113
  21
 516.17584994138
  31
0.0
   0
LINE
   5
2BB
 100
AcDbEntity
   8
LEVEL001
 370
25
 100
AcDbLine
   6
CONTINUOUS
  62
3
  10
 1160.7665381950
  20
 516.17584994138
  30
0.0
  11
 1160.7665381950
  21
 511.85204820489
  31
0.0
   0
ARC
   5
2BC
 100
AcDbEntity
   8
LEVEL001
 370
25
   6
CONTINUOUS
  62
3
 100
AcDbCircle
  10
 1150.6629084843
  20
 513.05442429003
  30
0.0
  40
 1.8785743486438
 100
AcDbArc
  50
 219.79533255711
  51
 320.20466744289
   0
ARC
   5
2BD
 100
AcDbEntity
   8
LEVEL001
 370
25
   6
CONTINUOUS
  62
3
 100
AcDbCircle
  10
 1154.9930355033
  20
 517.67584994138
  30
0.0
  40
 6.5000000000000
 100
AcDbArc
  50
 243.63323154589
  51
 296.36676845221
   0
ARC
   5
2BE
 100
AcDbEntity
   8
LEVEL001
 370
25
   6
CONTINUOUS
  62
3
 100
AcDbCircle
  10
 1159.3231625221
  20
 513.05442429003
  30
0.0
  40
 1.8785743486438
 100
AcDbArc
  50
 219.79533255711
  51
 320.20466744289
   0
LINE
   5
2BF
 100
AcDbEntity
   8
LEVEL001
 370
25
 100
AcDbLine
   6
CONTINUOUS
  62
3
  10
 1157.3930370292
  20
 524.67584994138
  30
0.0
  11
 1157.3930370292
  21
 517.67584994138
  31
0.0
   0
LINE
   5
2C0
 100
AcDbEntity
   8
LEVEL001
 370
25
 100
AcDbLine
   6
CONTINUOUS
  62
3
  10
 1157.3930370292
  20
 511.17584994138
  30
0.0
  11
 1157.3930370292
  21
 508.67584994138
  31
0.0
   0
LINE
   5
2C1
 100
AcDbEntity
   8
LEVEL001
 370
25
 100
AcDbLine
   6
CONTINUOUS
  62
3
  10
 1157.9930355033
  20
 526.67584994138
  30
0.0
  11
 1157.9930355033
  21
 517.67584994138
  31
0.0
   0
LINE
   5
2C2
 100
AcDbEntity
   8
LEVEL001
 370
25
 100
AcDbLine
   6
CONTINUOUS
  62
3
  10
 1152.5930339774
  20
 508.67584994138
  30
0.0
  11
 1152.5930339774
  21
 511.17584994138
  31
0.0
   0
LINE
   5
2C3
 100
AcDbEntity
   8
LEVEL001
 370
25
 100
AcDbLine
   6
CONTINUOUS
  62
3
  10
 1152.5930339774
  20
 517.67584994138
  30
0.0
  11
 1152.5930339774
  21
 524.67584994138
  31
0.0
   0
LWPOLYLINE
   5
2C4
 100
AcDbEntity
   8
LEVEL001
 370
25
   6
CONTINUOUS
  62
3
 100
AcDbPolyline
  90
6
  70
0
  10
 1157.9930355033
  20
 511.17584994138
  10
 1157.9930355033
  20
 509.27584078611
  10
 1157.3930370292
  20
 508.67584994138
  10
 1152.5930339774
  20
 508.67584994138
  10
 1151.9930355033
  20
 509.27584078611
  10
 1151.9930355033
  20
 511.17584994138
   0
LINE
   5
2C5
 100
AcDbEntity
   8
LEVEL001
 370
25
 100
AcDbLine
   6
CONTINUOUS
  62
3
  10
 1151.9930355033
  20
 517.67584994138
  30
0.0
  11
 1151.9930355033
  21
 526.67584994138
  31
0.0
   0
LWPOLYLINE
   5
2C6
 100
AcDbEntity
   8
LEVEL001
 370
40
   6
CONTINUOUS
  62
7
 100
AcDbPolyline
  90
8
  70
1
  10
 1168.4930355033
  20
 624.67584994138
  10
 1168.4930355033
  20
 662.67584994138
  10
 1101.4930355033
  20
 662.67584994138
  10
 1101.4930355033
  20
 624.67584994138
  10
 1104.9930355033
  20
 624.67584994138
  10
 1104.9930355033
  20
 659.17584994138
  10
 1164.9930355033
  20
 659.17584994138
  10
 1164.9930355033
  20
 624.67584994138
   0
LWPOLYLINE
   5
2C7
 100
AcDbEntity
   8
LEVEL001
 370
40
   6
CONTINUOUS
  62
7
 100
AcDbPolyline
  90
4
  70
1
  10
 1168.4930355033
  20
 542.67584994138
  10
 1164.9930355033
  20
 542.67584994138
  10
 1164.9930355033
  20
 618.67584994138
  10
 1168.4930355033
  20
 618.67584994138
   0
LWPOLYLINE
   5
2C8
 100
AcDbEntity
   8
LEVEL001
 370
40
   6
CONTINUOUS
  62
7
 100
AcDbPolyline
  90
4
  70
1
  10
 1104.9930355033
  20
 542.67584994138
  10
 1101.4930355033
  20
 542.67584994138
  10
 1101.4930355033
  20
 618.67584994138
  10
 1104.9930355033
  20
 618.67584994138
   0
LINE
   5
2C9
 100
AcDbEntity
   8
LEVEL001
 370
40
 100
AcDbLine
   6
CONTINUOUS
  62
7
  10
 1164.9930355033
  20
 542.67584994138
  30
0.0
  11
 1104.9930355033
  21
 542.67584994138
  31
0.0
   0
LINE
   5
2CA
 100
AcDbEntity
   8
LEVEL001
 370
40
 100
AcDbLine
   6
CONTINUOUS
  62
7
  10
 1164.9930355033
  20
 643.67584994138
  30
0.0
  11
 1104.9930355033
  21
 643.67584994138
  31
0.0
   0
LINE
   5
2CB
 100
AcDbEntity
   8
LEVEL001
 370
40
 100
AcDbLine
   6
CONTINUOUS
  62
7
  10
 1164.9930355033
  20
 624.67584994138
  30
0.0
  11
 1159.9930355033
  21
 624.67584994138
  31
0.0
   0
LINE
   5
2CC
 100
AcDbEntity
   8
LEVEL001
 370
40
 100
AcDbLine
   6
CONTINUOUS
  62
7
  10
 1109.9930355033
  20
 624.67584994138
  30
0.0
  11
 1104.9930355033
  21
 624.67584994138
  31
0.0
   0
LINE
   5
2CD
 100
AcDbEntity
   8
LEVEL001
 370
40
 100
AcDbLine
   6
CONTINUOUS
  62
7
  10
 1164.9930355033
  20
 618.67584994138
  30
0.0
  11
 1159.9930355033
  21
 618.67584994138
  31
0.0
   0
LINE
   5
2CE
 100
AcDbEntity
   8
LEVEL001
 370
40
 100
AcDbLine
   6
CONTINUOUS
  62
7
  10
 1109.9930355033
  20
 618.67584994138
  30
0.0
  11
 1104.9930355033
  21
 618.67584994138
  31
0.0
   0
LWPOLYLINE
   5
2CF
 100
AcDbEntity
   8
LEVEL001
 370
40
   6
CONTINUOUS
  62
7
 100
AcDbPolyline
  90
4
  70
0
  10
 1109.9930355033
  20
 574.67584994138
  10
 1109.9930355033
  20
 640.67584994138
  10
 1159.9930355033
  20
 640.67584994138
  10
 1159.9930355033
  20
 574.67584994138
   0
LINE
   5
2D0
 100
AcDbEntity
   8
LEVEL001
 370
40
 100
AcDbLine
   6
CONTINUOUS
  62
7
  10
 1164.9930355033
  20
 574.67584994138
  30
0.0
  11
 1104.9930355033
  21
 574.67584994138
  31
0.0
   0
LINE
   5
2D1
 100
AcDbEntity
   8
LEVEL001
 370
40
 100
AcDbLine
   6
CONTINUOUS
  62
7
  10
 1164.9930355033
  20
 590.67584994138
  30
0.0
  11
 1159.9930355033
  21
 590.67584994138
  31
0.0
   0
LINE
   5
2D2
 100
AcDbEntity
   8
LEVEL001
 370
40
 100
AcDbLine
   6
CONTINUOUS
  62
7
  10
 1109.9930355033
  20
 590.67584994138
  30
0.0
  11
 1104.9930355033
  21
 590.67584994138
  31
0.0
   0
ENDBLK
   5
2D3
 100
AcDbEntity
   8
0
 100
AcDbBlockEnd
   0
BLOCK
   5
2D4
 100
AcDbEntity
   8
0
 100
AcDbBlockBegin
   2
BLOCK022
  70
64
  10
0.0
  20
0.0
  30
0.0
   3
BLOCK022
   0
LINE
   5
2D5
 100
AcDbEntity
   8
LEVEL001
 370
25
 100
AcDbLine
   6
CONTINUOUS
  62
3
  10
 1149.2430355033
  20
 517.67584994138
  30
0.0
  11
 1149.2430355033
  21
 514.67584994138
  31
0.0
   0
LINE
   5
2D6
 100
AcDbEntity
   8
LEVEL001
 370
25
 100
AcDbLine
   6
CONTINUOUS
  62
3
  10
 1170.9626857719
  20
 514.67584994138
  30
0.0
  11
 1149.0233699760
  21
 514.67584994138
  31
0.0
   0
LINE
   5
2D7
 100
AcDbEntity
   8
LEVEL001
 370
25
 100
AcDbLine
   6
CONTINUOUS
  62
3
  10
 1170.7430355033
  20
 514.67584994138
  30
0.0
  11
 1170.7430355033
  21
 517.67584994138
  31
0.0
   0
LINE
   5
2D8
 100
AcDbEntity
   8
LEVEL001
 370
25
 100
AcDbLine
   6
CONTINUOUS
  62
3
  10
 1161.7250911674
  20
 514.67584994138
  30
0.0
  11
 1159.9930355033
  21
 517.67584994138
  31
0.0
   0
LINE
   5
2D9
 100
AcDbEntity
   8
LEVEL001
 370
25
 100
AcDbLine
   6
CONTINUOUS
  62
3
  10
 1159.9930355033
  20
 514.67584994138
  30
0.0
  11
 1158.2609798392
  21
 517.67584994138
  31
0.0
   0
LINE
   5
2DA
 100
AcDbEntity
   8
LEVEL001
 370
25
 100
AcDbLine
   6
CONTINUOUS
  62
3
  10
 1165.4778530082
  20
 505.88955648120
  30
0.0
  11
 1165.4778530082
  21
 514.67584994138
  31
0.0
   0
LINE
   5
2DB
 100
AcDbEntity
   8
LEVEL001
 370
25
 100
AcDbLine
   6
CONTINUOUS
  62
3
  10
 1154.5082027396
  20
 505.88955648120
  30
0.0
  11
 1154.5082027396
  21
 514.67584994138
  31
0.0
   0
LINE
   5
2DC
 100
AcDbEntity
   8
LEVEL001
 370
25
 100
AcDbLine
   6
CONTINUOUS
  62
3
  10
 1170.9626857719
  20
 505.88955648120
  30
0.0
  11
 1170.9626857719
  21
 514.67584994138
  31
0.0
   0
LINE
   5
2DD
 100
AcDbEntity
   8
LEVEL001
 370
25
 100
AcDbLine
   6
CONTINUOUS
  62
3
  10
 1149.0233699760
  20
 514.67584994138
  30
0.0
  11
 1149.0233699760
  21
 505.88955648120
  31
0.0
   0
ARC
   5
2DE
 100
AcDbEntity
   8
LEVEL001
 370
25
   6
CONTINUOUS
  62
3
 100
AcDbCircle
  10
 1151.7657863578
  20
 508.38100060223
  30
0.0
  40
 3.7051506608504
 100
AcDbArc
  50
 222.25467555837
  51
 317.74542871183
   0
ARC
   5
2DF
 100
AcDbEntity
   8
LEVEL001
 370
25
   6
CONTINUOUS
  62
3
 100
AcDbCircle
  10
 1159.9930355033
  20
 517.67584994138
  30
0.0
  40
 12.999997561209
 100
AcDbArc
  50
 245.04477098026
  51
 294.95517688450
   0
ARC
   5
2E0
 100
AcDbEntity
   8
LEVEL001
 370
25
   6
CONTINUOUS
  62
3
 100
AcDbCircle
  10
 1168.2202693900
  20
 508.38100060223
  30
0.0
  40
 3.7051506608504
 100
AcDbArc
  50
 222.25467555837
  51
 317.74532444163
   0
LINE
   5
2E1
 100
AcDbEntity
   8
LEVEL001
 370
25
 100
AcDbLine
   6
CONTINUOUS
  62
3
  10
 1168.2202693900
  20
 504.67584994138
  30
0.0
  11
 1151.7657863578
  21
 504.67584994138
  31
0.0
   0
LINE
   5
2E2
 100
AcDbEntity
   8
LEVEL001
 370
25
 100
AcDbLine
   6
CONTINUOUS
  62
3
  10
 1168.2202693900
  20
 477.67584994138
  30
0.0
  11
 1151.7657863578
  21
 477.67584994138
  31
0.0
   0
LINE
   5
2E3
 100
AcDbEntity
   8
LEVEL001
 370
25
 100
AcDbLine
   6
CONTINUOUS
  62
3
  10
 1165.4778530082
  20
 476.46214340157
  30
0.0
  11
 1165.4778530082
  21
 467.67584994138
  31
0.0
   0
LINE
   5
2E4
 100
AcDbEntity
   8
LEVEL001
 370
25
 100
AcDbLine
   6
CONTINUOUS
  62
3
  10
 1154.5082027396
  20
 476.46214340157
  30
0.0
  11
 1154.5082027396
  21
 467.67584994138
  31
0.0
   0
LINE
   5
2E5
 100
AcDbEntity
   8
LEVEL001
 370
25
 100
AcDbLine
   6
CONTINUOUS
  62
3
  10
 1170.9626857719
  20
 476.46214340157
  30
0.0
  11
 1170.9626857719
  21
 467.67584994138
  31
0.0
   0
LINE
   5
2E6
 100
AcDbEntity
   8
LEVEL001
 370
25
 100
AcDbLine
   6
CONTINUOUS
  62
3
  10
 1149.0233699760
  20
 467.67584994138
  30
0.0
  11
 1149.0233699760
  21
 476.46214340157
  31
0.0
   0
ARC
   5
2E7
 100
AcDbEntity
   8
LEVEL001
 370
25
   6
CONTINUOUS
  62
3
 100
AcDbCircle
  10
 1168.2202693900
  20
 473.97069928053
  30
0.0
  40
 3.7051506608504
 100
AcDbArc
  50
 42.254675558366
  51
 137.74532444163
   0
ARC
   5
2E8
 100
AcDbEntity
   8
LEVEL001
 370
25
   6
CONTINUOUS
  62
3
 100
AcDbCircle
  10
 1159.9930355033
  20
 464.67584994138
  30
0.0
  40
 12.999997561209
 100
AcDbArc
  50
 65.044823115498
  51
 114.95522901974
   0
ARC
   5
2E9
 100
AcDbEntity
   8
LEVEL001
 370
25
   6
CONTINUOUS
  62
3
 100
AcDbCircle
  10
 1151.7657863578
  20
 473.97069928053
  30
0.0
  40
 3.7051506608504
 100
AcDbArc
  50
 42.254571288167
  51
 137.74532444163
   0
LINE
   5
2EA
 100
AcDbEntity
   8
LEVEL001
 370
25
 100
AcDbLine
   6
CONTINUOUS
  62
3
  10
 1165.9930355033
  20
 477.67584994138
  30
0.0
  11
 1165.9930355033
  21
 504.67584994138
  31
0.0
   0
LINE
   5
2EB
 100
AcDbEntity
   8
LEVEL001
 370
25
 100
AcDbLine
   6
CONTINUOUS
  62
3
  10
 1164.6730281791
  20
 504.67584994138
  30
0.0
  11
 1164.6730281791
  21
 477.67584994138
  31
0.0
   0
LINE
   5
2EC
 100
AcDbEntity
   8
LEVEL001
 370
25
 100
AcDbLine
   6
CONTINUOUS
  62
3
  10
 1155.3130275687
  20
 477.67584994138
  30
0.0
  11
 1155.3130275687
  21
 504.67584994138
  31
0.0
   0
LINE
   5
2ED
 100
AcDbEntity
   8
LEVEL001
 370
25
 100
AcDbLine
   6
CONTINUOUS
  62
3
  10
 1153.9930355033
  20
 504.67584994138
  30
0.0
  11
 1153.9930355033
  21
 477.67584994138
  31
0.0
   0
LINE
   5
2EE
 100
AcDbEntity
   8
LEVEL001
 370
25
 100
AcDbLine
   6
DASHDOT
  62
3
  10
 1159.9930355033
  20
 423.79959788662
  30
0.0
  11
 1159.9930355033
  21
 524.27292305368
  31
0.0
   0
LINE
   5
2EF
 100
AcDbEntity
   8
LEVEL001
 370
25
 100
AcDbLine
   6
CONTINUOUS
  62
3
  10
 1149.2430355033
  20
 455.67584994138
  30
0.0
  11
 1149.2430355033
  21
 452.67584994138
  31
0.0
   0
LINE
   5
2F0
 100
AcDbEntity
   8
LEVEL001
 370
25
 100
AcDbLine
   6
CONTINUOUS
  62
3
  10
 1170.9626857719
  20
 452.67584994138
  30
0.0
  11
 1149.0233699760
  21
 452.67584994138
  31
0.0
   0
LINE
   5
2F1
 100
AcDbEntity
   8
LEVEL001
 370
25
 100
AcDbLine
   6
CONTINUOUS
  62
3
  10
 1170.7430355033
  20
 452.67584994138
  30
0.0
  11
 1170.7430355033
  21
 455.67584994138
  31
0.0
   0
LINE
   5
2F2
 100
AcDbEntity
   8
LEVEL001
 370
25
 100
AcDbLine
   6
CONTINUOUS
  62
3
  10
 1161.7250911674
  20
 452.67584994138
  30
0.0
  11
 1159.9930355033
  21
 455.67584994138
  31
0.0
   0
LINE
   5
2F3
 100
AcDbEntity
   8
LEVEL001
 370
25
 100
AcDbLine
   6
CONTINUOUS
  62
3
  10
 1159.9930355033
  20
 452.67584994138
  30
0.0
  11
 1158.2609798392
  21
 455.67584994138
  31
0.0
   0
LINE
   5
2F4
 100
AcDbEntity
   8
LEVEL001
 370
25
 100
AcDbLine
   6
CONTINUOUS
  62
3
  10
 1168.2202693900
  20
 442.67584994138
  30
0.0
  11
 1151.7657863578
  21
 442.67584994138
  31
0.0
   0
LINE
   5
2F5
 100
AcDbEntity
   8
LEVEL001
 370
25
 100
AcDbLine
   6
CONTINUOUS
  62
3
  10
 1165.4778530082
  20
 443.88955648120
  30
0.0
  11
 1165.4778530082
  21
 452.67584994138
  31
0.0
   0
LINE
   5
2F6
 100
AcDbEntity
   8
LEVEL001
 370
25
 100
AcDbLine
   6
CONTINUOUS
  62
3
  10
 1154.5082027396
  20
 443.88955648120
  30
0.0
  11
 1154.5082027396
  21
 452.67584994138
  31
0.0
   0
LINE
   5
2F7
 100
AcDbEntity
   8
LEVEL001
 370
25
 100
AcDbLine
   6
CONTINUOUS
  62
3
  10
 1170.9626857719
  20
 443.88955648120
  30
0.0
  11
 1170.9626857719
  21
 452.67584994138
  31
0.0
   0
LINE
   5
2F8
 100
AcDbEntity
   8
LEVEL001
 370
25
 100
AcDbLine
   6
CONTINUOUS
  62
3
  10
 1149.0233699760
  20
 452.67584994138
  30
0.0
  11
 1149.0233699760
  21
 443.88955648120
  31
0.0
   0
ARC
   5
2F9
 100
AcDbEntity
   8
LEVEL001
 370
25
   6
CONTINUOUS
  62
3
 100
AcDbCircle
  10
 1168.2202693900
  20
 446.38100060223
  30
0.0
  40
 3.7051506608504
 100
AcDbArc
  50
 222.25467555837
  51
 317.74532444163
   0
ARC
   5
2FA
 100
AcDbEntity
   8
LEVEL001
 370
25
   6
CONTINUOUS
  62
3
 100
AcDbCircle
  10
 1159.9930355033
  20
 455.67584994138
  30
0.0
  40
 12.999997561209
 100
AcDbArc
  50
 245.04477098026
  51
 294.95517688450
   0
ARC
   5
2FB
 100
AcDbEntity
   8
LEVEL001
 370
25
   6
CONTINUOUS
  62
3
 100
AcDbCircle
  10
 1151.7657863578
  20
 446.38100060223
  30
0.0
  40
 3.7051506608504
 100
AcDbArc
  50
 222.25467555837
  51
 317.74542871183
   0
LINE
   5
2FC
 100
AcDbEntity
   8
LEVEL001
 370
25
 100
AcDbLine
   6
CONTINUOUS
  62
3
  10
 1165.9930355033
  20
 431.99584963621
  30
0.0
  11
 1153.9930355033
  21
 431.99584963621
  31
0.0
   0
LWPOLYLINE
   5
2FD
 100
AcDbEntity
   8
LEVEL001
 370
25
   6
CONTINUOUS
  62
3
 100
AcDbPolyline
  90
6
  70
0
  10
 1165.9930355033
  20
 442.67584994138
  10
 1165.9930355033
  20
 431.99584963621
  10
 1164.6730281791
  20
 430.67584994138
  10
 1155.3130275687
  20
 430.67584994138
  10
 1153.9930355033
  20
 431.99584963621
  10
 1153.9930355033
  20
 442.67584994138
   0
LINE
   5
2FE
 100
AcDbEntity
   8
LEVEL001
 370
25
 100
AcDbLine
   6
CONTINUOUS
  62
3
  10
 1164.6730281791
  20
 430.67584994138
  30
0.0
  11
 1164.6730281791
  21
 442.67584994138
  31
0.0
   0
LINE
   5
2FF
 100
AcDbEntity
   8
LEVEL001
 370
25
 100
AcDbLine
   6
CONTINUOUS
  62
3
  10
 1155.3130275687
  20
 430.67584994138
  30
0.0
  11
 1155.3130275687
  21
 442.67584994138
  31
0.0
   0
ENDBLK
   5
300
 100
AcDbEntity
   8
0
 100
AcDbBlockEnd
   0
BLOCK
   5
301
 100
AcDbEntity
   8
0
 100
AcDbBlockBegin
   2
BLOCK023
  70
64
  10
0.0
  20
0.0
  30
0.0
   3
BLOCK023
   0
LINE
   5
302
 100
AcDbEntity
   8
LEVEL001
 370
25
 100
AcDbLine
   6
CONTINUOUS
  62
3
  10
 1099.2430355033
  20
 517.67584994138
  30
0.0
  11
 1099.2430355033
  21
 514.67584994138
  31
0.0
   0
LINE
   5
303
 100
AcDbEntity
   8
LEVEL001
 370
25
 100
AcDbLine
   6
CONTINUOUS
  62
3
  10
 1120.9626857719
  20
 514.67584994138
  30
0.0
  11
 1099.0233699760
  21
 514.67584994138
  31
0.0
   0
LINE
   5
304
 100
AcDbEntity
   8
LEVEL001
 370
25
 100
AcDbLine
   6
CONTINUOUS
  62
3
  10
 1120.7430355033
  20
 514.67584994138
  30
0.0
  11
 1120.7430355033
  21
 517.67584994138
  31
0.0
   0
LINE
   5
305
 100
AcDbEntity
   8
LEVEL001
 370
25
 100
AcDbLine
   6
CONTINUOUS
  62
3
  10
 1111.7250911674
  20
 514.67584994138
  30
0.0
  11
 1109.9930355033
  21
 517.67584994138
  31
0.0
   0
LINE
   5
306
 100
AcDbEntity
   8
LEVEL001
 370
25
 100
AcDbLine
   6
CONTINUOUS
  62
3
  10
 1109.9930355033
  20
 514.67584994138
  30
0.0
  11
 1108.2609798392
  21
 517.67584994138
  31
0.0
   0
LINE
   5
307
 100
AcDbEntity
   8
LEVEL001
 370
25
 100
AcDbLine
   6
CONTINUOUS
  62
3
  10
 1115.4778530082
  20
 505.88955648120
  30
0.0
  11
 1115.4778530082
  21
 514.67584994138
  31
0.0
   0
LINE
   5
308
 100
AcDbEntity
   8
LEVEL001
 370
25
 100
AcDbLine
   6
CONTINUOUS
  62
3
  10
 1104.5082027396
  20
 505.88955648120
  30
0.0
  11
 1104.5082027396
  21
 514.67584994138
  31
0.0
   0
LINE
   5
309
 100
AcDbEntity
   8
LEVEL001
 370
25
 100
AcDbLine
   6
CONTINUOUS
  62
3
  10
 1120.9626857719
  20
 505.88955648120
  30
0.0
  11
 1120.9626857719
  21
 514.67584994138
  31
0.0
   0
LINE
   5
30A
 100
AcDbEntity
   8
LEVEL001
 370
25
 100
AcDbLine
   6
CONTINUOUS
  62
3
  10
 1099.0233699760
  20
 514.67584994138
  30
0.0
  11
 1099.0233699760
  21
 505.88955648120
  31
0.0
   0
ARC
   5
30B
 100
AcDbEntity
   8
LEVEL001
 370
25
   6
CONTINUOUS
  62
3
 100
AcDbCircle
  10
 1101.7657863578
  20
 508.38100060223
  30
0.0
  40
 3.7051506608504
 100
AcDbArc
  50
 222.25467555837
  51
 317.74542871183
   0
ARC
   5
30C
 100
AcDbEntity
   8
LEVEL001
 370
25
   6
CONTINUOUS
  62
3
 100
AcDbCircle
  10
 1109.9930355033
  20
 517.67584994138
  30
0.0
  40
 12.999997561209
 100
AcDbArc
  50
 245.04477098026
  51
 294.95517688450
   0
ARC
   5
30D
 100
AcDbEntity
   8
LEVEL001
 370
25
   6
CONTINUOUS
  62
3
 100
AcDbCircle
  10
 1118.2202693900
  20
 508.38100060223
  30
0.0
  40
 3.7051506608504
 100
AcDbArc
  50
 222.25467555837
  51
 317.74532444163
   0
LINE
   5
30E
 100
AcDbEntity
   8
LEVEL001
 370
25
 100
AcDbLine
   6
CONTINUOUS
  62
3
  10
 1118.2202693900
  20
 504.67584994138
  30
0.0
  11
 1101.7657863578
  21
 504.67584994138
  31
0.0
   0
LINE
   5
30F
 100
AcDbEntity
   8
LEVEL001
 370
25
 100
AcDbLine
   6
CONTINUOUS
  62
3
  10
 1118.2202693900
  20
 477.67584994138
  30
0.0
  11
 1101.7657863578
  21
 477.67584994138
  31
0.0
   0
LINE
   5
310
 100
AcDbEntity
   8
LEVEL001
 370
25
 100
AcDbLine
   6
CONTINUOUS
  62
3
  10
 1115.4778530082
  20
 476.46214340157
  30
0.0
  11
 1115.4778530082
  21
 467.67584994138
  31
0.0
   0
LINE
   5
311
 100
AcDbEntity
   8
LEVEL001
 370
25
 100
AcDbLine
   6
CONTINUOUS
  62
3
  10
 1104.5082027396
  20
 476.46214340157
  30
0.0
  11
 1104.5082027396
  21
 467.67584994138
  31
0.0
   0
LINE
   5
312
 100
AcDbEntity
   8
LEVEL001
 370
25
 100
AcDbLine
   6
CONTINUOUS
  62
3
  10
 1120.9626857719
  20
 476.46214340157
  30
0.0
  11
 1120.9626857719
  21
 467.67584994138
  31
0.0
   0
LINE
   5
313
 100
AcDbEntity
   8
LEVEL001
 370
25
 100
AcDbLine
   6
CONTINUOUS
  62
3
  10
 1099.0233699760
  20
 467.67584994138
  30
0.0
  11
 1099.0233699760
  21
 476.46214340157
  31
0.0
   0
ARC
   5
314
 100
AcDbEntity
   8
LEVEL001
 370
25
   6
CONTINUOUS
  62
3
 100
AcDbCircle
  10
 1118.2202693900
  20
 473.97069928053
  30
0.0
  40
 3.7051506608504
 100
AcDbArc
  50
 42.254675558366
  51
 137.74532444163
   0
ARC
   5
315
 100
AcDbEntity
   8
LEVEL001
 370
25
   6
CONTINUOUS
  62
3
 100
AcDbCircle
  10
 1109.9930355033
  20
 464.67584994138
  30
0.0
  40
 12.999997561209
 100
AcDbArc
  50
 65.044823115498
  51
 114.95522901974
   0
ARC
   5
316
 100
AcDbEntity
   8
LEVEL001
 370
25
   6
CONTINUOUS
  62
3
 100
AcDbCircle
  10
 1101.7657863578
  20
 473.97069928053
  30
0.0
  40
 3.7051506608504
 100
AcDbArc
  50
 42.254571288167
  51
 137.74532444163
   0
LINE
   5
317
 100
AcDbEntity
   8
LEVEL001
 370
25
 100
AcDbLine
   6
CONTINUOUS
  62
3
  10
 1115.9930355033
  20
 477.67584994138
  30
0.0
  11
 1115.9930355033
  21
 504.67584994138
  31
0.0
   0
LINE
   5
318
 100
AcDbEntity
   8
LEVEL001
 370
25
 100
AcDbLine
   6
CONTINUOUS
  62
3
  10
 1114.6730281791
  20
 504.67584994138
  30
0.0
  11
 1114.6730281791
  21
 477.67584994138
  31
0.0
   0
LINE
   5
319
 100
AcDbEntity
   8
LEVEL001
 370
25
 100
AcDbLine
   6
CONTINUOUS
  62
3
  10
 1105.3130275687
  20
 477.67584994138
  30
0.0
  11
 1105.3130275687
  21
 504.67584994138
  31
0.0
   0
LINE
   5
31A
 100
AcDbEntity
   8
LEVEL001
 370
25
 100
AcDbLine
   6
CONTINUOUS
  62
3
  10
 1103.9930355033
  20
 504.67584994138
  30
0.0
  11
 1103.9930355033
  21
 477.67584994138
  31
0.0
   0
LINE
   5
31B
 100
AcDbEntity
   8
LEVEL001
 370
25
 100
AcDbLine
   6
DASHDOT
  62
3
  10
 1109.9930355033
  20
 423.79959788662
  30
0.0
  11
 1109.9930355033
  21
 524.27292305368
  31
0.0
   0
LINE
   5
31C
 100
AcDbEntity
   8
LEVEL001
 370
25
 100
AcDbLine
   6
CONTINUOUS
  62
3
  10
 1099.2430355033
  20
 455.67584994138
  30
0.0
  11
 1099.2430355033
  21
 452.67584994138
  31
0.0
   0
LINE
   5
31D
 100
AcDbEntity
   8
LEVEL001
 370
25
 100
AcDbLine
   6
CONTINUOUS
  62
3
  10
 1120.9626857719
  20
 452.67584994138
  30
0.0
  11
 1099.0233699760
  21
 452.67584994138
  31
0.0
   0
LINE
   5
31E
 100
AcDbEntity
   8
LEVEL001
 370
25
 100
AcDbLine
   6
CONTINUOUS
  62
3
  10
 1120.7430355033
  20
 452.67584994138
  30
0.0
  11
 1120.7430355033
  21
 455.67584994138
  31
0.0
   0
LINE
   5
31F
 100
AcDbEntity
   8
LEVEL001
 370
25
 100
AcDbLine
   6
CONTINUOUS
  62
3
  10
 1111.7250911674
  20
 452.67584994138
  30
0.0
  11
 1109.9930355033
  21
 455.67584994138
  31
0.0
   0
LINE
   5
320
 100
AcDbEntity
   8
LEVEL001
 370
25
 100
AcDbLine
   6
CONTINUOUS
  62
3
  10
 1109.9930355033
  20
 452.67584994138
  30
0.0
  11
 1108.2609798392
  21
 455.67584994138
  31
0.0
   0
LINE
   5
321
 100
AcDbEntity
   8
LEVEL001
 370
25
 100
AcDbLine
   6
CONTINUOUS
  62
3
  10
 1118.2202693900
  20
 442.67584994138
  30
0.0
  11
 1101.7657863578
  21
 442.67584994138
  31
0.0
   0
LINE
   5
322
 100
AcDbEntity
   8
LEVEL001
 370
25
 100
AcDbLine
   6
CONTINUOUS
  62
3
  10
 1115.4778530082
  20
 443.88955648120
  30
0.0
  11
 1115.4778530082
  21
 452.67584994138
  31
0.0
   0
LINE
   5
323
 100
AcDbEntity
   8
LEVEL001
 370
25
 100
AcDbLine
   6
CONTINUOUS
  62
3
  10
 1104.5082027396
  20
 443.88955648120
  30
0.0
  11
 1104.5082027396
  21
 452.67584994138
  31
0.0
   0
LINE
   5
324
 100
AcDbEntity
   8
LEVEL001
 370
25
 100
AcDbLine
   6
CONTINUOUS
  62
3
  10
 1120.9626857719
  20
 443.88955648120
  30
0.0
  11
 1120.9626857719
  21
 452.67584994138
  31
0.0
   0
LINE
   5
325
 100
AcDbEntity
   8
LEVEL001
 370
25
 100
AcDbLine
   6
CONTINUOUS
  62
3
  10
 1099.0233699760
  20
 452.67584994138
  30
0.0
  11
 1099.0233699760
  21
 443.88955648120
  31
0.0
   0
ARC
   5
326
 100
AcDbEntity
   8
LEVEL001
 370
25
   6
CONTINUOUS
  62
3
 100
AcDbCircle
  10
 1118.2202693900
  20
 446.38100060223
  30
0.0
  40
 3.7051506608504
 100
AcDbArc
  50
 222.25467555837
  51
 317.74532444163
   0
ARC
   5
327
 100
AcDbEntity
   8
LEVEL001
 370
25
   6
CONTINUOUS
  62
3
 100
AcDbCircle
  10
 1109.9930355033
  20
 455.67584994138
  30
0.0
  40
 12.999997561209
 100
AcDbArc
  50
 245.04477098026
  51
 294.95517688450
   0
ARC
   5
328
 100
AcDbEntity
   8
LEVEL001
 370
25
   6
CONTINUOUS
  62
3
 100
AcDbCircle
  10
 1101.7657863578
  20
 446.38100060223
  30
0.0
  40
 3.7051506608504
 100
AcDbArc
  50
 222.25467555837
  51
 317.74542871183
   0
LINE
   5
329
 100
AcDbEntity
   8
LEVEL001
 370
25
 100
AcDbLine
   6
CONTINUOUS
  62
3
  10
 1115.9930355033
  20
 431.99584963621
  30
0.0
  11
 1103.9930355033
  21
 431.99584963621
  31
0.0
   0
LWPOLYLINE
   5
32A
 100
AcDbEntity
   8
LEVEL001
 370
25
   6
CONTINUOUS
  62
3
 100
AcDbPolyline
  90
6
  70
0
  10
 1115.9930355033
  20
 442.67584994138
  10
 1115.9930355033
  20
 431.99584963621
  10
 1114.6730281791
  20
 430.67584994138
  10
 1105.3130275687
  20
 430.67584994138
  10
 1103.9930355033
  20
 431.99584963621
  10
 1103.9930355033
  20
 442.67584994138
   0
LINE
   5
32B
 100
AcDbEntity
   8
LEVEL001
 370
25
 100
AcDbLine
   6
CONTINUOUS
  62
3
  10
 1114.6730281791
  20
 430.67584994138
  30
0.0
  11
 1114.6730281791
  21
 442.67584994138
  31
0.0
   0
LINE
   5
32C
 100
AcDbEntity
   8
LEVEL001
 370
25
 100
AcDbLine
   6
CONTINUOUS
  62
3
  10
 1105.3130275687
  20
 430.67584994138
  30
0.0
  11
 1105.3130275687
  21
 442.67584994138
  31
0.0
   0
ENDBLK
   5
32D
 100
AcDbEntity
   8
0
 100
AcDbBlockEnd
   0
BLOCK
   5
32E
 100
AcDbEntity
   8
0
 100
AcDbBlockBegin
   2
BLOCK024
  70
64
  10
0.0
  20
0.0
  30
0.0
   3
BLOCK024
   0
LINE
   5
32F
 100
AcDbEntity
   8
LEVEL001
 370
40
 100
AcDbLine
   6
CONTINUOUS
  62
7
  10
 1165.2430355033
  20
 455.67584994138
  30
0.0
  11
 1165.2430355033
  21
 305.67584994138
  31
0.0
   0
LINE
   5
330
 100
AcDbEntity
   8
LEVEL001
 370
40
 100
AcDbLine
   6
CONTINUOUS
  62
7
  10
 1104.7430355033
  20
 455.67584994138
  30
0.0
  11
 1104.7430355033
  21
 305.67584994138
  31
0.0
   0
LINE
   5
331
 100
AcDbEntity
   8
LEVEL001
 370
25
 100
AcDbLine
   6
DOT
  62
3
  10
 1161.4430355033
  20
 455.67584994138
  30
0.0
  11
 1161.4430355033
  21
 305.67584994138
  31
0.0
   0
LINE
   5
332
 100
AcDbEntity
   8
LEVEL001
 370
25
 100
AcDbLine
   6
DOT
  62
3
  10
 1108.5430355033
  20
 455.67584994138
  30
0.0
  11
 1108.5430355033
  21
 305.67584994138
  31
0.0
   0
LWPOLYLINE
   5
333
 100
AcDbEntity
   8
LEVEL001
 370
40
   6
CONTINUOUS
  62
7
 100
AcDbPolyline
  90
4
  70
1
  10
 1172.4930355033
  20
 455.67584994138
  10
 1097.4930355033
  20
 455.67584994138
  10
 1097.4930355033
  20
 467.67584994138
  10
 1172.4930355033
  20
 467.67584994138
   0
LWPOLYLINE
   5
334
 100
AcDbEntity
   8
LEVEL001
 370
40
   6
CONTINUOUS
  62
7
 100
AcDbPolyline
  90
4
  70
1
  10
 1172.4930355033
  20
 293.67584994138
  10
 1097.4930355033
  20
 293.67584994138
  10
 1097.4930355033
  20
 305.67584994138
  10
 1172.4930355033
  20
 305.67584994138
   0
ENDBLK
   5
335
 100
AcDbEntity
   8
0
 100
AcDbBlockEnd
   0
ENDSEC
   0
SECTION
   2
ENTITIES
   0
TEXT
   5
336
 100
AcDbEntity
   8
LEVEL001
 370
25
  62
3
 100
AcDbText
  10
-165.88128097853
  20
 120.26184844971
  30
0.0
  40
 2.5999999046326
   1
　
  41
 0.76923079744599
   7
STANDARD
 100
AcDbText
   0
TEXT
   5
337
 100
AcDbEntity
   8
LEVEL001
 370
25
  62
3
 100
AcDbText
  10
-149.23487289748
  20
 120.17190551758
  30
0.0
  40
 2.5999999046326
   1
　
  41
 0.42307690191551
   7
STANDARD
 100
AcDbText
   0
TEXT
   5
338
 100
AcDbEntity
   8
LEVEL001
 370
25
  62
3
 100
AcDbText
  10
-195.10787399611
  20
 126.32980531044
  30
0.0
  40
 3.5999999046326
   1
　
  41
 1.1111111405455
   7
STANDARD
 100
AcDbText
   0
TEXT
   5
339
 100
AcDbEntity
   8
LEVEL001
 370
25
  62
3
 100
AcDbText
  10
-187.10787399611
  20
 126.32980531044
  30
0.0
  40
 3.5999999046326
   1
　
  41
 1.1111111405455
   7
STANDARD
 100
AcDbText
   0
TEXT
   5
33A
 100
AcDbEntity
   8
LEVEL001
 370
25
  62
3
 100
AcDbText
  10
-179.10787399611
  20
 126.32980531044
  30
0.0
  40
 3.5999999046326
   1
　
  41
 1.1111111405455
   7
STANDARD
 100
AcDbText
   0
TEXT
   5
33B
 100
AcDbEntity
   8
LEVEL001
 370
25
  62
3
 100
AcDbText
  10
-171.10787399611
  20
 126.32980531044
  30
0.0
  40
 3.5999999046326
   1
　
  41
 1.1111111405455
   7
STANDARD
 100
AcDbText
   0
TEXT
   5
33C
 100
AcDbEntity
   8
LEVEL001
 370
25
  62
3
 100
AcDbText
  10
-163.10787399611
  20
 126.32980531044
  30
0.0
  40
 3.5999999046326
   1
　
  41
 1.1111111405455
   7
STANDARD
 100
AcDbText
   0
TEXT
   5
33D
 100
AcDbEntity
   8
LEVEL001
 370
25
  62
3
 100
AcDbText
  10
-148.01046188674
  20
 128.45293610878
  30
0.0
  40
 3.5999999046326
   1
　
  41
 1.1111111405455
   7
STANDARD
 100
AcDbText
   0
TEXT
   5
33E
 100
AcDbEntity
   8
LEVEL001
 370
25
  62
3
 100
AcDbText
  10
-144.01046188674
  20
 128.45293610878
  30
0.0
  40
 3.5999999046326
   1
　
  41
 1.1111111405455
   7
STANDARD
 100
AcDbText
   0
TEXT
   5
33F
 100
AcDbEntity
   8
LEVEL001
 370
25
  62
3
 100
AcDbText
  10
-140.01046188674
  20
 128.45293610878
  30
0.0
  40
 3.5999999046326
   1
　
  41
 1.1111111405455
   7
STANDARD
 100
AcDbText
   0
TEXT
   5
340
 100
AcDbEntity
   8
LEVEL001
 370
25
  62
3
 100
AcDbText
  10
-136.01046188674
  20
 128.45293610878
  30
0.0
  40
 3.5999999046326
   1
　
  41
 1.1111111405455
   7
STANDARD
 100
AcDbText
   0
TEXT
   5
341
 100
AcDbEntity
   8
LEVEL001
 370
25
  62
3
 100
AcDbText
  10
-195.78447922072
  20
-135.37816423588
  30
0.0
  40
 3.5000000000000
   1
　
  41
 1.1428571428571
   7
STANDARD
 100
AcDbText
   0
TEXT
   5
342
 100
AcDbEntity
   8
LEVEL001
 370
25
  62
3
 100
AcDbText
  10
-191.78447922072
  20
-135.37816423588
  30
0.0
  40
 3.5000000000000
   1
 
  41
 0.57142857142857
   7
STANDARD
 100
AcDbText
   0
TEXT
   5
343
 100
AcDbEntity
   8
LEVEL001
 370
25
  62
3
 100
AcDbText
  10
-185.78447922072
  20
-135.37816423588
  30
0.0
  40
 3.5000000000000
   1
　
  41
 1.1428571428571
   7
STANDARD
 100
AcDbText
   0
TEXT
   5
344
 100
AcDbEntity
   8
LEVEL001
 370
25
  62
3
 100
AcDbText
  10
-181.78447922072
  20
-135.37816423588
  30
0.0
  40
 3.5000000000000
   1
 
  41
 0.57142857142857
   7
STANDARD
 100
AcDbText
   0
TEXT
   5
345
 100
AcDbEntity
   8
LEVEL001
 370
25
  62
3
 100
AcDbText
  10
-199.12780197463
  20
-127.74216264896
  30
0.0
  40
 3.5000000000000
   1
 
  41
 0.45714286395482
   7
STANDARD
 100
AcDbText
   0
TEXT
   5
346
 100
AcDbEntity
   8
LEVEL001
 370
25
  62
3
 100
AcDbText
  10
-194.32779892287
  20
-127.74216264896
  30
0.0
  40
 3.5000000000000
   1
 
  41
 0.45714286395482
   7
STANDARD
 100
AcDbText
   0
TEXT
   5
347
 100
AcDbEntity
   8
LEVEL001
 370
25
  62
3
 100
AcDbText
  10
-182.35412033400
  20
-127.74216264896
  30
0.0
  40
 3.5000000000000
   1
 
  41
 0.45714286395482
   7
STANDARD
 100
AcDbText
   0
TEXT
   5
348
 100
AcDbEntity
   8
LEVEL001
 370
25
  62
3
 100
AcDbText
  10
-180.75411423049
  20
-127.74216264896
  30
0.0
  40
 3.5000000000000
   1
 
  41
 0.45714286395482
   7
STANDARD
 100
AcDbText
   0
TEXT
   5
349
 100
AcDbEntity
   8
LEVEL001
 370
25
  62
3
 100
AcDbText
  10
-101.39085110030
  20
-145.43401152305
  30
0.0
  40
 4.0000000000000
   1
　
  41
 0.80000001192093
   7
STANDARD
 100
AcDbText
   0
TEXT
   5
34A
 100
AcDbEntity
   8
LEVEL001
 370
25
  62
3
 100
AcDbText
  10
-98.190854152058
  20
-145.43401152305
  30
0.0
  40
 4.0000000000000
   1
　
  41
 0.80000001192093
   7
STANDARD
 100
AcDbText
   0
TEXT
   5
34B
 100
AcDbEntity
   8
LEVEL001
 370
25
  62
3
 100
AcDbText
  10
-94.990849574421
  20
-145.43401152305
  30
0.0
  40
 4.0000000000000
   1
　
  41
 0.80000001192093
   7
STANDARD
 100
AcDbText
   0
TEXT
   5
34C
 100
AcDbEntity
   8
LEVEL001
 370
25
  62
3
 100
AcDbText
  10
-137.13345821700
  20
-135.44821733646
  30
0.0
  40
 3.5000000000000
   1
　
  41
 0.71428571428571
   7
STANDARD
 100
AcDbText
   0
TEXT
   5
34D
 100
AcDbEntity
   8
LEVEL001
 370
25
  62
3
 100
AcDbText
  10
-103.09236629805
  20
-135.48129839115
  30
0.0
  40
 3.5000000000000
   1
　
  41
 1.1428571428571
   7
STANDARD
 100
AcDbText
   0
TEXT
   5
34E
 100
AcDbEntity
   8
LEVEL001
 370
25
  62
3
 100
AcDbText
  10
-105.09236629805
  20
-135.48129839115
  30
0.0
  40
 3.5000000000000
   1
　
  41
 1.1428571428571
   7
STANDARD
 100
AcDbText
   0
TEXT
   5
34F
 100
AcDbEntity
   8
LEVEL001
 370
25
  62
3
 100
AcDbText
  10
-105.09234627089
  20
-135.48129839115
  30
0.0
  40
 3.5000000000000
   1
　
  41
 1.1428571428571
   7
STANDARD
 100
AcDbText
   0
POINT
   5
350
 100
AcDbEntity
   8
LEVEL001
 100
AcDbPoint
  62
7
  10
-210.00003412603
  20
-148.50000836058
  30
0.0
   0
LINE
   5
351
 100
AcDbEntity
   8
LEVEL001
 370
25
 100
AcDbLine
   6
CONTINUOUS
  62
3
  10
-161.99995119603
  20
 19.499890167754
  30
0.0
  11
 1342.0000488040
  21
 19.499890167754
  31
0.0
   0
LINE
   5
352
 100
AcDbEntity
   8
LEVEL001
 370
25
 100
AcDbLine
   6
CONTINUOUS
  62
3
  10
 430.00004880397
  20
-60.500109832246
  30
0.0
  11
 430.00004880397
  21
-140.50010983225
  31
0.0
   0
LWPOLYLINE
   5
353
 100
AcDbEntity
   8
LEVEL001
 370
40
   6
CONTINUOUS
  62
7
 100
AcDbPolyline
  90
6
  70
1
  10
-161.99995119603
  20
-140.50010983225
  10
 846.00004880397
  20
-140.50010983225
  10
 846.00004880397
  20
-60.500109832246
  10
 1342.0000488040
  20
-60.500109832246
  10
 1342.0000488040
  20
 2099.4998901678
  10
-161.99995119603
  20
 2099.4998901678
   0
LINE
   5
354
 100
AcDbEntity
   8
LEVEL001
 370
25
 100
AcDbLine
   6
CONTINUOUS
  62
3
  10
 382.00004880397
  20
-60.500109832246
  30
0.0
  11
 846.00004880397
  21
-60.500109832246
  31
0.0
   0
LINE
   5
355
 100
AcDbEntity
   8
LEVEL001
 370
25
 100
AcDbLine
   6
CONTINUOUS
  62
3
  10
 638.00014798610
  20
-60.500108878571
  30
0.0
  11
 638.00014798610
  21
-140.50010983225
  31
0.0
   0
LINE
   5
356
 100
AcDbEntity
   8
LEVEL001
 370
25
 100
AcDbLine
   6
CONTINUOUS
  62
3
  10
 590.00014798610
  20
-60.500108878571
  30
0.0
  11
 590.00014798610
  21
-140.50010983225
  31
0.0
   0
LINE
   5
357
 100
AcDbEntity
   8
LEVEL001
 370
25
 100
AcDbLine
   6
CONTINUOUS
  62
3
  10
 382.00004880397
  20
 19.499890167754
  30
0.0
  11
 382.00004880397
  21
-140.50010983225
  31
0.0
   0
INSERT
   5
358
 100
AcDbEntity
   8
0
 100
AcDbBlockReference
   2
BLOCK001
  10
0.0
  20
0.0
  30
0.0
   0
MTEXT
   5
359
 100
AcDbEntity
   8
LEVEL001
 370
40
  62
7
 100
AcDbMText
  10
 392.95033566921
  20
-68.013742702767
  30
0.0
  40
 19.200000000000
  41
0.0
  71
1
  72
3
   1
日付
   7
GMM001
   0
MTEXT
   5
35A
 100
AcDbEntity
   8
LEVEL001
 370
40
  62
7
 100
AcDbMText
  10
 600.95043485133
  20
-68.836499913333
  30
0.0
  40
 19.200000000000
  41
0.0
  71
1
  72
3
   1
尺度
   7
GMM001
   0
LINE
   5
35B
 100
AcDbEntity
   8
LEVEL001
 370
25
 100
AcDbLine
   6
CONTINUOUS
  62
3
  10
 846.00004880397
  20
 19.499890167754
  30
0.0
  11
 846.00004880397
  21
-60.500109832246
  31
0.0
   0
LINE
   5
35C
 100
AcDbEntity
   8
LEVEL001
 370
25
 100
AcDbLine
   6
CONTINUOUS
  62
3
  10
 894.00004880397
  20
 19.499890167754
  30
0.0
  11
 894.00004880397
  21
-60.500109832246
  31
0.0
   0
MTEXT
   5
35D
 100
AcDbEntity
   8
LEVEL001
 370
40
  62
7
 100
AcDbMText
  10
 385.11622078058
  20
-9.5341341905049
  30
0.0
  40
 19.200000000000
  41
0.0
  71
7
  72
1
   1
ワーク名称
   7
GMM002
   0
MTEXT
   5
35E
 100
AcDbEntity
   8
LEVEL001
 370
40
  62
7
 100
AcDbMText
  10
 856.95033566921
  20
 9.9168005141472
  30
0.0
  40
 19.200000000000
  41
0.0
  71
1
  72
3
   1
図番
   7
GMM001
   0
MTEXT
   5
35F
 100
AcDbEntity
   8
LEVEL001
 370
40
  62
7
 100
AcDbMText
  10
 321.75386894445
  20
-64.278322416869
  30
0.0
  40
 28.000000000000
  41
0.0
  71
7
  72
1
   1
様
   7
GMM003
   0
LINE
   5
360
 100
AcDbEntity
   8
LEVEL001
 370
25
 100
AcDbLine
   6
CONTINUOUS
  62
3
  10
-161.99995119603
  20
-76.500109832246
  30
0.0
  11
 382.00004880397
  21
-76.500109832246
  31
0.0
   0
MTEXT
   5
361
 100
AcDbEntity
   8
LEVEL001
 370
40
  62
7
 100
AcDbMText
  10
-154.35494268838
  20
-9.5341341905049
  30
0.0
  40
 19.200000000000
  41
0.0
  71
7
  72
1
   1
お客様
   7
GMM002
   0
MTEXT
   5
362
 100
AcDbEntity
   8
LEVEL001
 370
40
  62
7
 100
AcDbMText
  10
-154.35494268838
  20
-119.50897192247
  30
0.0
  40
 19.200000000000
  41
0.0
  71
7
  72
1
   1
仕様書番号
   7
GMM002
   0
MTEXT
   5
363
 100
AcDbEntity
   8
LEVEL001
 370
40
  62
7
 100
AcDbMText
  10
 651.07918600746
  20
-124.99663000495
  30
0.0
  40
 21.600000000000
  41
0.0
  71
4
  72
1
   1
Ａ４－１／８\P
   7
GMM002
   0
LINE
   5
364
 100
AcDbEntity
   8
LEVEL001
 370
40
 100
AcDbLine
   6
CONTINUOUS
  62
7
  10
 545.92883706125
  20
 648.67584994138
  30
0.0
  11
 545.92883706125
  21
 632.67584994138
  31
0.0
   0
INSERT
   5
365
 100
AcDbEntity
   8
0
 100
AcDbBlockReference
   2
BLOCK002
  10
0.0
  20
0.0
  30
0.0
   0
INSERT
   5
366
 100
AcDbEntity
   8
0
 100
AcDbBlockReference
   2
BLOCK003
  10
0.0
  20
0.0
  30
0.0
   0
INSERT
   5
367
 100
AcDbEntity
   8
0
 100
AcDbBlockReference
   2
BLOCK004
  10
0.0
  20
0.0
  30
0.0
   0
MTEXT
   5
368
 100
AcDbEntity
   8
LEVEL001
 370
9
  62
11
 100
AcDbMText
  10
 261.58685782839
  20
 439.05505592322
  30
0.0
  40
 16.000000000000
  41
0.0
  71
7
  72
1
   1
ＳＴ－５
   7
GMM002
   0
INSERT
   5
369
 100
AcDbEntity
   8
0
 100
AcDbBlockReference
   2
BLOCK005
  10
0.0
  20
0.0
  30
0.0
   0
MTEXT
   5
36A
 100
AcDbEntity
   8
LEVEL001
 370
9
  62
11
 100
AcDbMText
  10
 263.55160769486
  20
 610.27376697895
  30
0.0
  40
 16.000000000000
  41
0.0
  71
7
  72
1
   1
Ｄ－７
   7
GMM002
   0
LINE
   5
36B
 100
AcDbEntity
   8
LEVEL001
 370
25
 100
AcDbLine
   6
DASHDOT
  62
3
  10
 385.92883706125
  20
 755.29968655695
  30
0.0
  11
 385.92883706125
  21
 283.78498841410
  31
0.0
   0
LWPOLYLINE
   5
36C
 100
AcDbEntity
   8
LEVEL001
 370
40
   6
CONTINUOUS
  62
7
 100
AcDbPolyline
  90
4
  70
1
  10
 135.92883706125
  20
 277.67584994138
  10
 765.92883706125
  20
 277.67584994138
  10
 765.92883706125
  20
 293.67584994138
  10
 135.92883706125
  20
 293.67584994138
   0
LWPOLYLINE
   5
36D
 100
AcDbEntity
   8
LEVEL001
 370
40
   6
CONTINUOUS
  62
7
 100
AcDbPolyline
  90
4
  70
1
  10
 465.92883706125
  20
 678.67584994138
  10
 985.92883706125
  20
 678.67584994138
  10
 985.92883706125
  20
 698.67584994138
  10
 465.92883706125
  20
 698.67584994138
   0
INSERT
   5
36E
 100
AcDbEntity
   8
0
 100
AcDbBlockReference
   2
BLOCK006
  10
0.0
  20
0.0
  30
0.0
   0
LINE
   5
36F
 100
AcDbEntity
   8
LEVEL001
 370
40
 100
AcDbLine
   6
CONTINUOUS
  62
7
  10
 775.92883706125
  20
 662.67584994138
  30
0.0
  11
 775.92883706125
  21
 678.67584994138
  31
0.0
   0
LWPOLYLINE
   5
370
 100
AcDbEntity
   8
LEVEL001
 370
40
   6
CONTINUOUS
  62
7
 100
AcDbPolyline
  90
4
  70
1
  10
 551.92883706125
  20
 517.67584994138
  10
 751.92883706125
  20
 517.67584994138
  10
 751.92883706125
  20
 526.67584994138
  10
 551.92883706125
  20
 526.67584994138
   0
INSERT
   5
371
 100
AcDbEntity
   8
0
 100
AcDbBlockReference
   2
BLOCK007
  10
0.0
  20
0.0
  30
0.0
   0
INSERT
   5
372
 100
AcDbEntity
   8
0
 100
AcDbBlockReference
   2
BLOCK008
  10
0.0
  20
0.0
  30
0.0
   0
MTEXT
   5
373
 100
AcDbEntity
   8
LEVEL001
 370
9
  62
11
 100
AcDbMText
  10
 604.45414234010
  20
 565.76694841136
  30
0.0
  40
 16.000000000000
  41
0.0
  71
7
  72
1
   1
ＳＨ－２０
   7
GMM002
   0
DIMENSION
   5
374
 100
AcDbEntity
   8
LEVEL001
 370
40
   6
CONTINUOUS
  62
7
 100
AcDbDimension
   2
*D1
  10
 836.25791324736
  20
 293.67584994138
  30
0.0
  11
 836.25791324736
  21
 317.22617270341
  31
0.0
  70
128
   3
GMM001
 100
AcDbAlignedDimension
  13
 765.92883706125
  23
 277.67584994138
  33
0.0
  14
 765.92883706125
  24
 293.67584994138
  34
0.0
  50
 90.000000000000
 100
AcDbRotatedDimension
   0
DIMENSION
   5
375
 100
AcDbEntity
   8
LEVEL001
 370
40
   6
CONTINUOUS
  62
7
 100
AcDbDimension
   2
*D2
  10
 883.61078546307
  20
 698.67584994138
  30
0.0
  11
 883.61078546307
  21
 488.17584994138
  31
0.0
  70
0
   3
GMM002
 100
AcDbAlignedDimension
  13
 765.92883706125
  23
 277.67584994138
  33
0.0
  14
 883.61078546307
  24
 698.67584994138
  34
0.0
  50
 90.000000000000
 100
AcDbRotatedDimension
   0
INSERT
   5
376
 100
AcDbEntity
   8
0
 100
AcDbBlockReference
   2
BLOCK009
  10
0.0
  20
0.0
  30
0.0
   0
DIMENSION
   5
377
 100
AcDbEntity
   8
LEVEL001
 370
40
   6
CONTINUOUS
  62
7
 100
AcDbDimension
   2
*D3
  10
 28.095157557415
  20
 750.67584994138
  30
0.0
  11
 28.095157557415
  21
 514.17584994138
  31
0.0
  70
0
   1
\A1;（４７３）
   3
GMM003
 100
AcDbAlignedDimension
  13
 133.92883706125
  23
 277.67584994138
  33
0.0
  14
 92.178837061248
  24
 750.67584994138
  34
0.0
  50
 90.000000000000
 100
AcDbRotatedDimension
   0
DIMENSION
   5
379
 100
AcDbEntity
   8
LEVEL001
 370
40
   6
CONTINUOUS
  62
7
 100
AcDbDimension
   2
*D4
  10
 635.92883706125
  20
 870.03684270723
  30
0.0
  11
 385.92883706125
  21
 870.03684270723
  31
0.0
  70
0
   3
GMM004
 100
AcDbAlignedDimension
  13
 135.92883706125
  23
 750.67584994138
  33
0.0
  14
 635.92883706125
  24
 750.67584994138
  34
0.0
 100
AcDbRotatedDimension
   0
DIMENSION
   5
37A
 100
AcDbEntity
   8
LEVEL001
 370
40
   6
CONTINUOUS
  62
7
 100
AcDbDimension
   2
*D5
  10
 465.92883706125
  20
 809.69929660023
  30
0.0
  11
 425.92883706125
  21
 809.69929660023
  31
0.0
  70
0
   3
GMM002
 100
AcDbAlignedDimension
  13
 385.92883706125
  23
 755.29968655695
  33
0.0
  14
 465.92883706125
  24
 698.67584994138
  34
0.0
 100
AcDbRotatedDimension
   0
DIMENSION
   5
37B
 100
AcDbEntity
   8
LEVEL001
 370
40
   6
CONTINUOUS
  62
7
 100
AcDbDimension
   2
*D6
  10
 985.92883706125
  20
 809.69929660023
  30
0.0
  11
 725.92883706125
  21
 809.69929660023
  31
0.0
  70
0
   3
GMM002
 100
AcDbAlignedDimension
  13
 465.92883706125
  23
 698.67584994138
  33
0.0
  14
 985.92883706125
  24
 698.67584994138
  34
0.0
 100
AcDbRotatedDimension
   0
LWPOLYLINE
   5
37C
 100
AcDbEntity
   8
LEVEL001
 370
40
   6
CONTINUOUS
  62
7
 100
AcDbPolyline
  90
4
  70
1
  10
 465.92883706125
  20
 1569.0381008206
  10
 985.92883706125
  20
 1569.0381008206
  10
 985.92883706125
  20
 1537.0381008206
  10
 465.92883706125
  20
 1537.0381008206
   0
INSERT
   5
37D
 100
AcDbEntity
   8
0
 100
AcDbBlockReference
   2
BLOCK010
  10
0.0
  20
0.0
  30
0.0
   0
LWPOLYLINE
   5
37E
 100
AcDbEntity
   8
LEVEL001
 370
40
   6
CONTINUOUS
  62
7
 100
AcDbPolyline
  90
4
  70
0
  10
 551.92883706125
  20
 1586.5381008206
  10
 551.92883706125
  20
 1590.5381008206
  10
 751.92883706125
  20
 1590.5381008206
  10
 751.92883706125
  20
 1586.5381008206
   0
LWPOLYLINE
   5
37F
 100
AcDbEntity
   8
LEVEL001
 370
40
   6
CONTINUOUS
  62
7
 100
AcDbPolyline
  90
4
  70
0
  10
 551.92883706125
  20
 1519.5381008206
  10
 551.92883706125
  20
 1515.5381008206
  10
 751.92883706125
  20
 1515.5381008206
  10
 751.92883706125
  20
 1519.5381008206
   0
LINE
   5
380
 100
AcDbEntity
   8
LEVEL001
 370
9
 100
AcDbLine
   6
DOT
  62
11
  10
 551.92883706125
  20
 1519.5381008206
  30
0.0
  11
 551.92883706125
  21
 1586.5381008206
  31
0.0
   0
LINE
   5
381
 100
AcDbEntity
   8
LEVEL001
 370
9
 100
AcDbLine
   6
DOT
  62
11
  10
 751.92883706125
  20
 1519.5381008206
  30
0.0
  11
 751.92883706125
  21
 1586.5381008206
  31
0.0
   0
LINE
   5
382
 100
AcDbEntity
   8
LEVEL001
 370
9
 100
AcDbLine
   6
DOT
  62
11
  10
 731.92883706125
  20
 1519.5381008206
  30
0.0
  11
 731.92883706125
  21
 1586.5381008206
  31
0.0
   0
LINE
   5
383
 100
AcDbEntity
   8
LEVEL001
 370
9
 100
AcDbLine
   6
DOT
  62
11
  10
 571.92883706125
  20
 1519.5381008206
  30
0.0
  11
 571.92883706125
  21
 1586.5381008206
  31
0.0
   0
LINE
   5
384
 100
AcDbEntity
   8
LEVEL001
 370
40
 100
AcDbLine
   6
CONTINUOUS
  62
7
  10
 571.92883706125
  20
 1586.5381008206
  30
0.0
  11
 571.92883706125
  21
 1590.5381008206
  31
0.0
   0
LINE
   5
385
 100
AcDbEntity
   8
LEVEL001
 370
40
 100
AcDbLine
   6
CONTINUOUS
  62
7
  10
 731.92883706125
  20
 1586.5381008206
  30
0.0
  11
 731.92883706125
  21
 1590.5381008206
  31
0.0
   0
LINE
   5
386
 100
AcDbEntity
   8
LEVEL001
 370
40
 100
AcDbLine
   6
CONTINUOUS
  62
7
  10
 731.92883706125
  20
 1519.5381008206
  30
0.0
  11
 731.92883706125
  21
 1515.5381008206
  31
0.0
   0
LINE
   5
387
 100
AcDbEntity
   8
LEVEL001
 370
40
 100
AcDbLine
   6
CONTINUOUS
  62
7
  10
 571.92883706125
  20
 1519.5381008206
  30
0.0
  11
 571.92883706125
  21
 1515.5381008206
  31
0.0
   0
LINE
   5
388
 100
AcDbEntity
   8
LEVEL001
 370
9
 100
AcDbLine
   6
DASHDOT
  62
11
  10
 651.92883706125
  20
 1510.8178701359
  30
0.0
  11
 651.92883706125
  21
 1596.7171352833
  31
0.0
   0
INSERT
   5
389
 100
AcDbEntity
   8
0
 100
AcDbBlockReference
   2
BLOCK011
  10
0.0
  20
0.0
  30
0.0
   0
INSERT
   5
38A
 100
AcDbEntity
   8
0
 100
AcDbBlockReference
   2
BLOCK012
  10
0.0
  20
0.0
  30
0.0
   0
INSERT
   5
38B
 100
AcDbEntity
   8
0
 100
AcDbBlockReference
   2
BLOCK013
  10
0.0
  20
0.0
  30
0.0
   0
INSERT
   5
38C
 100
AcDbEntity
   8
0
 100
AcDbBlockReference
   2
BLOCK014
  10
0.0
  20
0.0
  30
0.0
   0
INSERT
   5
38D
 100
AcDbEntity
   8
0
 100
AcDbBlockReference
   2
BLOCK015
  10
0.0
  20
0.0
  30
0.0
   0
CIRCLE
   5
38E
 100
AcDbEntity
   8
LEVEL001
 370
40
 100
AcDbCircle
   6
CONTINUOUS
  62
7
  10
 740.92883706125
  20
 1608.0381008206
  30
0.0
  40
 7.0000000000000
   0
LINE
   5
38F
 100
AcDbEntity
   8
LEVEL001
 370
25
 100
AcDbLine
   6
DASHDOT
  62
3
  10
 740.92883706125
  20
 1596.0381008206
  30
0.0
  11
 740.92883706125
  21
 1620.0381008206
  31
0.0
   0
LINE
   5
390
 100
AcDbEntity
   8
LEVEL001
 370
25
 100
AcDbLine
   6
DASHDOT
  62
3
  10
 752.92883706125
  20
 1608.0381008206
  30
0.0
  11
 728.92883706125
  21
 1608.0381008206
  31
0.0
   0
LINE
   5
391
 100
AcDbEntity
   8
LEVEL001
 370
25
 100
AcDbLine
   6
DOT
  62
3
  10
 765.92883706125
  20
 1519.5381008206
  30
0.0
  11
 765.92883706125
  21
 1586.5381008206
  31
0.0
   0
LINE
   5
392
 100
AcDbEntity
   8
LEVEL001
 370
25
 100
AcDbLine
   6
DASHDOT
  62
3
  10
 840.48706144740
  20
 1253.0381008206
  30
0.0
  11
 61.784249674566
  21
 1253.0381008206
  31
0.0
   0
INSERT
   5
393
 100
AcDbEntity
   8
0
 100
AcDbBlockReference
   2
BLOCK016
  10
0.0
  20
0.0
  30
0.0
   0
LINE
   5
394
 100
AcDbEntity
   8
LEVEL001
 370
25
 100
AcDbLine
   6
DASHDOT
  62
3
  10
 1015.4897864380
  20
 1553.0381008206
  30
0.0
  11
 385.92883706125
  21
 1553.0381008206
  31
0.0
   0
INSERT
   5
395
 100
AcDbEntity
   8
0
 100
AcDbBlockReference
   2
BLOCK017
  10
0.0
  20
0.0
  30
0.0
   0
DIMENSION
   5
396
 100
AcDbEntity
   8
LEVEL001
 370
40
   6
CONTINUOUS
  62
7
 100
AcDbDimension
   2
*D7
  10
 883.61078546307
  20
 1553.0381008206
  30
0.0
  11
 883.61078546307
  21
 1602.6065213811
  31
0.0
  70
128
   3
GMM005
 100
AcDbAlignedDimension
  13
 765.92883706125
  23
 1633.0381008206
  33
0.0
  14
 884.80819489320
  24
 1553.0381008206
  34
0.0
  50
 270.00000000000
 100
AcDbRotatedDimension
   0
DIMENSION
   5
397
 100
AcDbEntity
   8
LEVEL001
 370
40
   6
CONTINUOUS
  62
7
 100
AcDbDimension
   2
*D8
  10
 883.61078546307
  20
 1253.0381008206
  30
0.0
  11
 883.61078546307
  21
 1403.0381008206
  31
0.0
  70
0
   1
\A1;（３００）
   3
GMM003
 100
AcDbAlignedDimension
  13
 884.80819489320
  23
 1553.0381008206
  33
0.0
  14
 840.48706144740
  24
 1253.0381008206
  34
0.0
  50
 270.00000000000
 100
AcDbRotatedDimension
   0
CIRCLE
   5
399
 100
AcDbEntity
   8
LEVEL001
 370
40
 100
AcDbCircle
   6
CONTINUOUS
  62
7
  10
 740.92883706125
  20
 1038.0381008206
  30
0.0
  40
 7.0000000000000
   0
LINE
   5
39A
 100
AcDbEntity
   8
LEVEL001
 370
25
 100
AcDbLine
   6
DASHDOT
  62
3
  10
 740.92883706125
  20
 1026.0381008206
  30
0.0
  11
 740.92883706125
  21
 1050.0381008206
  31
0.0
   0
LINE
   5
39B
 100
AcDbEntity
   8
LEVEL001
 370
25
 100
AcDbLine
   6
DASHDOT
  62
3
  10
 752.92883706125
  20
 1038.0381008206
  30
0.0
  11
 728.92883706125
  21
 1038.0381008206
  31
0.0
   0
CIRCLE
   5
39C
 100
AcDbEntity
   8
LEVEL001
 370
40
 100
AcDbCircle
   6
CONTINUOUS
  62
7
  10
 160.92883706125
  20
 1608.0381008206
  30
0.0
  40
 7.0000000000000
   0
LINE
   5
39D
 100
AcDbEntity
   8
LEVEL001
 370
25
 100
AcDbLine
   6
DASHDOT
  62
3
  10
 160.92883706125
  20
 1596.0381008206
  30
0.0
  11
 160.92883706125
  21
 1620.0381008206
  31
0.0
   0
LINE
   5
39E
 100
AcDbEntity
   8
LEVEL001
 370
25
 100
AcDbLine
   6
DASHDOT
  62
3
  10
 172.92883706125
  20
 1608.0381008206
  30
0.0
  11
 148.92883706125
  21
 1608.0381008206
  31
0.0
   0
DIMENSION
   5
39F
 100
AcDbEntity
   8
LEVEL001
 370
40
   6
CONTINUOUS
  62
7
 100
AcDbDimension
   2
*D9
  10
 765.92883706125
  20
 1794.9232121923
  30
0.0
  11
 450.92883706125
  21
 1794.9232121923
  31
0.0
  70
0
   3
GMM002
 100
AcDbAlignedDimension
  13
 135.92883706125
  23
 1633.0381008206
  33
0.0
  14
 765.92883706125
  24
 1633.0381008206
  34
0.0
 100
AcDbRotatedDimension
   0
DIMENSION
   5
3A0
 100
AcDbEntity
   8
LEVEL001
 370
40
   6
CONTINUOUS
  62
7
 100
AcDbDimension
   2
*D10
  10
 985.92883706125
  20
 1794.9232121923
  30
0.0
  11
 875.92883706125
  21
 1794.9232121923
  31
0.0
  70
0
   3
GMM002
 100
AcDbAlignedDimension
  13
 765.92883706125
  23
 1633.0381008206
  33
0.0
  14
 985.92883706125
  24
 1569.0381008206
  34
0.0
 100
AcDbRotatedDimension
   0
LEADER
   5
3A1
 100
AcDbEntity
   8
LEVEL001
 370
40
   6
CONTINUOUS
  62
3
 100
AcDbLeader
   3
GMM006
  73
0
  74
0
  75
0
  40
 20.000000000000
  41
 243.00265873939
  76
2
  10
 157.06314871472
  20
 1616.2332084751
  30
0.0
  10
 25.019036113573
  20
 1864.2370828925
  30
0.0
  77
3
 340
3A3
 213
0.0
 223
-8.5714285714287
 233
0.0
   0
MTEXT
   5
3A3
 102
{ACAD_REACTORS
 330
3A2
 102
}
 100
AcDbEntity
   8
LEVEL001
 370
40
  62
7
 100
AcDbMText
  10
 44.021694852959
  20
 1872.8085114639
  30
0.0
  40
 20.000000000000
  41
0.0
  71
7
  72
1
   1
\A1;４－φ１４取付穴
   7
GMM003
   0
CIRCLE
   5
3A4
 100
AcDbEntity
   8
LEVEL001
 370
40
 100
AcDbCircle
   6
CONTINUOUS
  62
7
  10
 160.92883706125
  20
 1038.0381008206
  30
0.0
  40
 7.0000000000000
   0
LINE
   5
3A5
 100
AcDbEntity
   8
LEVEL001
 370
25
 100
AcDbLine
   6
DASHDOT
  62
3
  10
 160.92883706125
  20
 1026.0381008206
  30
0.0
  11
 160.92883706125
  21
 1050.0381008206
  31
0.0
   0
LINE
   5
3A6
 100
AcDbEntity
   8
LEVEL001
 370
25
 100
AcDbLine
   6
DASHDOT
  62
3
  10
 172.92883706125
  20
 1038.0381008206
  30
0.0
  11
 148.92883706125
  21
 1038.0381008206
  31
0.0
   0
DIMENSION
   5
3A7
 100
AcDbEntity
   8
LEVEL001
 370
40
   6
CONTINUOUS
  62
7
 100
AcDbDimension
   2
*D12
  10
 41.362758413633
  20
 1608.0381008206
  30
0.0
  11
 41.362758413633
  21
 1657.8359698128
  31
0.0
  70
128
   3
GMM007
 100
AcDbAlignedDimension
  13
 135.92883706125
  23
 1633.0381008206
  33
0.0
  14
 148.92883706125
  24
 1608.0381008206
  34
0.0
  50
 270.00000000000
 100
AcDbRotatedDimension
   0
DIMENSION
   5
3A8
 100
AcDbEntity
   8
LEVEL001
 370
40
   6
CONTINUOUS
  62
7
 100
AcDbDimension
   2
*D13
  10
 41.362758413633
  20
 1038.0381008206
  30
0.0
  11
 41.362758413633
  21
 1323.0381008206
  31
0.0
  70
0
   3
GMM002
 100
AcDbAlignedDimension
  13
 148.92883706125
  23
 1608.0381008206
  33
0.0
  14
 148.92883706125
  24
 1038.0381008206
  34
0.0
  50
 270.00000000000
 100
AcDbRotatedDimension
   0
DIMENSION
   5
3A9
 100
AcDbEntity
   8
LEVEL001
 370
40
   6
CONTINUOUS
  62
7
 100
AcDbDimension
   2
*D14
  10
-14.749885626054
  20
 1013.0381008206
  30
0.0
  11
-14.749885626054
  21
 1323.0381008206
  31
0.0
  70
0
   3
GMM002
 100
AcDbAlignedDimension
  13
 135.92883706125
  23
 1633.0381008206
  33
0.0
  14
 135.92883706125
  24
 1013.0381008206
  34
0.0
  50
 270.00000000000
 100
AcDbRotatedDimension
   0
LWPOLYLINE
   5
3AA
 100
AcDbEntity
   8
LEVEL001
 370
40
   6
CONTINUOUS
  62
7
 100
AcDbPolyline
  90
4
  70
0
  10
 135.92883706125
  20
 1438.5251343113
  10
 135.92883706125
  20
 1633.0381008206
  10
 765.92883706125
  20
 1633.0381008206
  10
 765.92883706125
  20
 1586.5381008206
   0
LINE
   5
3AB
 100
AcDbEntity
   8
LEVEL001
 370
25
 100
AcDbLine
   6
DOT
  62
3
  10
 135.92883706125
  20
 1130.0510673300
  30
0.0
  11
 135.92883706125
  21
 1438.5251343113
  31
0.0
   0
LWPOLYLINE
   5
3AC
 100
AcDbEntity
   8
LEVEL001
 370
40
   6
CONTINUOUS
  62
7
 100
AcDbPolyline
  90
3
  70
0
  10
 273.17911422345
  20
 1013.0381008206
  10
 135.92883706125
  20
 1013.0381008206
  10
 135.92883706125
  20
 1130.0510673300
   0
LWPOLYLINE
   5
3AD
 100
AcDbEntity
   8
LEVEL001
 370
40
   6
CONTINUOUS
  62
7
 100
AcDbPolyline
  90
3
  70
0
  10
 765.92883706125
  20
 1519.5381008206
  10
 765.92883706125
  20
 1013.0381008206
  10
 489.58089926939
  20
 1013.0381008206
   0
LINE
   5
3AE
 100
AcDbEntity
   8
LEVEL001
 370
25
 100
AcDbLine
   6
DOT
  62
3
  10
 273.17911422345
  20
 1013.0381008206
  30
0.0
  11
 489.58089926939
  21
 1013.0381008206
  31
0.0
   0
INSERT
   5
3AF
 100
AcDbEntity
   8
0
 100
AcDbBlockReference
   2
BLOCK018
  10
0.0
  20
0.0
  30
0.0
   0
LINE
   5
3B0
 100
AcDbEntity
   8
LEVEL001
 370
25
 100
AcDbLine
   6
DASHDOT
  62
3
  10
 385.92883706125
  20
 965.47939839305
  30
0.0
  11
 385.92883706125
  21
 1610.2540078885
  31
0.0
   0
DIMENSION
   5
3B1
 100
AcDbEntity
   8
LEVEL001
 370
40
   6
CONTINUOUS
  62
7
 100
AcDbDimension
   2
*D15
  10
 740.92883706125
  20
 1725.2866354045
  30
0.0
  11
 450.92883706125
  21
 1725.2866354045
  31
0.0
  70
0
   3
GMM002
 100
AcDbAlignedDimension
  13
 160.92883706125
  23
 1620.0381008206
  33
0.0
  14
 740.92883706125
  24
 1620.0381008206
  34
0.0
 100
AcDbRotatedDimension
   0
DIMENSION
   5
3B2
 100
AcDbEntity
   8
LEVEL001
 370
40
   6
CONTINUOUS
  62
7
 100
AcDbDimension
   2
*D16
  10
 765.92883706125
  20
 1725.2866354045
  30
0.0
  11
 790.52069453578
  21
 1725.2866354045
  31
0.0
  70
128
   3
GMM008
 100
AcDbAlignedDimension
  13
 740.92883706125
  23
 1620.0381008206
  33
0.0
  14
 765.92883706125
  24
 1633.0381008206
  34
0.0
 100
AcDbRotatedDimension
   0
INSERT
   5
3B3
 100
AcDbEntity
   8
0
 100
AcDbBlockReference
   2
BLOCK019
  10
0.0
  20
0.0
  30
0.0
   0
INSERT
   5
3B4
 100
AcDbEntity
   8
0
 100
AcDbBlockReference
   2
BLOCK020
  10
0.0
  20
0.0
  30
0.0
   0
LWPOLYLINE
   5
3B5
 100
AcDbEntity
   8
LEVEL001
 370
40
   6
CONTINUOUS
  62
7
 100
AcDbPolyline
  90
4
  70
0
  10
 1010.4714168448
  20
 293.67584994138
  10
 1214.9930355033
  20
 293.67584994138
  10
 1214.9930355033
  20
 277.67584994138
  10
 1010.4714168448
  20
 277.67584994138
   0
LINE
   5
3B6
 100
AcDbEntity
   8
LEVEL001
 370
25
 100
AcDbLine
   6
DASHDOT
  62
3
  10
 1134.9930355033
  20
 720.88704388432
  30
0.0
  11
 1134.9930355033
  21
 253.55965853533
  31
0.0
   0
INSERT
   5
3B7
 100
AcDbEntity
   8
0
 100
AcDbBlockReference
   2
BLOCK021
  10
0.0
  20
0.0
  30
0.0
   0
LWPOLYLINE
   5
3B8
 100
AcDbEntity
   8
LEVEL001
 370
40
   6
CONTINUOUS
  62
7
 100
AcDbPolyline
  90
4
  70
1
  10
 1167.4930355033
  20
 662.67584994138
  10
 1102.4930355033
  20
 662.67584994138
  10
 1102.4930355033
  20
 678.67584994138
  10
 1167.4930355033
  20
 678.67584994138
   0
LWPOLYLINE
   5
3B9
 100
AcDbEntity
   8
LEVEL001
 370
40
   6
CONTINUOUS
  62
7
 100
AcDbPolyline
  90
4
  70
1
  10
 1150.9930355033
  20
 678.67584994138
  10
 1118.9930355033
  20
 678.67584994138
  10
 1118.9930355033
  20
 698.67584994138
  10
 1150.9930355033
  20
 698.67584994138
   0
LWPOLYLINE
   5
3BA
 100
AcDbEntity
   8
LEVEL001
 370
40
   6
CONTINUOUS
  62
7
 100
AcDbPolyline
  90
4
  70
1
  10
 1172.4930355033
  20
 517.67584994138
  10
 1097.4930355033
  20
 517.67584994138
  10
 1097.4930355033
  20
 526.67584994138
  10
 1172.4930355033
  20
 526.67584994138
   0
INSERT
   5
3BB
 100
AcDbEntity
   8
0
 100
AcDbBlockReference
   2
BLOCK022
  10
0.0
  20
0.0
  30
0.0
   0
INSERT
   5
3BC
 100
AcDbEntity
   8
0
 100
AcDbBlockReference
   2
BLOCK023
  10
0.0
  20
0.0
  30
0.0
   0
INSERT
   5
3BD
 100
AcDbEntity
   8
0
 100
AcDbBlockReference
   2
BLOCK024
  10
0.0
  20
0.0
  30
0.0
   0
MTEXT
   5
3BE
 100
AcDbEntity
   8
LEVEL001
 370
40
  62
7
 100
AcDbMText
  10
 927.44820588536
  20
-36.495452298573
  30
0.0
  40
 24.000000000000
  41
0.0
  71
7
  72
1
   1
ＳＴ５Ｒｄ７／ＳＨ２０
   7
GMM002
   0
ENDSEC
  0
SECTION
  2
OBJECTS
  0
DICTIONARY
  5
C
100
AcDbDictionary
  3
ACAD_GROUP
350
D
  3
ACAD_MLINESTYLE
350
1B
  0
DICTIONARY
  5
D
102
{ACAD_REACTORS
330
C
102
}
100
AcDbDictionary
  0
DICTIONARY
  5
1B
102
{ACAD_REACTORS
330
C
102
}
100
AcDbDictionary
  3
STANDARD
350
1C
  0
MLINESTYLE
  5
1C
102
{ACAD_REACTORS
330
1B
102
}
100
AcDbMlineStyle
  2
STANDARD
 70
     0
  3

 62
   256
 51
90.0
 52
90.0
 71
     2
 49
0.5
 62
   256
  6
BYLAYER
 49
-0.5
 62
   256
  6
BYLAYER
  0
ENDSEC
   0
EOF
