   0
SECTION
   2
HEADER
   9
$ACADVER
   1
AC1015
   9
$DWGCODEPAGE
   3
ANSI_932
   9
$LIMMIN
  10
-210.00000000000
  20
-148.50000000000
   9
$LIMMAX
  10
 1470.0000000000
  20
 2227.5000000000
   9
$EXTMIN
  10
-210.00000000000
  20
-148.50000000000
  30
0.0
   9
$EXTMAX
  10
 1470.0000000000
  20
 2227.5000000000
  30
0.0
   9
$LTSCALE
  40
 47.520000000000
   9
$HANDSEED
   5
3C8
   0
ENDSEC
   0
SECTION
   2
TABLES
  0
TABLE
  2
VPORT
  5
8
100
AcDbSymbolTable
 70
     1
  0
VPORT
  5
3C7
100
AcDbSymbolTableRecord
100
AcDbViewportTableRecord
  2
*ACTIVE
 70
     0
 10
0.0
 20
0.0
 11
1.0
 21
1.0
  12
 630.00000000000
  22
 1039.5000000000
 13
0.0
 23
0.0
 14
1.0
 24
1.0
 15
0.0
 25
0.0
 16
0.0
 26
0.0
 36
1.0
 17
0.0
 27
0.0
 37
0.0
  40
 2376.0000000000
  41
 1.4787878787879
 42
50.0
 43
0.0
 44
0.0
 50
0.0
 51
0.0
 71
     0
 72
   100
 73
     1
 74
     1
 75
     0
 76
     0
 77
     0
 78
     0
  0
ENDTAB
  0
TABLE
  2
LTYPE
  5
5
100
AcDbSymbolTable
 70
    25
  0
LTYPE
  5
12
100
AcDbSymbolTableRecord
100
AcDbLinetypeTableRecord
  2
BYBLOCK
 70
     0
  3

 72
    65
 73
     0
 40
0.0
  0
LTYPE
  5
13
100
AcDbSymbolTableRecord
100
AcDbLinetypeTableRecord
  2
BYLAYER
 70
     0
  3

 72
    65
 73
     0
 40
0.0
  0
LTYPE
  5
14
100
AcDbSymbolTableRecord
100
AcDbLinetypeTableRecord
  2
CONTINUOUS
 70
     0
  3
Solid line
 72
    65
 73
     0
 40
0.0
  0
LTYPE
  5
20
100
AcDbSymbolTableRecord
100
AcDbLinetypeTableRecord
  2
BORDER
 70
     0
  3
__ __ . __ __ . __ __ . __ __ . __ __ . __ __ .
 72
    65
 73
     6
 40
1.75
 49
0.5
 74
     0
 49
-0.25
 74
     0
 49
0.5
 74
     0
 49
-0.25
 74
     0
 49
0.0
 74
     0
 49
-0.25
 74
     0
  0
LTYPE
  5
21
100
AcDbSymbolTableRecord
100
AcDbLinetypeTableRecord
  2
BORDER2
 70
     0
  3
__.__.__.__.__.__.__.__.__.__.__.__.__.__.__.__
 72
    65
 73
     6
 40
0.875
 49
0.25
 74
     0
 49
-0.125
 74
     0
 49
0.25
 74
     0
 49
-0.125
 74
     0
 49
0.0
 74
     0
 49
-0.125
 74
     0
  0
LTYPE
  5
22
100
AcDbSymbolTableRecord
100
AcDbLinetypeTableRecord
  2
BORDERX2
 70
     0
  3
____  ____  .  ____  ____  .  ____  ____  .  __
 72
    65
 73
     6
 40
3.5
 49
1.0
 74
     0
 49
-0.5
 74
     0
 49
1.0
 74
     0
 49
-0.5
 74
     0
 49
0.0
 74
     0
 49
-0.5
 74
     0
  0
LTYPE
  5
23
100
AcDbSymbolTableRecord
100
AcDbLinetypeTableRecord
  2
CENTER
 70
     0
  3
____ _ ____ _ ____ _ ____ _ ____ _ ____ _ ____ 
 72
    65
 73
     4
 40
2.0
 49
1.25
 74
     0
 49
-0.25
 74
     0
 49
0.25
 74
     0
 49
-0.25
 74
     0
  0
LTYPE
  5
24
100
AcDbSymbolTableRecord
100
AcDbLinetypeTableRecord
  2
CENTER2
 70
     0
  3
___ _ ___ _ ___ _ ___ _ ___ _ ___ _ ___ _ ___ _
 72
    65
 73
     4
 40
1.125
 49
0.75
 74
     0
 49
-0.125
 74
     0
 49
0.125
 74
     0
 49
-0.125
 74
     0
  0
LTYPE
  5
25
100
AcDbSymbolTableRecord
100
AcDbLinetypeTableRecord
  2
CENTERX2
 70
     0
  3
________  __  ________  __  ________  __  _____
 72
    65
 73
     4
 40
4.0
 49
2.5
 74
     0
 49
-0.5
 74
     0
 49
0.5
 74
     0
 49
-0.5
 74
     0
  0
LTYPE
  5
26
100
AcDbSymbolTableRecord
100
AcDbLinetypeTableRecord
  2
DASHDOT
 70
     0
  3
__ . __ . __ . __ . __ . __ . __ . __ . __ . __
 72
    65
 73
     4
 40
1.0
 49
0.5
 74
     0
 49
-0.25
 74
     0
 49
0.0
 74
     0
 49
-0.25
 74
     0
  0
LTYPE
  5
27
100
AcDbSymbolTableRecord
100
AcDbLinetypeTableRecord
  2
DASHDOT2
 70
     0
  3
_._._._._._._._._._._._._._._._._._._._._._._._
 72
    65
 73
     4
 40
0.5
 49
0.25
 74
     0
 49
-0.125
 74
     0
 49
0.0
 74
     0
 49
-0.125
 74
     0
  0
LTYPE
  5
28
100
AcDbSymbolTableRecord
100
AcDbLinetypeTableRecord
  2
DASHDOTX2
 70
     0
  3
____  .  ____  .  ____  .  ____  .  ____  .  __
 72
    65
 73
     4
 40
2.0
 49
1.0
 74
     0
 49
-0.5
 74
     0
 49
0.0
 74
     0
 49
-0.5
 74
     0
  0
LTYPE
  5
29
100
AcDbSymbolTableRecord
100
AcDbLinetypeTableRecord
  2
DASHED
 70
     0
  3
__ __ __ __ __ __ __ __ __ __ __ __ __ __ __ __
 72
    65
 73
     2
 40
0.75
 49
0.5
 74
     0
 49
-0.25
 74
     0
  0
LTYPE
  5
2A
100
AcDbSymbolTableRecord
100
AcDbLinetypeTableRecord
  2
DASHED2
 70
     0
  3
_ _ _ _ _ _ _ _ _ _ _ _ _ _ _ _ _ _ _ _ _ _ _ _
 72
    65
 73
     2
 40
0.375
 49
0.25
 74
     0
 49
-0.125
 74
     0
  0
LTYPE
  5
2B
100
AcDbSymbolTableRecord
100
AcDbLinetypeTableRecord
  2
DASHEDX2
 70
     0
  3
____  ____  ____  ____  ____  ____  ____  ____ 
 72
    65
 73
     2
 40
1.5
 49
1.0
 74
     0
 49
-0.5
 74
     0
  0
LTYPE
  5
2C
100
AcDbSymbolTableRecord
100
AcDbLinetypeTableRecord
  2
DIVIDE
 70
     0
  3
____ . . ____ . . ____ . . ____ . . ____ . . __
 72
    65
 73
     6
 40
1.25
 49
0.5
 74
     0
 49
-0.25
 74
     0
 49
0.0
 74
     0
 49
-0.25
 74
     0
 49
0.0
 74
     0
 49
-0.25
 74
     0
  0
LTYPE
  5
2D
100
AcDbSymbolTableRecord
100
AcDbLinetypeTableRecord
  2
DIVIDE2
 70
     0
  3
__..__..__..__..__..__..__..__..__..__..__..__.
 72
    65
 73
     6
 40
0.625
 49
0.25
 74
     0
 49
-0.125
 74
     0
 49
0.0
 74
     0
 49
-0.125
 74
     0
 49
0.0
 74
     0
 49
-0.125
 74
     0
  0
LTYPE
  5
2E
100
AcDbSymbolTableRecord
100
AcDbLinetypeTableRecord
  2
DIVIDEX2
 70
     0
  3
________  .  .  ________  .  .  ________  .  . 
 72
    65
 73
     6
 40
2.5
 49
1.0
 74
     0
 49
-0.5
 74
     0
 49
0.0
 74
     0
 49
-0.5
 74
     0
 49
0.0
 74
     0
 49
-0.5
 74
     0
  0
LTYPE
  5
2F
100
AcDbSymbolTableRecord
100
AcDbLinetypeTableRecord
  2
DOT
 70
     0
  3
. . . . . . . . . . . . . . . . . . . . . . . .
 72
    65
 73
     2
 40
0.25
 49
0.0
 74
     0
 49
-0.25
 74
     0
  0
LTYPE
  5
30
100
AcDbSymbolTableRecord
100
AcDbLinetypeTableRecord
  2
DOT2
 70
     0
  3
...............................................
 72
    65
 73
     2
 40
0.125
 49
0.0
 74
     0
 49
-0.125
 74
     0
  0
LTYPE
  5
31
100
AcDbSymbolTableRecord
100
AcDbLinetypeTableRecord
  2
DOTX2
 70
     0
  3
.  .  .  .  .  .  .  .  .  .  .  .  .  .  .  . 
 72
    65
 73
     2
 40
0.5
 49
0.0
 74
     0
 49
-0.5
 74
     0
  0
LTYPE
  5
32
100
AcDbSymbolTableRecord
100
AcDbLinetypeTableRecord
  2
HIDDEN
 70
     0
  3
__ __ __ __ __ __ __ __ __ __ __ __ __ __ __ __
 72
    65
 73
     2
 40
0.375
 49
0.25
 74
     0
 49
-0.125
 74
     0
  0
LTYPE
  5
33
100
AcDbSymbolTableRecord
100
AcDbLinetypeTableRecord
  2
HIDDEN2
 70
     0
  3
_ _ _ _ _ _ _ _ _ _ _ _ _ _ _ _ _ _ _ _ _ _ _ _
 72
    65
 73
     2
 40
0.1875
 49
0.125
 74
     0
 49
-0.0625
 74
     0
  0
LTYPE
  5
34
100
AcDbSymbolTableRecord
100
AcDbLinetypeTableRecord
  2
HIDDENX2
 70
     0
  3
____ ____ ____ ____ ____ ____ ____ ____ ____ __
 72
    65
 73
     2
 40
0.75
 49
0.5
 74
     0
 49
-0.25
 74
     0
  0
LTYPE
  5
35
100
AcDbSymbolTableRecord
100
AcDbLinetypeTableRecord
  2
PHANTOM
 70
     0
  3
______  __  __  ______  __  __  ______  __  __ 
 72
    65
 73
     6
 40
2.5
 49
1.25
 74
     0
 49
-0.25
 74
     0
 49
0.25
 74
     0
 49
-0.25
 74
     0
 49
0.25
 74
     0
 49
-0.25
 74
     0
  0
LTYPE
  5
36
100
AcDbSymbolTableRecord
100
AcDbLinetypeTableRecord
  2
PHANTOM2
 70
     0
  3
___ _ _ ___ _ _ ___ _ _ ___ _ _ ___ _ _ ___ _ _
 72
    65
 73
     6
 40
1.25
 49
0.625
 74
     0
 49
-0.125
 74
     0
 49
0.125
 74
     0
 49
-0.125
 74
     0
 49
0.125
 74
     0
 49
-0.125
 74
     0
  0
LTYPE
  5
37
100
AcDbSymbolTableRecord
100
AcDbLinetypeTableRecord
  2
PHANTOMX2
 70
     0
  3
____________    ____    ____    ____________   
 72
    65
 73
     6
 40
5.0
 49
2.5
 74
     0
 49
-0.5
 74
     0
 49
0.5
 74
     0
 49
-0.5
 74
     0
 49
0.5
 74
     0
 49
-0.5
 74
     0
  0
ENDTAB
   0
TABLE
   2
LAYER
   5
2
 100
AcDbSymbolTable
  70
2
   0
LAYER
   5
E
 100
AcDbSymbolTableRecord
 100
AcDbLayerTableRecord
   2
0
  70
0
  62
7
   6
CONTINUOUS
 390
30
   0
LAYER
   5
39
 100
AcDbSymbolTableRecord
 100
AcDbLayerTableRecord
   2
LEVEL001
  70
0
  62
7
   6
CONTINUOUS
 390
30
   0
ENDTAB
  0
TABLE
  2
STYLE
  5
3
100
AcDbSymbolTable
  70
5
  0
STYLE
  5
F
100
AcDbSymbolTableRecord
100
AcDbTextStyleTableRecord
  2
STANDARD
 70
     0
 40
0.0
 41
1.0
 50
0.0
 71
     0
 42
0.2
  3
TXT
  4
BIGFONT
  0
STYLE
  5
38
100
AcDbSymbolTableRecord
100
AcDbTextStyleTableRecord
  2
STANDARD1
 70
     4
 40
0.0
 41
1.0
 50
0.0
 71
     0
 42
0.2
  3
TXT
  4
BIGFONT
   0
STYLE
   5
3A
 100
AcDbSymbolTableRecord
 100
AcDbTextStyleTableRecord
   2
GMM001
  70
4
  40
0.0
  41
 1.0000000000000
  50
0.0
  71
     0
  42
1.0
   3

   4

1001
ACAD
1000
ＭＳ 明朝
1071
32785
   0
STYLE
   5
3B
 100
AcDbSymbolTableRecord
 100
AcDbTextStyleTableRecord
   2
GMM002
  70
0
  40
0.0
  41
 1.0000000000000
  50
0.0
  71
     0
  42
1.0
   3

   4

1001
ACAD
1000
ＭＳ 明朝
1071
32785
   0
STYLE
   5
3C
 100
AcDbSymbolTableRecord
 100
AcDbTextStyleTableRecord
   2
GMM003
  70
0
  40
0.0
  41
 1.0000000000000
  50
0.0
  71
     0
  42
1.0
   3

   4

1001
ACAD
1000
ＭＳ ゴシック
1071
32817
   0
ENDTAB
  0
TABLE
  2
VIEW
  5
6
100
AcDbSymbolTable
 70
     0
  0
ENDTAB
  0
TABLE
  2
UCS
  5
7
100
AcDbSymbolTable
 70
     0
  0
ENDTAB
  0
TABLE
  2
APPID
  5
9
100
AcDbSymbolTable
 70
     1
  0
APPID
  5
10
100
AcDbSymbolTableRecord
100
AcDbRegAppTableRecord
  2
ACAD
 70
     0
  0
ENDTAB
   0
TABLE
   2
DIMSTYLE
   5
A
 100
AcDbSymbolTable
  70
11
 100
AcDbDimStyleTable
  0
DIMSTYLE
105
1D
100
AcDbSymbolTableRecord
100
AcDbDimStyleTableRecord
  2
STANDARD
 70
     0
  3

  4

  5

  6

  7

 40
1.0
 41
0.18
 42
0.0625
 43
0.38
 44
0.18
 45
0.0
 46
0.0
 47
0.0
 48
0.0
140
0.18
141
0.09
142
0.0
143
25.4
144
1.0
145
0.0
146
1.0
147
0.09
 71
     0
 72
     0
 73
     1
 74
     1
 75
     0
 76
     0
 77
     0
 78
     0
170
     0
171
     2
172
     0
173
     0
174
     0
175
     0
176
     0
177
     0
178
     0
270
     2
271
     4
272
     4
273
     2
274
     2
340
F
275
     0
280
     0
281
     0
282
     0
283
     1
284
     0
285
     0
286
     0
287
     3
288
     0
   0
DIMSTYLE
 105
3D
 100
AcDbSymbolTableRecord
 100
AcDbDimStyleTableRecord
   2
GMM001
  70
0
   3

   4

   5

   6
_OPEN30
   7
_OPEN30
  40
 1.0000000000000
  41
 16.000000000000
  42
 8.0000000000000
  43
 64.000000000000
  44
 12.000000000000
  45
0.0
  46
0.0
  47
0.0
  48
0.0
 140
 20.000000000000
 141
 8.0000000000000
 142
0.0
 143
 0.39400000000000E-1
 144
 1.0000000000000
 145
0.0
 146
 1.0000000000000
 147
 9.6726903611357
  71
0
  72
0
  73
0
  74
0
  75
0
  76
0
  77
3
  78
8
 170
0
 171
2
 172
1
 173
1
 174
0
 175
0
 176
3
 177
3
 178
7
 270
2
 271
6
 272
0
 273
2
 274
2
 340
3C
 275
0
 280
0
 281
0
 282
0
 283
1
 284
0
 285
0
 286
0
 287
3
 288
1
   0
DIMSTYLE
 105
3E
 100
AcDbSymbolTableRecord
 100
AcDbDimStyleTableRecord
   2
GMM002
  70
0
   3

   4

   5

   6
_OPEN30
   7
_OPEN30
  40
 1.0000000000000
  41
 16.000000000000
  42
 8.0000000000000
  43
 64.000000000000
  44
 12.000000000000
  45
0.0
  46
0.0
  47
0.0
  48
0.0
 140
 20.000000000000
 141
 8.0000000000000
 142
0.0
 143
 0.39400000000000E-1
 144
 1.0000000000000
 145
0.0
 146
 1.0000000000000
 147
 8.5714285714286
  71
0
  72
0
  73
0
  74
0
  75
0
  76
0
  77
3
  78
0
 170
0
 171
2
 172
1
 173
1
 174
0
 175
0
 176
3
 177
3
 178
7
 270
2
 271
0
 272
0
 273
2
 274
2
 340
3C
 275
0
 280
0
 281
0
 282
0
 283
1
 284
0
 285
0
 286
0
 287
3
 288
0
   0
DIMSTYLE
 105
3F
 100
AcDbSymbolTableRecord
 100
AcDbDimStyleTableRecord
   2
GMM003
  70
0
   3

   4

   5

   6
_OPEN30
   7
_OPEN30
  40
 1.0000000000000
  41
 16.000000000000
  42
 8.0000000000000
  43
 64.000000000000
  44
 12.000000000000
  45
0.0
  46
0.0
  47
0.0
  48
0.0
 140
 20.000000000000
 141
 8.0000000000000
 142
0.0
 143
 0.39400000000000E-1
 144
 1.0000000000000
 145
0.0
 146
 1.0000000000000
 147
 8.5714285714286
  71
0
  72
0
  73
0
  74
0
  75
0
  76
0
  77
3
  78
8
 170
0
 171
2
 172
1
 173
1
 174
0
 175
0
 176
3
 177
3
 178
7
 270
2
 271
6
 272
0
 273
2
 274
2
 340
3C
 275
0
 280
0
 281
0
 282
0
 283
1
 284
0
 285
0
 286
0
 287
3
 288
0
   0
DIMSTYLE
 105
40
 100
AcDbSymbolTableRecord
 100
AcDbDimStyleTableRecord
   2
GMM004
  70
0
   3
φ<>
   4

   5

   6
_OPEN30
   7
_OPEN30
  40
 1.0000000000000
  41
 16.000000000000
  42
 8.0000000000000
  43
 64.000000000000
  44
 12.000000000000
  45
0.0
  46
0.0
  47
0.0
  48
0.0
 140
 20.000000000000
 141
 8.0000000000000
 142
0.0
 143
 0.39400000000000E-1
 144
 1.0000000000000
 145
0.0
 146
 1.0000000000000
 147
 8.5714285714286
  71
0
  72
0
  73
0
  74
0
  75
0
  76
0
  77
3
  78
8
 170
0
 171
2
 172
1
 173
1
 174
0
 175
0
 176
3
 177
3
 178
7
 270
2
 271
6
 272
0
 273
2
 274
2
 340
3C
 275
0
 280
0
 281
0
 282
0
 283
1
 284
0
 285
0
 286
0
 287
3
 288
0
   0
DIMSTYLE
 105
41
 100
AcDbSymbolTableRecord
 100
AcDbDimStyleTableRecord
   2
GMM005
  70
0
   3

   4

   5

   6
_OPEN30
   7
_OPEN30
  40
 1.0000000000000
  41
 16.000000000000
  42
 8.0000000000000
  43
 64.000000000000
  44
 12.000000000000
  45
0.0
  46
0.0
  47
0.0
  48
0.0
 140
 20.000000000000
 141
 8.0000000000000
 142
0.0
 143
 0.39400000000000E-1
 144
 1.0000000000000
 145
0.0
 146
 1.0000000000000
 147
 9.1398007033995
  71
0
  72
0
  73
0
  74
0
  75
0
  76
0
  77
3
  78
8
 170
0
 171
2
 172
1
 173
1
 174
0
 175
0
 176
3
 177
3
 178
7
 270
2
 271
6
 272
0
 273
2
 274
2
 340
3C
 275
0
 280
0
 281
0
 282
0
 283
1
 284
0
 285
0
 286
0
 287
3
 288
1
   0
DIMSTYLE
 105
42
 100
AcDbSymbolTableRecord
 100
AcDbDimStyleTableRecord
   2
GMM006
  70
0
   3
（<>
   4

   5

   6
_OPEN30
   7
_OPEN30
  40
 1.0000000000000
  41
 16.000000000000
  42
 8.0000000000000
  43
 64.000000000000
  44
 12.000000000000
  45
0.0
  46
0.0
  47
0.0
  48
0.0
 140
 20.000000000000
 141
 8.0000000000000
 142
0.0
 143
 0.39400000000000E-1
 144
 1.0000000000000
 145
0.0
 146
 1.0000000000000
 147
 8.5714285714286
  71
0
  72
0
  73
0
  74
0
  75
0
  76
0
  77
3
  78
8
 170
0
 171
2
 172
1
 173
1
 174
0
 175
0
 176
3
 177
3
 178
7
 270
2
 271
6
 272
0
 273
2
 274
2
 340
3C
 275
0
 280
0
 281
0
 282
0
 283
1
 284
0
 285
0
 286
0
 287
3
 288
0
   0
DIMSTYLE
 105
43
 100
AcDbSymbolTableRecord
 100
AcDbDimStyleTableRecord
   2
GMM007
  70
0
   3

   4

   5

   6
_NONE
   7
_OPEN30
  40
 1.0000000000000
  41
 16.000000000000
  42
 8.0000000000000
  43
 64.000000000000
  44
 12.000000000000
  45
0.0
  46
0.0
  47
0.0
  48
0.0
 140
 20.000000000000
 141
 8.0000000000000
 142
0.0
 143
 0.39400000000000E-1
 144
 1.0000000000000
 145
0.0
 146
 1.0000000000000
 147
 6.1016927343951
  71
0
  72
0
  73
0
  74
0
  75
0
  76
0
  77
3
  78
8
 170
0
 171
2
 172
1
 173
1
 174
0
 175
0
 176
3
 177
3
 178
7
 270
2
 271
6
 272
0
 273
2
 274
2
 340
3C
 275
0
 280
0
 281
0
 282
0
 283
1
 284
0
 285
0
 286
0
 287
3
 288
1
   0
DIMSTYLE
 105
44
 100
AcDbSymbolTableRecord
 100
AcDbDimStyleTableRecord
   2
GMM008
  70
0
   3

   4

   5

   6
_OPEN30
   7
_OPEN30
  40
 1.0000000000000
  41
 16.000000000000
  42
 8.0000000000000
  43
 64.000000000000
  44
 12.000000000000
  45
0.0
  46
0.0
  47
0.0
  48
0.0
 140
 20.000000000000
 141
 8.0000000000000
 142
0.0
 143
 0.39400000000000E-1
 144
 1.0000000000000
 145
0.0
 146
 1.0000000000000
 147
0.0
  71
0
  72
0
  73
0
  74
0
  75
0
  76
0
  77
1
  78
8
 170
0
 171
2
 172
1
 173
1
 174
0
 175
0
 176
3
 177
3
 178
7
 270
2
 271
6
 272
0
 273
2
 274
2
 340
3C
 275
0
 280
0
 281
0
 282
0
 283
1
 284
0
 285
0
 286
0
 287
3
 288
0
   0
DIMSTYLE
 105
45
 100
AcDbSymbolTableRecord
 100
AcDbDimStyleTableRecord
   2
GMM009
  70
0
   3

   4

   5

   6
_OPEN30
   7
_NONE
  40
 1.0000000000000
  41
 16.000000000000
  42
 8.0000000000000
  43
 64.000000000000
  44
 12.000000000000
  45
0.0
  46
0.0
  47
0.0
  48
0.0
 140
 20.000000000000
 141
 8.0000000000000
 142
0.0
 143
 0.39400000000000E-1
 144
 1.0000000000000
 145
0.0
 146
 1.0000000000000
 147
 5.2439739227404
  71
0
  72
0
  73
0
  74
0
  75
0
  76
0
  77
3
  78
8
 170
0
 171
2
 172
1
 173
1
 174
0
 175
0
 176
3
 177
3
 178
7
 270
2
 271
6
 272
0
 273
2
 274
2
 340
3C
 275
0
 280
0
 281
0
 282
0
 283
1
 284
0
 285
0
 286
0
 287
3
 288
1
   0
ENDTAB
  0
TABLE
  2
BLOCK_RECORD
  5
1
100
AcDbSymbolTable
 70
     0
  0
BLOCK_RECORD
  5
18
100
AcDbSymbolTableRecord
100
AcDbBlockTableRecord
  2
*MODEL_SPACE
  0
BLOCK_RECORD
  5
15
100
AcDbSymbolTableRecord
100
AcDbBlockTableRecord
  2
*PAPER_SPACE
   0
BLOCK_RECORD
   5
46
 100
AcDbSymbolTableRecord
 100
AcDbBlockTableRecord
   2
BLOCK001
   0
BLOCK_RECORD
   5
47
 100
AcDbSymbolTableRecord
 100
AcDbBlockTableRecord
   2
BLOCK002
   0
BLOCK_RECORD
   5
48
 100
AcDbSymbolTableRecord
 100
AcDbBlockTableRecord
   2
BLOCK003
   0
BLOCK_RECORD
   5
49
 100
AcDbSymbolTableRecord
 100
AcDbBlockTableRecord
   2
BLOCK004
   0
BLOCK_RECORD
   5
4A
 100
AcDbSymbolTableRecord
 100
AcDbBlockTableRecord
   2
BLOCK005
   0
BLOCK_RECORD
   5
4B
 100
AcDbSymbolTableRecord
 100
AcDbBlockTableRecord
   2
BLOCK006
   0
BLOCK_RECORD
   5
4C
 100
AcDbSymbolTableRecord
 100
AcDbBlockTableRecord
   2
BLOCK007
   0
BLOCK_RECORD
   5
4D
 100
AcDbSymbolTableRecord
 100
AcDbBlockTableRecord
   2
BLOCK008
   0
BLOCK_RECORD
   5
4E
 100
AcDbSymbolTableRecord
 100
AcDbBlockTableRecord
   2
BLOCK009
   0
BLOCK_RECORD
   5
4F
 100
AcDbSymbolTableRecord
 100
AcDbBlockTableRecord
   2
BLOCK010
   0
BLOCK_RECORD
   5
50
 100
AcDbSymbolTableRecord
 100
AcDbBlockTableRecord
   2
BLOCK011
   0
BLOCK_RECORD
   5
51
 100
AcDbSymbolTableRecord
 100
AcDbBlockTableRecord
   2
BLOCK012
   0
BLOCK_RECORD
   5
52
 100
AcDbSymbolTableRecord
 100
AcDbBlockTableRecord
   2
BLOCK013
   0
BLOCK_RECORD
   5
53
 100
AcDbSymbolTableRecord
 100
AcDbBlockTableRecord
   2
BLOCK014
   0
BLOCK_RECORD
   5
54
 100
AcDbSymbolTableRecord
 100
AcDbBlockTableRecord
   2
BLOCK015
   0
BLOCK_RECORD
   5
55
 100
AcDbSymbolTableRecord
 100
AcDbBlockTableRecord
   2
*D1
   0
BLOCK_RECORD
   5
56
 100
AcDbSymbolTableRecord
 100
AcDbBlockTableRecord
   2
*D2
   0
BLOCK_RECORD
   5
57
 100
AcDbSymbolTableRecord
 100
AcDbBlockTableRecord
   2
*D3
   0
BLOCK_RECORD
   5
58
 100
AcDbSymbolTableRecord
 100
AcDbBlockTableRecord
   2
*D4
   0
BLOCK_RECORD
   5
59
 100
AcDbSymbolTableRecord
 100
AcDbBlockTableRecord
   2
*D5
   0
BLOCK_RECORD
   5
5A
 100
AcDbSymbolTableRecord
 100
AcDbBlockTableRecord
   2
BLOCK016
   0
BLOCK_RECORD
   5
5B
 100
AcDbSymbolTableRecord
 100
AcDbBlockTableRecord
   2
BLOCK017
   0
BLOCK_RECORD
   5
5C
 100
AcDbSymbolTableRecord
 100
AcDbBlockTableRecord
   2
BLOCK018
   0
BLOCK_RECORD
   5
5D
 100
AcDbSymbolTableRecord
 100
AcDbBlockTableRecord
   2
BLOCK019
   0
BLOCK_RECORD
   5
5E
 100
AcDbSymbolTableRecord
 100
AcDbBlockTableRecord
   2
BLOCK020
   0
BLOCK_RECORD
   5
5F
 100
AcDbSymbolTableRecord
 100
AcDbBlockTableRecord
   2
BLOCK021
   0
BLOCK_RECORD
   5
60
 100
AcDbSymbolTableRecord
 100
AcDbBlockTableRecord
   2
BLOCK022
   0
BLOCK_RECORD
   5
61
 100
AcDbSymbolTableRecord
 100
AcDbBlockTableRecord
   2
*D6
   0
BLOCK_RECORD
   5
62
 100
AcDbSymbolTableRecord
 100
AcDbBlockTableRecord
   2
*D7
   0
BLOCK_RECORD
   5
63
 100
AcDbSymbolTableRecord
 100
AcDbBlockTableRecord
   2
BLOCK023
   0
BLOCK_RECORD
   5
64
 100
AcDbSymbolTableRecord
 100
AcDbBlockTableRecord
   2
BLOCK024
   0
BLOCK_RECORD
   5
65
 100
AcDbSymbolTableRecord
 100
AcDbBlockTableRecord
   2
*D8
   0
BLOCK_RECORD
   5
66
 100
AcDbSymbolTableRecord
 100
AcDbBlockTableRecord
   2
*D9
   0
BLOCK_RECORD
   5
67
 100
AcDbSymbolTableRecord
 100
AcDbBlockTableRecord
   2
*D10
   0
BLOCK_RECORD
   5
68
 100
AcDbSymbolTableRecord
 100
AcDbBlockTableRecord
   2
*D11
   0
BLOCK_RECORD
   5
69
 100
AcDbSymbolTableRecord
 100
AcDbBlockTableRecord
   2
*D13
   0
BLOCK_RECORD
   5
6A
 100
AcDbSymbolTableRecord
 100
AcDbBlockTableRecord
   2
*D14
   0
BLOCK_RECORD
   5
6B
 100
AcDbSymbolTableRecord
 100
AcDbBlockTableRecord
   2
*D15
   0
BLOCK_RECORD
   5
6C
 100
AcDbSymbolTableRecord
 100
AcDbBlockTableRecord
   2
*D16
   0
BLOCK_RECORD
   5
6D
 100
AcDbSymbolTableRecord
 100
AcDbBlockTableRecord
   2
_ARCHTICK
   0
BLOCK_RECORD
   5
6E
 100
AcDbSymbolTableRecord
 100
AcDbBlockTableRecord
   2
_BOXBLANK
   0
BLOCK_RECORD
   5
6F
 100
AcDbSymbolTableRecord
 100
AcDbBlockTableRecord
   2
_BOXFILLED
   0
BLOCK_RECORD
   5
70
 100
AcDbSymbolTableRecord
 100
AcDbBlockTableRecord
   2
_CLOSED
   0
BLOCK_RECORD
   5
71
 100
AcDbSymbolTableRecord
 100
AcDbBlockTableRecord
   2
_CLOSEDBLANK
   0
BLOCK_RECORD
   5
72
 100
AcDbSymbolTableRecord
 100
AcDbBlockTableRecord
   2
_DATUMBLANK
   0
BLOCK_RECORD
   5
73
 100
AcDbSymbolTableRecord
 100
AcDbBlockTableRecord
   2
_DATUMFILLED
   0
BLOCK_RECORD
   5
74
 100
AcDbSymbolTableRecord
 100
AcDbBlockTableRecord
   2
_DOT
   0
BLOCK_RECORD
   5
75
 100
AcDbSymbolTableRecord
 100
AcDbBlockTableRecord
   2
_DOTBLANK
   0
BLOCK_RECORD
   5
76
 100
AcDbSymbolTableRecord
 100
AcDbBlockTableRecord
   2
_DOTSMALL
   0
BLOCK_RECORD
   5
77
 100
AcDbSymbolTableRecord
 100
AcDbBlockTableRecord
   2
_INTEGRAL
   0
BLOCK_RECORD
   5
78
 100
AcDbSymbolTableRecord
 100
AcDbBlockTableRecord
   2
_NONE
   0
BLOCK_RECORD
   5
79
 100
AcDbSymbolTableRecord
 100
AcDbBlockTableRecord
   2
_OBLIQUE
   0
BLOCK_RECORD
   5
7A
 100
AcDbSymbolTableRecord
 100
AcDbBlockTableRecord
   2
_OPEN
   0
BLOCK_RECORD
   5
7B
 100
AcDbSymbolTableRecord
 100
AcDbBlockTableRecord
   2
_OPEN30
   0
BLOCK_RECORD
   5
7C
 100
AcDbSymbolTableRecord
 100
AcDbBlockTableRecord
   2
_OPEN90
   0
BLOCK_RECORD
   5
7D
 100
AcDbSymbolTableRecord
 100
AcDbBlockTableRecord
   2
_ORIGIN
   0
ENDTAB
   0
ENDSEC
  0
SECTION
  2
BLOCKS
  0
BLOCK
  5
19
100
AcDbEntity
  8
0
100
AcDbBlockBegin
  2
*MODEL_SPACE
 70
     0
 10
0.0
 20
0.0
 30
0.0
  3
*MODEL_SPACE
  1

  0
ENDBLK
  5
1A
100
AcDbEntity
  8
0
100
AcDbBlockEnd
  0
BLOCK
  5
16
100
AcDbEntity
 67
     1
  8
0
100
AcDbBlockBegin
  2
*PAPER_SPACE
 70
     0
 10
0.0
 20
0.0
 30
0.0
  3
*PAPER_SPACE
  1

  0
ENDBLK
  5
17
100
AcDbEntity
 67
     1
  8
0
100
AcDbBlockEnd
   0
BLOCK
   5
7E
 100
AcDbEntity
   8
0
 100
AcDbBlockBegin
   2
_ARCHTICK
  70
0
  10
0.0
  20
0.0
  30
0.0
   3
_ARCHTICK
   0
POLYLINE
   5
7F
 100
AcDbEntity
   8
0
 370
-2
   6
BYBLOCK
  62
0
 100
AcDb2dPolyline
  66
1
  10
0.0
  20
0.0
  30
0.0
  70
1
  40
 0.15000000000000
  41
 0.15000000000000
   0
VERTEX
   5
80
 100
AcDbEntity
   8
0
   6
BYBLOCK
  62
0
 100
AcDbVertex
 100
AcDb2dVertex
  10
-0.50000000000000
  20
-0.50000000000000
  30
0.0
  40
 0.15000000000000
  41
 0.15000000000000
   0
VERTEX
   5
81
 100
AcDbEntity
   8
0
   6
BYBLOCK
  62
0
 100
AcDbVertex
 100
AcDb2dVertex
  10
 0.50000000000000
  20
 0.50000000000000
  30
0.0
  40
 0.15000000000000
  41
 0.15000000000000
   0
SEQEND
   5
82
 100
AcDbEntity
   8
0
   6
BYBLOCK
  62
0
   0
ENDBLK
   5
83
 100
AcDbEntity
   8
0
 100
AcDbBlockEnd
   0
BLOCK
   5
84
 100
AcDbEntity
   8
0
 100
AcDbBlockBegin
   2
_OBLIQUE
  70
0
  10
0.0
  20
0.0
  30
0.0
   3
_OBLIQUE
   0
LINE
   5
85
 100
AcDbEntity
   8
0
 370
-2
 100
AcDbLine
   6
BYBLOCK
  62
0
  10
-0.50000000000000
  20
-0.50000000000000
  30
0.0
  11
 0.50000000000000
  21
 0.50000000000000
  31
0.0
   0
ENDBLK
   5
86
 100
AcDbEntity
   8
0
 100
AcDbBlockEnd
   0
BLOCK
   5
87
 100
AcDbEntity
   8
0
 100
AcDbBlockBegin
   2
_BOXBLANK
  70
0
  10
0.0
  20
0.0
  30
0.0
   3
_BOXBLANK
   0
LINE
   5
88
 100
AcDbEntity
   8
0
 370
-2
 100
AcDbLine
   6
BYBLOCK
  62
0
  10
-0.50000000000000
  20
-0.50000000000000
  30
0.0
  11
 0.50000000000000
  21
-0.50000000000000
  31
0.0
   0
LINE
   5
89
 100
AcDbEntity
   8
0
 370
-2
 100
AcDbLine
   6
BYBLOCK
  62
0
  10
 0.50000000000000
  20
-0.50000000000000
  30
0.0
  11
 0.50000000000000
  21
 0.50000000000000
  31
0.0
   0
LINE
   5
8A
 100
AcDbEntity
   8
0
 370
-2
 100
AcDbLine
   6
BYBLOCK
  62
0
  10
 0.50000000000000
  20
 0.50000000000000
  30
0.0
  11
-0.50000000000000
  21
 0.50000000000000
  31
0.0
   0
LINE
   5
8B
 100
AcDbEntity
   8
0
 370
-2
 100
AcDbLine
   6
BYBLOCK
  62
0
  10
-0.50000000000000
  20
 0.50000000000000
  30
0.0
  11
-0.50000000000000
  21
-0.50000000000000
  31
0.0
   0
LINE
   5
8C
 100
AcDbEntity
   8
0
 370
-2
 100
AcDbLine
   6
BYBLOCK
  62
0
  10
-0.50000000000000
  20
0.0
  30
0.0
  11
-1.0000000000000
  21
0.0
  31
0.0
   0
ENDBLK
   5
8D
 100
AcDbEntity
   8
0
 100
AcDbBlockEnd
   0
BLOCK
   5
8E
 100
AcDbEntity
   8
0
 100
AcDbBlockBegin
   2
_BOXFILLED
  70
0
  10
0.0
  20
0.0
  30
0.0
   3
_BOXFILLED
   0
SOLID
   5
8F
 100
AcDbEntity
   8
0
 100
AcDbTrace
   6
BYBLOCK
  62
0
  10
-0.50000000000000
  20
 0.50000000000000
  30
0.0
  11
 0.50000000000000
  21
 0.50000000000000
  31
0.0
  12
-0.50000000000000
  22
-0.50000000000000
  32
0.0
  13
 0.50000000000000
  23
-0.50000000000000
  33
0.0
   0
LINE
   5
90
 100
AcDbEntity
   8
0
 370
-2
 100
AcDbLine
   6
BYBLOCK
  62
0
  10
-0.50000000000000
  20
0.0
  30
0.0
  11
-1.0000000000000
  21
0.0
  31
0.0
   0
ENDBLK
   5
91
 100
AcDbEntity
   8
0
 100
AcDbBlockEnd
   0
BLOCK
   5
92
 100
AcDbEntity
   8
0
 100
AcDbBlockBegin
   2
_CLOSED
  70
0
  10
0.0
  20
0.0
  30
0.0
   3
_CLOSED
   0
LINE
   5
93
 100
AcDbEntity
   8
0
 370
-2
 100
AcDbLine
   6
BYBLOCK
  62
0
  10
-1.0000000000000
  20
 0.16666666666667
  30
0.0
  11
0.0
  21
0.0
  31
0.0
   0
LINE
   5
94
 100
AcDbEntity
   8
0
 370
-2
 100
AcDbLine
   6
BYBLOCK
  62
0
  10
0.0
  20
0.0
  30
0.0
  11
-1.0000000000000
  21
-0.16666666666667
  31
0.0
   0
LINE
   5
95
 100
AcDbEntity
   8
0
 370
-2
 100
AcDbLine
   6
BYBLOCK
  62
0
  10
-1.0000000000000
  20
 0.16666666666667
  30
0.0
  11
-1.0000000000000
  21
-0.16666666666667
  31
0.0
   0
LINE
   5
96
 100
AcDbEntity
   8
0
 370
-2
 100
AcDbLine
   6
BYBLOCK
  62
0
  10
0.0
  20
0.0
  30
0.0
  11
-1.0000000000000
  21
0.0
  31
0.0
   0
ENDBLK
   5
97
 100
AcDbEntity
   8
0
 100
AcDbBlockEnd
   0
BLOCK
   5
98
 100
AcDbEntity
   8
0
 100
AcDbBlockBegin
   2
_OPEN
  70
0
  10
0.0
  20
0.0
  30
0.0
   3
_OPEN
   0
LINE
   5
99
 100
AcDbEntity
   8
0
 370
-2
 100
AcDbLine
   6
BYBLOCK
  62
0
  10
-1.0000000000000
  20
 0.16666666666667
  30
0.0
  11
0.0
  21
0.0
  31
0.0
   0
LINE
   5
9A
 100
AcDbEntity
   8
0
 370
-2
 100
AcDbLine
   6
BYBLOCK
  62
0
  10
0.0
  20
0.0
  30
0.0
  11
-1.0000000000000
  21
-0.16666666666667
  31
0.0
   0
LINE
   5
9B
 100
AcDbEntity
   8
0
 370
-2
 100
AcDbLine
   6
BYBLOCK
  62
0
  10
0.0
  20
0.0
  30
0.0
  11
-1.0000000000000
  21
0.0
  31
0.0
   0
ENDBLK
   5
9C
 100
AcDbEntity
   8
0
 100
AcDbBlockEnd
   0
BLOCK
   5
9D
 100
AcDbEntity
   8
0
 100
AcDbBlockBegin
   2
_OPEN30
  70
0
  10
0.0
  20
0.0
  30
0.0
   3
_OPEN30
   0
LINE
   5
9E
 100
AcDbEntity
   8
0
 370
-2
 100
AcDbLine
   6
BYBLOCK
  62
0
  10
-1.0000000000000
  20
 0.26794919243110
  30
0.0
  11
0.0
  21
0.0
  31
0.0
   0
LINE
   5
9F
 100
AcDbEntity
   8
0
 370
-2
 100
AcDbLine
   6
BYBLOCK
  62
0
  10
0.0
  20
0.0
  30
0.0
  11
-1.0000000000000
  21
-0.26794919243110
  31
0.0
   0
LINE
   5
A0
 100
AcDbEntity
   8
0
 370
-2
 100
AcDbLine
   6
BYBLOCK
  62
0
  10
0.0
  20
0.0
  30
0.0
  11
-1.0000000000000
  21
0.0
  31
0.0
   0
ENDBLK
   5
A1
 100
AcDbEntity
   8
0
 100
AcDbBlockEnd
   0
BLOCK
   5
A2
 100
AcDbEntity
   8
0
 100
AcDbBlockBegin
   2
_OPEN90
  70
0
  10
0.0
  20
0.0
  30
0.0
   3
_OPEN90
   0
LINE
   5
A3
 100
AcDbEntity
   8
0
 370
-2
 100
AcDbLine
   6
BYBLOCK
  62
0
  10
-0.50000000000000
  20
 0.50000000000000
  30
0.0
  11
0.0
  21
0.0
  31
0.0
   0
LINE
   5
A4
 100
AcDbEntity
   8
0
 370
-2
 100
AcDbLine
   6
BYBLOCK
  62
0
  10
0.0
  20
0.0
  30
0.0
  11
-0.50000000000000
  21
-0.50000000000000
  31
0.0
   0
LINE
   5
A5
 100
AcDbEntity
   8
0
 370
-2
 100
AcDbLine
   6
BYBLOCK
  62
0
  10
0.0
  20
0.0
  30
0.0
  11
-1.0000000000000
  21
0.0
  31
0.0
   0
ENDBLK
   5
A6
 100
AcDbEntity
   8
0
 100
AcDbBlockEnd
   0
BLOCK
   5
A7
 100
AcDbEntity
   8
0
 100
AcDbBlockBegin
   2
_CLOSEDBLANK
  70
0
  10
0.0
  20
0.0
  30
0.0
   3
_CLOSEDBLANK
   0
LINE
   5
A8
 100
AcDbEntity
   8
0
 370
-2
 100
AcDbLine
   6
BYBLOCK
  62
0
  10
-1.0000000000000
  20
 0.16666666666667
  30
0.0
  11
0.0
  21
0.0
  31
0.0
   0
LINE
   5
A9
 100
AcDbEntity
   8
0
 370
-2
 100
AcDbLine
   6
BYBLOCK
  62
0
  10
0.0
  20
0.0
  30
0.0
  11
-1.0000000000000
  21
-0.16666666666667
  31
0.0
   0
LINE
   5
AA
 100
AcDbEntity
   8
0
 370
-2
 100
AcDbLine
   6
BYBLOCK
  62
0
  10
-1.0000000000000
  20
 0.16666666666667
  30
0.0
  11
-1.0000000000000
  21
-0.16666666666667
  31
0.0
   0
ENDBLK
   5
AB
 100
AcDbEntity
   8
0
 100
AcDbBlockEnd
   0
BLOCK
   5
AC
 100
AcDbEntity
   8
0
 100
AcDbBlockBegin
   2
_DOT
  70
0
  10
0.0
  20
0.0
  30
0.0
   3
_DOT
   0
POLYLINE
   5
AD
 100
AcDbEntity
   8
0
 370
-2
   6
BYBLOCK
  62
0
 100
AcDb2dPolyline
  66
1
  10
0.0
  20
0.0
  30
0.0
  70
1
  40
 0.50000000000000
  41
 0.50000000000000
   0
VERTEX
   5
AE
 100
AcDbEntity
   8
0
   6
BYBLOCK
  62
0
 100
AcDbVertex
 100
AcDb2dVertex
  10
-0.25000000000000
  20
0.0
  30
0.0
  42
 1.0000000000000
  40
 0.50000000000000
  41
 0.50000000000000
   0
VERTEX
   5
AF
 100
AcDbEntity
   8
0
   6
BYBLOCK
  62
0
 100
AcDbVertex
 100
AcDb2dVertex
  10
 0.25000000000000
  20
0.0
  30
0.0
  42
 1.0000000000000
  40
 0.50000000000000
  41
 0.50000000000000
   0
SEQEND
   5
B0
 100
AcDbEntity
   8
0
   6
BYBLOCK
  62
0
   0
LINE
   5
B1
 100
AcDbEntity
   8
0
 370
-2
 100
AcDbLine
   6
BYBLOCK
  62
0
  10
-0.50000000000000
  20
0.0
  30
0.0
  11
-1.0000000000000
  21
0.0
  31
0.0
   0
ENDBLK
   5
B2
 100
AcDbEntity
   8
0
 100
AcDbBlockEnd
   0
BLOCK
   5
B3
 100
AcDbEntity
   8
0
 100
AcDbBlockBegin
   2
_DOTSMALL
  70
0
  10
0.0
  20
0.0
  30
0.0
   3
_DOTSMALL
   0
POLYLINE
   5
B4
 100
AcDbEntity
   8
0
 370
-2
   6
BYBLOCK
  62
0
 100
AcDb2dPolyline
  66
1
  10
0.0
  20
0.0
  30
0.0
  70
1
  40
 0.50000000000000
  41
 0.50000000000000
   0
VERTEX
   5
B5
 100
AcDbEntity
   8
0
   6
BYBLOCK
  62
0
 100
AcDbVertex
 100
AcDb2dVertex
  10
-0.62500000000000E-1
  20
0.0
  30
0.0
  42
 1.0000000000000
  40
 0.50000000000000
  41
 0.50000000000000
   0
VERTEX
   5
B6
 100
AcDbEntity
   8
0
   6
BYBLOCK
  62
0
 100
AcDbVertex
 100
AcDb2dVertex
  10
 0.62500000000000E-1
  20
0.0
  30
0.0
  42
 1.0000000000000
  40
 0.50000000000000
  41
 0.50000000000000
   0
SEQEND
   5
B7
 100
AcDbEntity
   8
0
   6
BYBLOCK
  62
0
   0
ENDBLK
   5
B8
 100
AcDbEntity
   8
0
 100
AcDbBlockEnd
   0
BLOCK
   5
B9
 100
AcDbEntity
   8
0
 100
AcDbBlockBegin
   2
_DATUMBLANK
  70
0
  10
0.0
  20
0.0
  30
0.0
   3
_DATUMBLANK
   0
LINE
   5
BA
 100
AcDbEntity
   8
0
 370
-2
 100
AcDbLine
   6
BYBLOCK
  62
0
  10
0.0
  20
 0.57735027000000
  30
0.0
  11
-1.0000000000000
  21
0.0
  31
0.0
   0
LINE
   5
BB
 100
AcDbEntity
   8
0
 370
-2
 100
AcDbLine
   6
BYBLOCK
  62
0
  10
-1.0000000000000
  20
0.0
  30
0.0
  11
0.0
  21
-0.57735027000000
  31
0.0
   0
LINE
   5
BC
 100
AcDbEntity
   8
0
 370
-2
 100
AcDbLine
   6
BYBLOCK
  62
0
  10
0.0
  20
-0.57735027000000
  30
0.0
  11
0.0
  21
 0.57735027000000
  31
0.0
   0
ENDBLK
   5
BD
 100
AcDbEntity
   8
0
 100
AcDbBlockEnd
   0
BLOCK
   5
BE
 100
AcDbEntity
   8
0
 100
AcDbBlockBegin
   2
_DATUMFILLED
  70
0
  10
0.0
  20
0.0
  30
0.0
   3
_DATUMFILLED
   0
SOLID
   5
BF
 100
AcDbEntity
   8
0
 100
AcDbTrace
   6
BYBLOCK
  62
0
  10
0.0
  20
 0.57735027000000
  30
0.0
  11
-1.0000000000000
  21
0.0
  31
0.0
  12
0.0
  22
-0.57735027000000
  32
0.0
  13
0.0
  23
-0.57735027000000
  33
0.0
   0
ENDBLK
   5
C0
 100
AcDbEntity
   8
0
 100
AcDbBlockEnd
   0
BLOCK
   5
C1
 100
AcDbEntity
   8
0
 100
AcDbBlockBegin
   2
_ORIGIN
  70
0
  10
0.0
  20
0.0
  30
0.0
   3
_ORIGIN
   0
CIRCLE
   5
C2
 100
AcDbEntity
   8
0
 370
-2
 100
AcDbCircle
   6
BYBLOCK
  62
0
  10
0.0
  20
0.0
  30
0.0
  40
 0.50000000000000
   0
LINE
   5
C3
 100
AcDbEntity
   8
0
 370
-2
 100
AcDbLine
   6
BYBLOCK
  62
0
  10
0.0
  20
0.0
  30
0.0
  11
-1.0000000000000
  21
0.0
  31
0.0
   0
ENDBLK
   5
C4
 100
AcDbEntity
   8
0
 100
AcDbBlockEnd
   0
BLOCK
   5
C5
 100
AcDbEntity
   8
0
 100
AcDbBlockBegin
   2
_NONE
  70
0
  10
0.0
  20
0.0
  30
0.0
   3
_NONE
   0
CIRCLE
   5
C6
 100
AcDbEntity
   8
0
 370
-2
 100
AcDbCircle
   6
BYBLOCK
  62
0
  10
0.0
  20
0.0
  30
0.0
  40
 0.25000000000000
   0
ENDBLK
   5
C7
 100
AcDbEntity
   8
0
 100
AcDbBlockEnd
   0
BLOCK
   5
C8
 100
AcDbEntity
   8
0
 100
AcDbBlockBegin
   2
_DOTBLANK
  70
0
  10
0.0
  20
0.0
  30
0.0
   3
_DOTBLANK
   0
CIRCLE
   5
C9
 100
AcDbEntity
   8
0
 370
-2
 100
AcDbCircle
   6
BYBLOCK
  62
0
  10
0.0
  20
0.0
  30
0.0
  40
 0.50000000000000
   0
LINE
   5
CA
 100
AcDbEntity
   8
0
 370
-2
 100
AcDbLine
   6
BYBLOCK
  62
0
  10
-0.50000000000000
  20
0.0
  30
0.0
  11
-1.0000000000000
  21
0.0
  31
0.0
   0
ENDBLK
   5
CB
 100
AcDbEntity
   8
0
 100
AcDbBlockEnd
   0
BLOCK
   5
CC
 100
AcDbEntity
   8
0
 100
AcDbBlockBegin
   2
_INTEGRAL
  70
0
  10
0.0
  20
0.0
  30
0.0
   3
_INTEGRAL
   0
ARC
   5
CD
 100
AcDbEntity
   8
0
 370
-2
   6
BYBLOCK
  62
0
 100
AcDbCircle
  10
 0.44488800000000
  20
-0.91335000000000E-1
  30
0.0
  40
 0.45416700000000
 100
AcDbArc
  50
 102.00000000000
  51
 168.00000000000
   0
ARC
   5
CE
 100
AcDbEntity
   8
0
 370
-2
   6
BYBLOCK
  62
0
 100
AcDbCircle
  10
-0.44488800000000
  20
 0.91335000000000E-1
  30
0.0
  40
 0.45416700000000
 100
AcDbArc
  50
 282.00000000000
  51
 348.00000000000
   0
ENDBLK
   5
CF
 100
AcDbEntity
   8
0
 100
AcDbBlockEnd
   0
BLOCK
   5
D0
 100
AcDbEntity
   8
0
 100
AcDbBlockBegin
   2
BLOCK001
  70
64
  10
0.0
  20
0.0
  30
0.0
   3
BLOCK001
   0
MTEXT
   5
D1
 100
AcDbEntity
   8
LEVEL001
 370
40
  62
7
 100
AcDbMText
  10
 1060.1717165629
  20
-130.29883714822
  30
0.0
  40
 32.000000000000
  41
0.0
  71
7
  72
1
   1
シマテック
   7
GMM003
   0
MTEXT
   5
D2
 100
AcDbEntity
   8
LEVEL001
 370
40
  62
7
 100
AcDbMText
  10
 1062.2647981396
  20
-130.29883714822
  30
0.0
  40
 32.000000000000
  41
0.0
  71
7
  72
1
   1
シマテック
   7
GMM003
   0
MTEXT
   5
D3
 100
AcDbEntity
   8
LEVEL001
 370
40
  62
7
 100
AcDbMText
  10
 873.08066518087
  20
-127.43187932661
  30
0.0
  40
 24.000000000000
  41
0.0
  71
7
  72
1
   1
株式会社
   7
GMM003
   0
ENDBLK
   5
D4
 100
AcDbEntity
   8
0
 100
AcDbBlockEnd
   0
BLOCK
   5
D5
 100
AcDbEntity
   8
0
 100
AcDbBlockBegin
   2
BLOCK002
  70
64
  10
0.0
  20
0.0
  30
0.0
   3
BLOCK002
   0
LWPOLYLINE
   5
D6
 100
AcDbEntity
   8
LEVEL001
 370
40
   6
CONTINUOUS
  62
7
 100
AcDbPolyline
  90
4
  70
1
  10
 606.53720835748
  20
 403.39214536928
  10
 766.53720835748
  20
 403.39214536928
  10
 766.53720835748
  20
 415.39214536928
  10
 606.53720835748
  20
 415.39214536928
   0
LINE
   5
D7
 100
AcDbEntity
   8
LEVEL001
 370
40
 100
AcDbLine
   6
CONTINUOUS
  62
7
  10
 656.28720835748
  20
 403.39214536928
  30
0.0
  11
 656.28720835748
  21
 283.39214536928
  31
0.0
   0
LINE
   5
D8
 100
AcDbEntity
   8
LEVEL001
 370
40
 100
AcDbLine
   6
CONTINUOUS
  62
7
  10
 716.78720835748
  20
 403.39214536928
  30
0.0
  11
 716.78720835748
  21
 283.39214536928
  31
0.0
   0
LINE
   5
D9
 100
AcDbEntity
   8
LEVEL001
 370
25
 100
AcDbLine
   6
DOT
  62
3
  10
 660.08720835748
  20
 403.39214536928
  30
0.0
  11
 660.08720835748
  21
 283.39214536928
  31
0.0
   0
LINE
   5
DA
 100
AcDbEntity
   8
LEVEL001
 370
25
 100
AcDbLine
   6
DOT
  62
3
  10
 712.98720835748
  20
 403.39214536928
  30
0.0
  11
 712.98720835748
  21
 283.39214536928
  31
0.0
   0
LWPOLYLINE
   5
DB
 100
AcDbEntity
   8
LEVEL001
 370
40
   6
CONTINUOUS
  62
7
 100
AcDbPolyline
  90
4
  70
1
  10
 606.53720835748
  20
 271.39214536928
  10
 766.53720835748
  20
 271.39214536928
  10
 766.53720835748
  20
 283.39214536928
  10
 606.53720835748
  20
 283.39214536928
   0
ENDBLK
   5
DC
 100
AcDbEntity
   8
0
 100
AcDbBlockEnd
   0
BLOCK
   5
DD
 100
AcDbEntity
   8
0
 100
AcDbBlockBegin
   2
BLOCK003
  70
64
  10
0.0
  20
0.0
  30
0.0
   3
BLOCK003
   0
LINE
   5
DE
 100
AcDbEntity
   8
LEVEL001
 370
40
 100
AcDbLine
   6
CONTINUOUS
  62
7
  10
 1139.3514067995
  20
 403.39214536928
  30
0.0
  11
 1139.3514067995
  21
 283.39214536928
  31
0.0
   0
LINE
   5
DF
 100
AcDbEntity
   8
LEVEL001
 370
40
 100
AcDbLine
   6
CONTINUOUS
  62
7
  10
 1199.8514067995
  20
 403.39214536928
  30
0.0
  11
 1199.8514067995
  21
 283.39214536928
  31
0.0
   0
LINE
   5
E0
 100
AcDbEntity
   8
LEVEL001
 370
25
 100
AcDbLine
   6
DOT
  62
3
  10
 1143.1514067995
  20
 403.39214536928
  30
0.0
  11
 1143.1514067995
  21
 283.39214536928
  31
0.0
   0
LINE
   5
E1
 100
AcDbEntity
   8
LEVEL001
 370
25
 100
AcDbLine
   6
DOT
  62
3
  10
 1196.0514067995
  20
 403.39214536928
  30
0.0
  11
 1196.0514067995
  21
 283.39214536928
  31
0.0
   0
LWPOLYLINE
   5
E2
 100
AcDbEntity
   8
LEVEL001
 370
40
   6
CONTINUOUS
  62
7
 100
AcDbPolyline
  90
4
  70
1
  10
 1132.1014067995
  20
 403.39214536928
  10
 1207.1014067995
  20
 403.39214536928
  10
 1207.1014067995
  20
 415.39214536928
  10
 1132.1014067995
  20
 415.39214536928
   0
LWPOLYLINE
   5
E3
 100
AcDbEntity
   8
LEVEL001
 370
40
   6
CONTINUOUS
  62
7
 100
AcDbPolyline
  90
4
  70
1
  10
 1132.1014067995
  20
 271.39214536928
  10
 1207.1014067995
  20
 271.39214536928
  10
 1207.1014067995
  20
 283.39214536928
  10
 1132.1014067995
  20
 283.39214536928
   0
ENDBLK
   5
E4
 100
AcDbEntity
   8
0
 100
AcDbBlockEnd
   0
BLOCK
   5
E5
 100
AcDbEntity
   8
0
 100
AcDbBlockBegin
   2
BLOCK004
  70
64
  10
0.0
  20
0.0
  30
0.0
   3
BLOCK004
   0
ARC
   5
E6
 100
AcDbEntity
   8
LEVEL001
 370
25
   6
CONTINUOUS
  62
3
 100
AcDbCircle
  10
 638.33720830986
  20
 297.19214532166
  30
0.0
  40
 1.2000000476837
 100
AcDbArc
  50
0.0
  51
 90.000580568998
   0
LINE
   5
E7
 100
AcDbEntity
   8
LEVEL001
 370
25
 100
AcDbLine
   6
CONTINUOUS
  62
3
  10
 638.33719615045
  20
 298.39214536928
  30
0.0
  11
 622.73722056451
  21
 298.39214536928
  31
0.0
   0
ARC
   5
E8
 100
AcDbEntity
   8
LEVEL001
 370
25
   6
CONTINUOUS
  62
3
 100
AcDbCircle
  10
 622.73720840510
  20
 297.19214532166
  30
0.0
  40
 1.2000000476837
 100
AcDbArc
  50
 89.999419431002
  51
 180.00058056900
   0
LINE
   5
E9
 100
AcDbEntity
   8
LEVEL001
 370
25
 100
AcDbLine
   6
CONTINUOUS
  62
3
  10
 621.53720835748
  20
 297.19213316225
  30
0.0
  11
 621.53720835748
  21
 286.39214536928
  31
0.0
   0
LINE
   5
EA
 100
AcDbEntity
   8
LEVEL001
 370
25
 100
AcDbLine
   6
CONTINUOUS
  62
3
  10
 639.53720835748
  20
 286.39214536928
  30
0.0
  11
 639.53720835748
  21
 297.19213316225
  31
0.0
   0
LWPOLYLINE
   5
EB
 100
AcDbEntity
   8
LEVEL001
 370
25
   6
CONTINUOUS
  62
3
 100
AcDbPolyline
  90
4
  70
0
  10
 641.28720835748
  20
 283.39214536928
  10
 641.28720835748
  20
 286.39214536928
  10
 619.78720835748
  20
 286.39214536928
  10
 619.78720835748
  20
 283.39214536928
   0
LINE
   5
EC
 100
AcDbEntity
   8
LEVEL001
 370
25
 100
AcDbLine
   6
CONTINUOUS
  62
3
  10
 628.80515269342
  20
 286.39214536928
  30
0.0
  11
 630.53720835748
  21
 283.39214536928
  31
0.0
   0
LINE
   5
ED
 100
AcDbEntity
   8
LEVEL001
 370
25
 100
AcDbLine
   6
CONTINUOUS
  62
3
  10
 630.53720835748
  20
 286.39214536928
  30
0.0
  11
 632.26926402154
  21
 283.39214536928
  31
0.0
   0
LINE
   5
EE
 100
AcDbEntity
   8
LEVEL001
 370
25
 100
AcDbLine
   6
DASHDOT
  62
3
  10
 630.53720835748
  20
 305.01295581749
  30
0.0
  11
 630.53720835748
  21
 255.56534866164
  31
0.0
   0
ENDBLK
   5
EF
 100
AcDbEntity
   8
0
 100
AcDbBlockEnd
   0
BLOCK
   5
F0
 100
AcDbEntity
   8
0
 100
AcDbBlockBegin
   2
BLOCK005
  70
64
  10
0.0
  20
0.0
  30
0.0
   3
BLOCK005
   0
ARC
   5
F1
 100
AcDbEntity
   8
LEVEL001
 370
25
   6
CONTINUOUS
  62
3
 100
AcDbCircle
  10
 750.33720830986
  20
 297.19214532166
  30
0.0
  40
 1.2000000476837
 100
AcDbArc
  50
0.0
  51
 90.000580568998
   0
LINE
   5
F2
 100
AcDbEntity
   8
LEVEL001
 370
25
 100
AcDbLine
   6
CONTINUOUS
  62
3
  10
 750.33719615045
  20
 298.39214536928
  30
0.0
  11
 734.73722056451
  21
 298.39214536928
  31
0.0
   0
ARC
   5
F3
 100
AcDbEntity
   8
LEVEL001
 370
25
   6
CONTINUOUS
  62
3
 100
AcDbCircle
  10
 734.73720840510
  20
 297.19214532166
  30
0.0
  40
 1.2000000476837
 100
AcDbArc
  50
 89.999419431002
  51
 180.00058056900
   0
LINE
   5
F4
 100
AcDbEntity
   8
LEVEL001
 370
25
 100
AcDbLine
   6
CONTINUOUS
  62
3
  10
 733.53720835748
  20
 297.19213316225
  30
0.0
  11
 733.53720835748
  21
 286.39214536928
  31
0.0
   0
LINE
   5
F5
 100
AcDbEntity
   8
LEVEL001
 370
25
 100
AcDbLine
   6
CONTINUOUS
  62
3
  10
 751.53720835748
  20
 286.39214536928
  30
0.0
  11
 751.53720835748
  21
 297.19213316225
  31
0.0
   0
LWPOLYLINE
   5
F6
 100
AcDbEntity
   8
LEVEL001
 370
25
   6
CONTINUOUS
  62
3
 100
AcDbPolyline
  90
4
  70
0
  10
 753.28720835748
  20
 283.39214536928
  10
 753.28720835748
  20
 286.39214536928
  10
 731.78720835748
  20
 286.39214536928
  10
 731.78720835748
  20
 283.39214536928
   0
LINE
   5
F7
 100
AcDbEntity
   8
LEVEL001
 370
25
 100
AcDbLine
   6
CONTINUOUS
  62
3
  10
 740.80515269342
  20
 286.39214536928
  30
0.0
  11
 742.53720835748
  21
 283.39214536928
  31
0.0
   0
LINE
   5
F8
 100
AcDbEntity
   8
LEVEL001
 370
25
 100
AcDbLine
   6
CONTINUOUS
  62
3
  10
 742.53720835748
  20
 286.39214536928
  30
0.0
  11
 744.26926402154
  21
 283.39214536928
  31
0.0
   0
LINE
   5
F9
 100
AcDbEntity
   8
LEVEL001
 370
25
 100
AcDbLine
   6
DASHDOT
  62
3
  10
 742.53720835748
  20
 305.01295581749
  30
0.0
  11
 742.53720835748
  21
 255.56534866164
  31
0.0
   0
ENDBLK
   5
FA
 100
AcDbEntity
   8
0
 100
AcDbBlockEnd
   0
BLOCK
   5
FB
 100
AcDbEntity
   8
0
 100
AcDbBlockBegin
   2
BLOCK006
  70
64
  10
0.0
  20
0.0
  30
0.0
   3
BLOCK006
   0
ARC
   5
FC
 100
AcDbEntity
   8
LEVEL001
 370
25
   6
CONTINUOUS
  62
3
 100
AcDbCircle
  10
 1152.4014067519
  20
 297.19214532166
  30
0.0
  40
 1.2000000476837
 100
AcDbArc
  50
0.0
  51
 90.000580568998
   0
LINE
   5
FD
 100
AcDbEntity
   8
LEVEL001
 370
25
 100
AcDbLine
   6
CONTINUOUS
  62
3
  10
 1152.4013945925
  20
 298.39214536928
  30
0.0
  11
 1136.8014190066
  21
 298.39214536928
  31
0.0
   0
ARC
   5
FE
 100
AcDbEntity
   8
LEVEL001
 370
25
   6
CONTINUOUS
  62
3
 100
AcDbCircle
  10
 1136.8014068472
  20
 297.19214532166
  30
0.0
  40
 1.2000000476837
 100
AcDbArc
  50
 89.999419431002
  51
 180.00058056900
   0
LINE
   5
FF
 100
AcDbEntity
   8
LEVEL001
 370
25
 100
AcDbLine
   6
CONTINUOUS
  62
3
  10
 1135.6014067995
  20
 297.19213316225
  30
0.0
  11
 1135.6014067995
  21
 286.39214536928
  31
0.0
   0
LINE
   5
100
 100
AcDbEntity
   8
LEVEL001
 370
25
 100
AcDbLine
   6
CONTINUOUS
  62
3
  10
 1153.6014067995
  20
 286.39214536928
  30
0.0
  11
 1153.6014067995
  21
 297.19213316225
  31
0.0
   0
LWPOLYLINE
   5
101
 100
AcDbEntity
   8
LEVEL001
 370
25
   6
CONTINUOUS
  62
3
 100
AcDbPolyline
  90
4
  70
0
  10
 1155.3514067995
  20
 283.39214536928
  10
 1155.3514067995
  20
 286.39214536928
  10
 1133.8514067995
  20
 286.39214536928
  10
 1133.8514067995
  20
 283.39214536928
   0
LINE
   5
102
 100
AcDbEntity
   8
LEVEL001
 370
25
 100
AcDbLine
   6
CONTINUOUS
  62
3
  10
 1142.8693511355
  20
 286.39214536928
  30
0.0
  11
 1144.6014067995
  21
 283.39214536928
  31
0.0
   0
LINE
   5
103
 100
AcDbEntity
   8
LEVEL001
 370
25
 100
AcDbLine
   6
CONTINUOUS
  62
3
  10
 1144.6014067995
  20
 286.39214536928
  30
0.0
  11
 1146.3334624636
  21
 283.39214536928
  31
0.0
   0
LINE
   5
104
 100
AcDbEntity
   8
LEVEL001
 370
25
 100
AcDbLine
   6
DASHDOT
  62
3
  10
 1144.6014067995
  20
 305.01295581749
  30
0.0
  11
 1144.6014067995
  21
 255.56534866164
  31
0.0
   0
ENDBLK
   5
105
 100
AcDbEntity
   8
0
 100
AcDbBlockEnd
   0
BLOCK
   5
106
 100
AcDbEntity
   8
0
 100
AcDbBlockBegin
   2
BLOCK007
  70
64
  10
0.0
  20
0.0
  30
0.0
   3
BLOCK007
   0
ARC
   5
107
 100
AcDbEntity
   8
LEVEL001
 370
25
   6
CONTINUOUS
  62
3
 100
AcDbCircle
  10
 1202.4014067519
  20
 297.19214532166
  30
0.0
  40
 1.2000000476837
 100
AcDbArc
  50
0.0
  51
 90.000580568998
   0
LINE
   5
108
 100
AcDbEntity
   8
LEVEL001
 370
25
 100
AcDbLine
   6
CONTINUOUS
  62
3
  10
 1202.4013945925
  20
 298.39214536928
  30
0.0
  11
 1186.8014190066
  21
 298.39214536928
  31
0.0
   0
ARC
   5
109
 100
AcDbEntity
   8
LEVEL001
 370
25
   6
CONTINUOUS
  62
3
 100
AcDbCircle
  10
 1186.8014068472
  20
 297.19214532166
  30
0.0
  40
 1.2000000476837
 100
AcDbArc
  50
 89.999419431002
  51
 180.00058056900
   0
LINE
   5
10A
 100
AcDbEntity
   8
LEVEL001
 370
25
 100
AcDbLine
   6
CONTINUOUS
  62
3
  10
 1185.6014067995
  20
 297.19213316225
  30
0.0
  11
 1185.6014067995
  21
 286.39214536928
  31
0.0
   0
LINE
   5
10B
 100
AcDbEntity
   8
LEVEL001
 370
25
 100
AcDbLine
   6
CONTINUOUS
  62
3
  10
 1203.6014067995
  20
 286.39214536928
  30
0.0
  11
 1203.6014067995
  21
 297.19213316225
  31
0.0
   0
LWPOLYLINE
   5
10C
 100
AcDbEntity
   8
LEVEL001
 370
25
   6
CONTINUOUS
  62
3
 100
AcDbPolyline
  90
4
  70
0
  10
 1205.3514067995
  20
 283.39214536928
  10
 1205.3514067995
  20
 286.39214536928
  10
 1183.8514067995
  20
 286.39214536928
  10
 1183.8514067995
  20
 283.39214536928
   0
LINE
   5
10D
 100
AcDbEntity
   8
LEVEL001
 370
25
 100
AcDbLine
   6
CONTINUOUS
  62
3
  10
 1192.8693511355
  20
 286.39214536928
  30
0.0
  11
 1194.6014067995
  21
 283.39214536928
  31
0.0
   0
LINE
   5
10E
 100
AcDbEntity
   8
LEVEL001
 370
25
 100
AcDbLine
   6
CONTINUOUS
  62
3
  10
 1194.6014067995
  20
 286.39214536928
  30
0.0
  11
 1196.3334624636
  21
 283.39214536928
  31
0.0
   0
LINE
   5
10F
 100
AcDbEntity
   8
LEVEL001
 370
25
 100
AcDbLine
   6
DASHDOT
  62
3
  10
 1194.6014067995
  20
 305.01295581749
  30
0.0
  11
 1194.6014067995
  21
 255.56534866164
  31
0.0
   0
ENDBLK
   5
110
 100
AcDbEntity
   8
0
 100
AcDbBlockEnd
   0
BLOCK
   5
111
 100
AcDbEntity
   8
0
 100
AcDbBlockBegin
   2
BLOCK008
  70
64
  10
0.0
  20
0.0
  30
0.0
   3
BLOCK008
   0
LWPOLYLINE
   5
112
 100
AcDbEntity
   8
LEVEL001
 370
40
   6
CONTINUOUS
  62
7
 100
AcDbPolyline
  90
4
  70
1
  10
 190.53720835748
  20
 296.39214536928
  10
 630.53720835748
  20
 296.39214536928
  10
 630.53720835748
  20
 366.39214536928
  10
 190.53720835748
  20
 366.39214536928
   0
LINE
   5
113
 100
AcDbEntity
   8
LEVEL001
 370
25
 100
AcDbLine
   6
DASHDOT
  62
3
  10
 590.53720835748
  20
 303.61221846339
  30
0.0
  11
 590.53720835748
  21
 264.10645856256
  31
0.0
   0
LWPOLYLINE
   5
114
 100
AcDbEntity
   8
LEVEL001
 370
40
   6
CONTINUOUS
  62
7
 100
AcDbPolyline
  90
4
  70
0
  10
 565.53720835748
  20
 296.39214536928
  10
 565.53720835748
  20
 271.39214536928
  10
 615.53720835748
  20
 271.39214536928
  10
 615.53720835748
  20
 296.39214536928
   0
LINE
   5
115
 100
AcDbEntity
   8
LEVEL001
 370
25
 100
AcDbLine
   6
DASHDOT
  62
3
  10
 230.53720835748
  20
 303.61221846339
  30
0.0
  11
 230.53720835748
  21
 264.10645856256
  31
0.0
   0
LWPOLYLINE
   5
116
 100
AcDbEntity
   8
LEVEL001
 370
40
   6
CONTINUOUS
  62
7
 100
AcDbPolyline
  90
4
  70
0
  10
 255.53720835748
  20
 296.39214536928
  10
 255.53720835748
  20
 271.39214536928
  10
 205.53720835748
  20
 271.39214536928
  10
 205.53720835748
  20
 296.39214536928
   0
LWPOLYLINE
   5
117
 100
AcDbEntity
   8
LEVEL001
 370
40
   6
CONTINUOUS
  62
7
 100
AcDbPolyline
  90
4
  70
0
  10
 230.53720835748
  20
 366.39214536928
  10
 230.53720835748
  20
 548.39214536928
  10
 590.53720835748
  20
 548.39214536928
  10
 590.53720835748
  20
 366.39214536928
   0
LWPOLYLINE
   5
118
 100
AcDbEntity
   8
LEVEL001
 370
40
   6
CONTINUOUS
  62
7
 100
AcDbPolyline
  90
4
  70
0
  10
 261.53720835748
  20
 548.39214536928
  10
 261.53720835748
  20
 554.39214536928
  10
 559.53720835748
  20
 554.39214536928
  10
 559.53720835748
  20
 548.39214536928
   0
ENDBLK
   5
119
 100
AcDbEntity
   8
0
 100
AcDbBlockEnd
   0
BLOCK
   5
11A
 100
AcDbEntity
   8
0
 100
AcDbBlockBegin
   2
BLOCK009
  70
64
  10
0.0
  20
0.0
  30
0.0
   3
BLOCK009
   0
LINE
   5
11B
 100
AcDbEntity
   8
LEVEL001
 370
40
 100
AcDbLine
   6
CONTINUOUS
  62
7
  10
 319.81350157121
  20
 685.39214536928
  30
0.0
  11
 319.81350157121
  21
 610.62488678595
  31
0.0
   0
LWPOLYLINE
   5
11C
 100
AcDbEntity
   8
LEVEL001
 370
40
   6
CONTINUOUS
  62
7
 100
AcDbPolyline
  90
6
  70
0
  10
 185.53720835748
  20
 582.89214536928
  10
 185.53720835748
  20
 560.39214536928
  10
 635.53720835748
  20
 560.39214536928
  10
 635.53720835748
  20
 730.39214536928
  10
 185.53720835748
  20
 730.39214536928
  10
 185.53720835748
  20
 685.39214536928
   0
LINE
   5
11D
 100
AcDbEntity
   8
LEVEL001
 370
25
 100
AcDbLine
   6
DASHDOT
  62
3
  10
 410.53720835748
  20
 757.75624459881
  30
0.0
  11
 410.53720835748
  21
 685.39214536928
  31
0.0
   0
LINE
   5
11E
 100
AcDbEntity
   8
LEVEL001
 370
40
 100
AcDbLine
   6
CONTINUOUS
  62
7
  10
 410.53720835748
  20
 637.89214536928
  30
0.0
  11
 410.53720835748
  21
 582.89214536928
  31
0.0
   0
LINE
   5
11F
 100
AcDbEntity
   8
LEVEL001
 370
40
 100
AcDbLine
   6
CONTINUOUS
  62
7
  10
 410.53720835748
  20
 685.39214536928
  30
0.0
  11
 410.53720835748
  21
 660.39214536928
  31
0.0
   0
LWPOLYLINE
   5
120
 100
AcDbEntity
   8
LEVEL001
 370
40
   6
CONTINUOUS
  62
7
 100
AcDbPolyline
  90
3
  70
0
  10
 410.53720835748
  20
 685.39214536928
  10
 386.59017436890
  20
 685.39214536928
  10
 386.59017436890
  20
 660.39214536928
   0
LWPOLYLINE
   5
121
 100
AcDbEntity
   8
LEVEL001
 370
40
   6
CONTINUOUS
  62
7
 100
AcDbPolyline
  90
10
  70
0
  10
 386.59017436890
  20
 637.89214536928
  10
 386.59017436890
  20
 632.52670129773
  10
 354.60814964728
  20
 632.52670129773
  10
 354.60814964728
  20
 685.39214536928
  10
 82.037208357479
  20
 685.39214536928
  10
 82.037208357479
  20
 610.62488678595
  10
 185.53720835766
  20
 582.89214536928
  10
 410.53720835748
  20
 582.89214536928
  10
 319.81350157121
  20
 610.62488678595
  10
 82.037208357479
  20
 610.62488678595
   0
LWPOLYLINE
   5
122
 100
AcDbEntity
   8
LEVEL001
 370
40
   6
CONTINUOUS
  62
7
 100
AcDbPolyline
  90
4
  70
0
  10
 261.53720835748
  20
 560.39214536928
  10
 261.53720835748
  20
 554.39214536928
  10
 559.53720835748
  20
 554.39214536928
  10
 559.53720835748
  20
 560.39214536928
   0
LWPOLYLINE
   5
123
 100
AcDbEntity
   8
LEVEL001
 370
40
   6
CONTINUOUS
  62
7
 100
AcDbPolyline
  90
4
  70
0
  10
 354.60814964728
  20
 660.39214536928
  10
 494.53720835748
  20
 660.39214536928
  10
 494.53720835748
  20
 637.89214536928
  10
 354.60814964728
  20
 637.89214536928
   0
ENDBLK
   5
124
 100
AcDbEntity
   8
0
 100
AcDbBlockEnd
   0
BLOCK
   5
125
 100
AcDbEntity
   8
0
 100
AcDbBlockBegin
   2
BLOCK010
  70
64
  10
0.0
  20
0.0
  30
0.0
   3
BLOCK010
   0
LINE
   5
126
 100
AcDbEntity
   8
LEVEL001
 370
40
 100
AcDbLine
   6
CONTINUOUS
  62
7
  10
 1139.6014067995
  20
 517.89214536928
  30
0.0
  11
 1199.6014067995
  21
 517.89214536928
  31
0.0
   0
LWPOLYLINE
   5
127
 100
AcDbEntity
   8
LEVEL001
 370
25
   6
CONTINUOUS
  62
3
 100
AcDbPolyline
  90
4
  70
1
  10
 1181.6014067995
  20
 485.89214536928
  10
 1197.6014067995
  20
 485.89214536928
  10
 1197.6014067995
  20
 487.49214536928
  10
 1181.6014067995
  20
 487.49214536928
   0
LWPOLYLINE
   5
128
 100
AcDbEntity
   8
LEVEL001
 370
25
   6
CONTINUOUS
  62
3
 100
AcDbPolyline
  90
4
  70
0
  10
 1181.6014067995
  20
 501.89214536928
  10
 1181.6014067995
  20
 500.29214536928
  10
 1197.6014067995
  20
 500.29214536928
  10
 1197.6014067995
  20
 501.89214536928
   0
LINE
   5
129
 100
AcDbEntity
   8
LEVEL001
 370
25
 100
AcDbLine
   6
CONTINUOUS
  62
3
  10
 1183.1014067995
  20
 498.79214536928
  30
0.0
  11
 1183.1014067995
  21
 488.99214536928
  31
0.0
   0
LINE
   5
12A
 100
AcDbEntity
   8
LEVEL001
 370
25
 100
AcDbLine
   6
CONTINUOUS
  62
3
  10
 1196.1014067995
  20
 498.79214536928
  30
0.0
  11
 1196.1014067995
  21
 488.99214536928
  31
0.0
   0
ARC
   5
12B
 100
AcDbEntity
   8
LEVEL001
 370
25
   6
CONTINUOUS
  62
3
 100
AcDbCircle
  10
 1197.6014067995
  20
 498.79214536928
  30
0.0
  40
 1.5000000000000
 100
AcDbArc
  50
 90.000000000000
  51
 180.00000000000
   0
ARC
   5
12C
 100
AcDbEntity
   8
LEVEL001
 370
25
   6
CONTINUOUS
  62
3
 100
AcDbCircle
  10
 1181.6014067995
  20
 498.79214536928
  30
0.0
  40
 1.5000000000000
 100
AcDbArc
  50
0.0
  51
 90.000000000000
   0
ARC
   5
12D
 100
AcDbEntity
   8
LEVEL001
 370
25
   6
CONTINUOUS
  62
3
 100
AcDbCircle
  10
 1181.6014067995
  20
 488.99214536928
  30
0.0
  40
 1.5000000000000
 100
AcDbArc
  50
 270.00000000000
  51
0.0
   0
ARC
   5
12E
 100
AcDbEntity
   8
LEVEL001
 370
25
   6
CONTINUOUS
  62
3
 100
AcDbCircle
  10
 1197.6014067995
  20
 488.99214536928
  30
0.0
  40
 1.5000000000000
 100
AcDbArc
  50
 180.00000000000
  51
 270.00000000000
   0
LINE
   5
12F
 100
AcDbEntity
   8
LEVEL001
 370
25
 100
AcDbLine
   6
DASHDOT
  62
3
  10
 1189.6014067995
  20
 508.91560815246
  30
0.0
  11
 1189.6014067995
  21
 461.39801106508
  31
0.0
   0
LINE
   5
130
 100
AcDbEntity
   8
LEVEL001
 370
25
 100
AcDbLine
   6
CONTINUOUS
  62
3
  10
 1192.6014067995
  20
 468.49213621401
  30
0.0
  11
 1186.6014067995
  21
 468.49213621401
  31
0.0
   0
LINE
   5
131
 100
AcDbEntity
   8
LEVEL001
 370
25
 100
AcDbLine
   6
CONTINUOUS
  62
3
  10
 1186.6014067995
  20
 483.89214536928
  30
0.0
  11
 1192.6014067995
  21
 483.89214536928
  31
0.0
   0
LWPOLYLINE
   5
132
 100
AcDbEntity
   8
LEVEL001
 370
25
   6
CONTINUOUS
  62
3
 100
AcDbPolyline
  90
4
  70
0
  10
 1195.7014067995
  20
 476.89214536928
  10
 1195.7014067995
  20
 475.39214536928
  10
 1183.5014067995
  20
 475.39214536928
  10
 1183.5014067995
  20
 476.89214536928
   0
LINE
   5
133
 100
AcDbEntity
   8
LEVEL001
 370
25
 100
AcDbLine
   6
CONTINUOUS
  62
3
  10
 1190.4674322033
  20
 475.39214536928
  30
0.0
  11
 1189.6014067995
  21
 476.89214536928
  31
0.0
   0
LINE
   5
134
 100
AcDbEntity
   8
LEVEL001
 370
25
 100
AcDbLine
   6
CONTINUOUS
  62
3
  10
 1189.6014067995
  20
 475.39214536928
  30
0.0
  11
 1188.7353813958
  21
 476.89214536928
  31
0.0
   0
LINE
   5
135
 100
AcDbEntity
   8
LEVEL001
 370
25
 100
AcDbLine
   6
CONTINUOUS
  62
3
  10
 1185.2712797807
  20
 470.39214536928
  30
0.0
  11
 1193.9315338186
  21
 470.39214536928
  31
0.0
   0
LINE
   5
136
 100
AcDbEntity
   8
LEVEL001
 370
25
 100
AcDbLine
   6
CONTINUOUS
  62
3
  10
 1192.4881581456
  20
 471.06834363279
  30
0.0
  11
 1192.4881581456
  21
 475.39214536928
  31
0.0
   0
LINE
   5
137
 100
AcDbEntity
   8
LEVEL001
 370
25
 100
AcDbLine
   6
CONTINUOUS
  62
3
  10
 1186.7146554537
  20
 471.06834363279
  30
0.0
  11
 1186.7146554537
  21
 475.39214536928
  31
0.0
   0
LINE
   5
138
 100
AcDbEntity
   8
LEVEL001
 370
25
 100
AcDbLine
   6
CONTINUOUS
  62
3
  10
 1195.3749094915
  20
 471.06834363279
  30
0.0
  11
 1195.3749094915
  21
 475.39214536928
  31
0.0
   0
LINE
   5
139
 100
AcDbEntity
   8
LEVEL001
 370
25
 100
AcDbLine
   6
CONTINUOUS
  62
3
  10
 1183.8279041078
  20
 475.39214536928
  30
0.0
  11
 1183.8279041078
  21
 471.06834363279
  31
0.0
   0
ARC
   5
13A
 100
AcDbEntity
   8
LEVEL001
 370
25
   6
CONTINUOUS
  62
3
 100
AcDbCircle
  10
 1193.9315338186
  20
 472.27071971793
  30
0.0
  40
 1.8785743486438
 100
AcDbArc
  50
 219.79533255711
  51
 320.20466744289
   0
ARC
   5
13B
 100
AcDbEntity
   8
LEVEL001
 370
25
   6
CONTINUOUS
  62
3
 100
AcDbCircle
  10
 1189.6014067995
  20
 476.89214536928
  30
0.0
  40
 6.5000000000000
 100
AcDbArc
  50
 243.63323154779
  51
 296.36676845411
   0
ARC
   5
13C
 100
AcDbEntity
   8
LEVEL001
 370
25
   6
CONTINUOUS
  62
3
 100
AcDbCircle
  10
 1185.2712797807
  20
 472.27071971793
  30
0.0
  40
 1.8785743486438
 100
AcDbArc
  50
 219.79533255711
  51
 320.20466744289
   0
LINE
   5
13D
 100
AcDbEntity
   8
LEVEL001
 370
25
 100
AcDbLine
   6
CONTINUOUS
  62
3
  10
 1187.2014052737
  20
 483.89214536928
  30
0.0
  11
 1187.2014052737
  21
 476.89214536928
  31
0.0
   0
LINE
   5
13E
 100
AcDbEntity
   8
LEVEL001
 370
25
 100
AcDbLine
   6
CONTINUOUS
  62
3
  10
 1187.2014052737
  20
 470.39214536928
  30
0.0
  11
 1187.2014052737
  21
 467.89214536928
  31
0.0
   0
LINE
   5
13F
 100
AcDbEntity
   8
LEVEL001
 370
25
 100
AcDbLine
   6
CONTINUOUS
  62
3
  10
 1186.6014067995
  20
 485.89214536928
  30
0.0
  11
 1186.6014067995
  21
 476.89214536928
  31
0.0
   0
LINE
   5
140
 100
AcDbEntity
   8
LEVEL001
 370
25
 100
AcDbLine
   6
CONTINUOUS
  62
3
  10
 1192.0014083254
  20
 467.89214536928
  30
0.0
  11
 1192.0014083254
  21
 470.39214536928
  31
0.0
   0
LINE
   5
141
 100
AcDbEntity
   8
LEVEL001
 370
25
 100
AcDbLine
   6
CONTINUOUS
  62
3
  10
 1192.0014083254
  20
 476.89214536928
  30
0.0
  11
 1192.0014083254
  21
 483.89214536928
  31
0.0
   0
LWPOLYLINE
   5
142
 100
AcDbEntity
   8
LEVEL001
 370
25
   6
CONTINUOUS
  62
3
 100
AcDbPolyline
  90
6
  70
0
  10
 1186.6014067995
  20
 470.39214536928
  10
 1186.6014067995
  20
 468.49213621401
  10
 1187.2014052737
  20
 467.89214536928
  10
 1192.0014083254
  20
 467.89214536928
  10
 1192.6014067995
  20
 468.49213621401
  10
 1192.6014067995
  20
 470.39214536928
   0
LINE
   5
143
 100
AcDbEntity
   8
LEVEL001
 370
25
 100
AcDbLine
   6
CONTINUOUS
  62
3
  10
 1192.6014067995
  20
 476.89214536928
  30
0.0
  11
 1192.6014067995
  21
 485.89214536928
  31
0.0
   0
LWPOLYLINE
   5
144
 100
AcDbEntity
   8
LEVEL001
 370
25
   6
CONTINUOUS
  62
3
 100
AcDbPolyline
  90
4
  70
1
  10
 1141.6014067995
  20
 485.89214536928
  10
 1157.6014067995
  20
 485.89214536928
  10
 1157.6014067995
  20
 487.49214536928
  10
 1141.6014067995
  20
 487.49214536928
   0
LWPOLYLINE
   5
145
 100
AcDbEntity
   8
LEVEL001
 370
25
   6
CONTINUOUS
  62
3
 100
AcDbPolyline
  90
4
  70
0
  10
 1141.6014067995
  20
 501.89214536928
  10
 1141.6014067995
  20
 500.29214536928
  10
 1157.6014067995
  20
 500.29214536928
  10
 1157.6014067995
  20
 501.89214536928
   0
LINE
   5
146
 100
AcDbEntity
   8
LEVEL001
 370
25
 100
AcDbLine
   6
CONTINUOUS
  62
3
  10
 1143.1014067995
  20
 498.79214536928
  30
0.0
  11
 1143.1014067995
  21
 488.99214536928
  31
0.0
   0
LINE
   5
147
 100
AcDbEntity
   8
LEVEL001
 370
25
 100
AcDbLine
   6
CONTINUOUS
  62
3
  10
 1156.1014067995
  20
 498.79214536928
  30
0.0
  11
 1156.1014067995
  21
 488.99214536928
  31
0.0
   0
ARC
   5
148
 100
AcDbEntity
   8
LEVEL001
 370
25
   6
CONTINUOUS
  62
3
 100
AcDbCircle
  10
 1157.6014067995
  20
 498.79214536928
  30
0.0
  40
 1.5000000000000
 100
AcDbArc
  50
 90.000000000000
  51
 180.00000000000
   0
ARC
   5
149
 100
AcDbEntity
   8
LEVEL001
 370
25
   6
CONTINUOUS
  62
3
 100
AcDbCircle
  10
 1141.6014067995
  20
 498.79214536928
  30
0.0
  40
 1.5000000000000
 100
AcDbArc
  50
0.0
  51
 90.000000000000
   0
ARC
   5
14A
 100
AcDbEntity
   8
LEVEL001
 370
25
   6
CONTINUOUS
  62
3
 100
AcDbCircle
  10
 1141.6014067995
  20
 488.99214536928
  30
0.0
  40
 1.5000000000000
 100
AcDbArc
  50
 270.00000000000
  51
0.0
   0
ARC
   5
14B
 100
AcDbEntity
   8
LEVEL001
 370
25
   6
CONTINUOUS
  62
3
 100
AcDbCircle
  10
 1157.6014067995
  20
 488.99214536928
  30
0.0
  40
 1.5000000000000
 100
AcDbArc
  50
 180.00000000000
  51
 270.00000000000
   0
LINE
   5
14C
 100
AcDbEntity
   8
LEVEL001
 370
25
 100
AcDbLine
   6
DASHDOT
  62
3
  10
 1149.6014067995
  20
 508.91560815246
  30
0.0
  11
 1149.6014067995
  21
 461.39801106508
  31
0.0
   0
LINE
   5
14D
 100
AcDbEntity
   8
LEVEL001
 370
25
 100
AcDbLine
   6
CONTINUOUS
  62
3
  10
 1152.6014067995
  20
 468.49213621401
  30
0.0
  11
 1146.6014067995
  21
 468.49213621401
  31
0.0
   0
LINE
   5
14E
 100
AcDbEntity
   8
LEVEL001
 370
25
 100
AcDbLine
   6
CONTINUOUS
  62
3
  10
 1146.6014067995
  20
 483.89214536928
  30
0.0
  11
 1152.6014067995
  21
 483.89214536928
  31
0.0
   0
LWPOLYLINE
   5
14F
 100
AcDbEntity
   8
LEVEL001
 370
25
   6
CONTINUOUS
  62
3
 100
AcDbPolyline
  90
4
  70
0
  10
 1155.7014067995
  20
 476.89214536928
  10
 1155.7014067995
  20
 475.39214536928
  10
 1143.5014067995
  20
 475.39214536928
  10
 1143.5014067995
  20
 476.89214536928
   0
LINE
   5
150
 100
AcDbEntity
   8
LEVEL001
 370
25
 100
AcDbLine
   6
CONTINUOUS
  62
3
  10
 1150.4674322033
  20
 475.39214536928
  30
0.0
  11
 1149.6014067995
  21
 476.89214536928
  31
0.0
   0
LINE
   5
151
 100
AcDbEntity
   8
LEVEL001
 370
25
 100
AcDbLine
   6
CONTINUOUS
  62
3
  10
 1149.6014067995
  20
 475.39214536928
  30
0.0
  11
 1148.7353813958
  21
 476.89214536928
  31
0.0
   0
LINE
   5
152
 100
AcDbEntity
   8
LEVEL001
 370
25
 100
AcDbLine
   6
CONTINUOUS
  62
3
  10
 1145.2712797807
  20
 470.39214536928
  30
0.0
  11
 1153.9315338186
  21
 470.39214536928
  31
0.0
   0
LINE
   5
153
 100
AcDbEntity
   8
LEVEL001
 370
25
 100
AcDbLine
   6
CONTINUOUS
  62
3
  10
 1152.4881581456
  20
 471.06834363279
  30
0.0
  11
 1152.4881581456
  21
 475.39214536928
  31
0.0
   0
LINE
   5
154
 100
AcDbEntity
   8
LEVEL001
 370
25
 100
AcDbLine
   6
CONTINUOUS
  62
3
  10
 1146.7146554537
  20
 471.06834363279
  30
0.0
  11
 1146.7146554537
  21
 475.39214536928
  31
0.0
   0
LINE
   5
155
 100
AcDbEntity
   8
LEVEL001
 370
25
 100
AcDbLine
   6
CONTINUOUS
  62
3
  10
 1155.3749094915
  20
 471.06834363279
  30
0.0
  11
 1155.3749094915
  21
 475.39214536928
  31
0.0
   0
LINE
   5
156
 100
AcDbEntity
   8
LEVEL001
 370
25
 100
AcDbLine
   6
CONTINUOUS
  62
3
  10
 1143.8279041078
  20
 475.39214536928
  30
0.0
  11
 1143.8279041078
  21
 471.06834363279
  31
0.0
   0
ARC
   5
157
 100
AcDbEntity
   8
LEVEL001
 370
25
   6
CONTINUOUS
  62
3
 100
AcDbCircle
  10
 1153.9315338186
  20
 472.27071971793
  30
0.0
  40
 1.8785743486438
 100
AcDbArc
  50
 219.79533255711
  51
 320.20466744289
   0
ARC
   5
158
 100
AcDbEntity
   8
LEVEL001
 370
25
   6
CONTINUOUS
  62
3
 100
AcDbCircle
  10
 1149.6014067995
  20
 476.89214536928
  30
0.0
  40
 6.5000000000000
 100
AcDbArc
  50
 243.63323154779
  51
 296.36676845411
   0
ARC
   5
159
 100
AcDbEntity
   8
LEVEL001
 370
25
   6
CONTINUOUS
  62
3
 100
AcDbCircle
  10
 1145.2712797807
  20
 472.27071971793
  30
0.0
  40
 1.8785743486438
 100
AcDbArc
  50
 219.79533255711
  51
 320.20466744289
   0
LINE
   5
15A
 100
AcDbEntity
   8
LEVEL001
 370
25
 100
AcDbLine
   6
CONTINUOUS
  62
3
  10
 1147.2014052737
  20
 483.89214536928
  30
0.0
  11
 1147.2014052737
  21
 476.89214536928
  31
0.0
   0
LINE
   5
15B
 100
AcDbEntity
   8
LEVEL001
 370
25
 100
AcDbLine
   6
CONTINUOUS
  62
3
  10
 1147.2014052737
  20
 470.39214536928
  30
0.0
  11
 1147.2014052737
  21
 467.89214536928
  31
0.0
   0
LINE
   5
15C
 100
AcDbEntity
   8
LEVEL001
 370
25
 100
AcDbLine
   6
CONTINUOUS
  62
3
  10
 1146.6014067995
  20
 485.89214536928
  30
0.0
  11
 1146.6014067995
  21
 476.89214536928
  31
0.0
   0
LINE
   5
15D
 100
AcDbEntity
   8
LEVEL001
 370
25
 100
AcDbLine
   6
CONTINUOUS
  62
3
  10
 1152.0014083254
  20
 467.89214536928
  30
0.0
  11
 1152.0014083254
  21
 470.39214536928
  31
0.0
   0
LINE
   5
15E
 100
AcDbEntity
   8
LEVEL001
 370
25
 100
AcDbLine
   6
CONTINUOUS
  62
3
  10
 1152.0014083254
  20
 476.89214536928
  30
0.0
  11
 1152.0014083254
  21
 483.89214536928
  31
0.0
   0
LWPOLYLINE
   5
15F
 100
AcDbEntity
   8
LEVEL001
 370
25
   6
CONTINUOUS
  62
3
 100
AcDbPolyline
  90
6
  70
0
  10
 1146.6014067995
  20
 470.39214536928
  10
 1146.6014067995
  20
 468.49213621401
  10
 1147.2014052737
  20
 467.89214536928
  10
 1152.0014083254
  20
 467.89214536928
  10
 1152.6014067995
  20
 468.49213621401
  10
 1152.6014067995
  20
 470.39214536928
   0
LINE
   5
160
 100
AcDbEntity
   8
LEVEL001
 370
25
 100
AcDbLine
   6
CONTINUOUS
  62
3
  10
 1152.6014067995
  20
 476.89214536928
  30
0.0
  11
 1152.6014067995
  21
 485.89214536928
  31
0.0
   0
LWPOLYLINE
   5
161
 100
AcDbEntity
   8
LEVEL001
 370
40
   6
CONTINUOUS
  62
7
 100
AcDbPolyline
  90
8
  70
1
  10
 1136.1014067995
  20
 583.89214536928
  10
 1136.1014067995
  20
 621.89214536928
  10
 1203.1014067995
  20
 621.89214536928
  10
 1203.1014067995
  20
 583.89214536928
  10
 1199.6014067995
  20
 583.89214536928
  10
 1199.6014067995
  20
 618.39214536928
  10
 1139.6014067995
  20
 618.39214536928
  10
 1139.6014067995
  20
 583.89214536928
   0
LWPOLYLINE
   5
162
 100
AcDbEntity
   8
LEVEL001
 370
40
   6
CONTINUOUS
  62
7
 100
AcDbPolyline
  90
4
  70
1
  10
 1136.1014067995
  20
 501.89214536928
  10
 1139.6014067995
  20
 501.89214536928
  10
 1139.6014067995
  20
 577.89214536928
  10
 1136.1014067995
  20
 577.89214536928
   0
LWPOLYLINE
   5
163
 100
AcDbEntity
   8
LEVEL001
 370
40
   6
CONTINUOUS
  62
7
 100
AcDbPolyline
  90
4
  70
1
  10
 1199.6014067995
  20
 501.89214536928
  10
 1203.1014067995
  20
 501.89214536928
  10
 1203.1014067995
  20
 577.89214536928
  10
 1199.6014067995
  20
 577.89214536928
   0
LINE
   5
164
 100
AcDbEntity
   8
LEVEL001
 370
40
 100
AcDbLine
   6
CONTINUOUS
  62
7
  10
 1139.6014067995
  20
 501.89214536928
  30
0.0
  11
 1199.6014067995
  21
 501.89214536928
  31
0.0
   0
LINE
   5
165
 100
AcDbEntity
   8
LEVEL001
 370
40
 100
AcDbLine
   6
CONTINUOUS
  62
7
  10
 1139.6014067995
  20
 602.89214536928
  30
0.0
  11
 1199.6014067995
  21
 602.89214536928
  31
0.0
   0
LINE
   5
166
 100
AcDbEntity
   8
LEVEL001
 370
40
 100
AcDbLine
   6
CONTINUOUS
  62
7
  10
 1139.6014067995
  20
 583.89214536928
  30
0.0
  11
 1144.6014067995
  21
 583.89214536928
  31
0.0
   0
LINE
   5
167
 100
AcDbEntity
   8
LEVEL001
 370
40
 100
AcDbLine
   6
CONTINUOUS
  62
7
  10
 1194.6014067995
  20
 583.89214536928
  30
0.0
  11
 1199.6014067995
  21
 583.89214536928
  31
0.0
   0
LINE
   5
168
 100
AcDbEntity
   8
LEVEL001
 370
40
 100
AcDbLine
   6
CONTINUOUS
  62
7
  10
 1139.6014067995
  20
 577.89214536928
  30
0.0
  11
 1144.6014067995
  21
 577.89214536928
  31
0.0
   0
LINE
   5
169
 100
AcDbEntity
   8
LEVEL001
 370
40
 100
AcDbLine
   6
CONTINUOUS
  62
7
  10
 1194.6014067995
  20
 577.89214536928
  30
0.0
  11
 1199.6014067995
  21
 577.89214536928
  31
0.0
   0
LWPOLYLINE
   5
16A
 100
AcDbEntity
   8
LEVEL001
 370
40
   6
CONTINUOUS
  62
7
 100
AcDbPolyline
  90
4
  70
0
  10
 1194.6014067995
  20
 533.89214536928
  10
 1194.6014067995
  20
 599.89214536928
  10
 1144.6014067995
  20
 599.89214536928
  10
 1144.6014067995
  20
 533.89214536928
   0
LINE
   5
16B
 100
AcDbEntity
   8
LEVEL001
 370
40
 100
AcDbLine
   6
CONTINUOUS
  62
7
  10
 1139.6014067995
  20
 533.89214536928
  30
0.0
  11
 1199.6014067995
  21
 533.89214536928
  31
0.0
   0
LINE
   5
16C
 100
AcDbEntity
   8
LEVEL001
 370
40
 100
AcDbLine
   6
CONTINUOUS
  62
7
  10
 1139.6014067995
  20
 549.89214536928
  30
0.0
  11
 1144.6014067995
  21
 549.89214536928
  31
0.0
   0
LINE
   5
16D
 100
AcDbEntity
   8
LEVEL001
 370
40
 100
AcDbLine
   6
CONTINUOUS
  62
7
  10
 1194.6014067995
  20
 549.89214536928
  30
0.0
  11
 1199.6014067995
  21
 549.89214536928
  31
0.0
   0
ENDBLK
   5
16E
 100
AcDbEntity
   8
0
 100
AcDbBlockEnd
   0
BLOCK
   5
16F
 100
AcDbEntity
   8
0
 100
AcDbBlockBegin
   2
BLOCK011
  70
64
  10
0.0
  20
0.0
  30
0.0
   3
BLOCK011
   0
LWPOLYLINE
   5
170
 100
AcDbEntity
   8
LEVEL001
 370
40
   6
CONTINUOUS
  62
7
 100
AcDbPolyline
  90
4
  70
1
  10
 580.53720835748
  20
 583.89214536928
  10
 810.53720835748
  20
 583.89214536928
  10
 810.53720835748
  20
 621.89214536928
  10
 580.53720835748
  20
 621.89214536928
   0
LWPOLYLINE
   5
171
 100
AcDbEntity
   8
LEVEL001
 370
40
   6
CONTINUOUS
  62
7
 100
AcDbPolyline
  90
4
  70
1
  10
 462.53720835748
  20
 517.89214536928
  10
 562.53720835748
  20
 517.89214536928
  10
 562.53720835748
  20
 577.89214536928
  10
 462.53720835748
  20
 577.89214536928
   0
LWPOLYLINE
   5
172
 100
AcDbEntity
   8
LEVEL001
 370
25
   6
CONTINUOUS
  62
3
 100
AcDbPolyline
  90
4
  70
1
  10
 588.53720835748
  20
 485.89214536928
  10
 604.53720835748
  20
 485.89214536928
  10
 604.53720835748
  20
 487.49214536928
  10
 588.53720835748
  20
 487.49214536928
   0
LWPOLYLINE
   5
173
 100
AcDbEntity
   8
LEVEL001
 370
25
   6
CONTINUOUS
  62
3
 100
AcDbPolyline
  90
4
  70
0
  10
 588.53720835748
  20
 501.89214536928
  10
 588.53720835748
  20
 500.29214536928
  10
 604.53720835748
  20
 500.29214536928
  10
 604.53720835748
  20
 501.89214536928
   0
LINE
   5
174
 100
AcDbEntity
   8
LEVEL001
 370
25
 100
AcDbLine
   6
CONTINUOUS
  62
3
  10
 590.03720835748
  20
 498.79214536928
  30
0.0
  11
 590.03720835748
  21
 488.99214536928
  31
0.0
   0
LINE
   5
175
 100
AcDbEntity
   8
LEVEL001
 370
25
 100
AcDbLine
   6
CONTINUOUS
  62
3
  10
 603.03720835748
  20
 498.79214536928
  30
0.0
  11
 603.03720835748
  21
 488.99214536928
  31
0.0
   0
ARC
   5
176
 100
AcDbEntity
   8
LEVEL001
 370
25
   6
CONTINUOUS
  62
3
 100
AcDbCircle
  10
 604.53720835748
  20
 498.79214536928
  30
0.0
  40
 1.5000000000000
 100
AcDbArc
  50
 90.000000000000
  51
 180.00000000000
   0
ARC
   5
177
 100
AcDbEntity
   8
LEVEL001
 370
25
   6
CONTINUOUS
  62
3
 100
AcDbCircle
  10
 588.53720835748
  20
 498.79214536928
  30
0.0
  40
 1.5000000000000
 100
AcDbArc
  50
0.0
  51
 90.000000000000
   0
ARC
   5
178
 100
AcDbEntity
   8
LEVEL001
 370
25
   6
CONTINUOUS
  62
3
 100
AcDbCircle
  10
 588.53720835748
  20
 488.99214536928
  30
0.0
  40
 1.5000000000000
 100
AcDbArc
  50
 270.00000000000
  51
0.0
   0
ARC
   5
179
 100
AcDbEntity
   8
LEVEL001
 370
25
   6
CONTINUOUS
  62
3
 100
AcDbCircle
  10
 604.53720835748
  20
 488.99214536928
  30
0.0
  40
 1.5000000000000
 100
AcDbArc
  50
 180.00000000000
  51
 270.00000000000
   0
LINE
   5
17A
 100
AcDbEntity
   8
LEVEL001
 370
25
 100
AcDbLine
   6
CONTINUOUS
  62
3
  10
 599.53720835748
  20
 468.49213621401
  30
0.0
  11
 593.53720835748
  21
 468.49213621401
  31
0.0
   0
LINE
   5
17B
 100
AcDbEntity
   8
LEVEL001
 370
25
 100
AcDbLine
   6
CONTINUOUS
  62
3
  10
 593.53720835748
  20
 483.89214536928
  30
0.0
  11
 599.53720835748
  21
 483.89214536928
  31
0.0
   0
LWPOLYLINE
   5
17C
 100
AcDbEntity
   8
LEVEL001
 370
25
   6
CONTINUOUS
  62
3
 100
AcDbPolyline
  90
4
  70
0
  10
 602.63720835748
  20
 476.89214536928
  10
 602.63720835748
  20
 475.39214536928
  10
 590.43720835748
  20
 475.39214536928
  10
 590.43720835748
  20
 476.89214536928
   0
LINE
   5
17D
 100
AcDbEntity
   8
LEVEL001
 370
25
 100
AcDbLine
   6
CONTINUOUS
  62
3
  10
 597.40323376127
  20
 475.39214536928
  30
0.0
  11
 596.53720835748
  21
 476.89214536928
  31
0.0
   0
LINE
   5
17E
 100
AcDbEntity
   8
LEVEL001
 370
25
 100
AcDbLine
   6
CONTINUOUS
  62
3
  10
 596.53720835748
  20
 475.39214536928
  30
0.0
  11
 595.67118295376
  21
 476.89214536928
  31
0.0
   0
LINE
   5
17F
 100
AcDbEntity
   8
LEVEL001
 370
25
 100
AcDbLine
   6
CONTINUOUS
  62
3
  10
 592.20708133870
  20
 470.39214536928
  30
0.0
  11
 600.86733537650
  21
 470.39214536928
  31
0.0
   0
LINE
   5
180
 100
AcDbEntity
   8
LEVEL001
 370
25
 100
AcDbLine
   6
CONTINUOUS
  62
3
  10
 599.42395970355
  20
 471.06834363279
  30
0.0
  11
 599.42395970355
  21
 475.39214536928
  31
0.0
   0
LINE
   5
181
 100
AcDbEntity
   8
LEVEL001
 370
25
 100
AcDbLine
   6
CONTINUOUS
  62
3
  10
 593.65045701165
  20
 471.06834363279
  30
0.0
  11
 593.65045701165
  21
 475.39214536928
  31
0.0
   0
LINE
   5
182
 100
AcDbEntity
   8
LEVEL001
 370
25
 100
AcDbLine
   6
CONTINUOUS
  62
3
  10
 602.31071104946
  20
 471.06834363279
  30
0.0
  11
 602.31071104946
  21
 475.39214536928
  31
0.0
   0
LINE
   5
183
 100
AcDbEntity
   8
LEVEL001
 370
25
 100
AcDbLine
   6
CONTINUOUS
  62
3
  10
 590.76370566574
  20
 475.39214536928
  30
0.0
  11
 590.76370566574
  21
 471.06834363279
  31
0.0
   0
ARC
   5
184
 100
AcDbEntity
   8
LEVEL001
 370
25
   6
CONTINUOUS
  62
3
 100
AcDbCircle
  10
 600.86733537650
  20
 472.27071971793
  30
0.0
  40
 1.8785743486438
 100
AcDbArc
  50
 219.79533255711
  51
 320.20466744289
   0
ARC
   5
185
 100
AcDbEntity
   8
LEVEL001
 370
25
   6
CONTINUOUS
  62
3
 100
AcDbCircle
  10
 596.53720835748
  20
 476.89214536928
  30
0.0
  40
 6.5000000000000
 100
AcDbArc
  50
 243.63323154779
  51
 296.36676845411
   0
ARC
   5
186
 100
AcDbEntity
   8
LEVEL001
 370
25
   6
CONTINUOUS
  62
3
 100
AcDbCircle
  10
 592.20708133870
  20
 472.27071971793
  30
0.0
  40
 1.8785743486438
 100
AcDbArc
  50
 219.79533255711
  51
 320.20466744289
   0
LINE
   5
187
 100
AcDbEntity
   8
LEVEL001
 370
25
 100
AcDbLine
   6
CONTINUOUS
  62
3
  10
 594.13720683160
  20
 483.89214536928
  30
0.0
  11
 594.13720683160
  21
 476.89214536928
  31
0.0
   0
LINE
   5
188
 100
AcDbEntity
   8
LEVEL001
 370
25
 100
AcDbLine
   6
CONTINUOUS
  62
3
  10
 594.13720683160
  20
 470.39214536928
  30
0.0
  11
 594.13720683160
  21
 467.89214536928
  31
0.0
   0
LINE
   5
189
 100
AcDbEntity
   8
LEVEL001
 370
25
 100
AcDbLine
   6
CONTINUOUS
  62
3
  10
 593.53720835748
  20
 485.89214536928
  30
0.0
  11
 593.53720835748
  21
 476.89214536928
  31
0.0
   0
LINE
   5
18A
 100
AcDbEntity
   8
LEVEL001
 370
25
 100
AcDbLine
   6
CONTINUOUS
  62
3
  10
 598.93720988336
  20
 467.89214536928
  30
0.0
  11
 598.93720988336
  21
 470.39214536928
  31
0.0
   0
LINE
   5
18B
 100
AcDbEntity
   8
LEVEL001
 370
25
 100
AcDbLine
   6
CONTINUOUS
  62
3
  10
 598.93720988336
  20
 476.89214536928
  30
0.0
  11
 598.93720988336
  21
 483.89214536928
  31
0.0
   0
LWPOLYLINE
   5
18C
 100
AcDbEntity
   8
LEVEL001
 370
25
   6
CONTINUOUS
  62
3
 100
AcDbPolyline
  90
6
  70
0
  10
 593.53720835748
  20
 470.39214536928
  10
 593.53720835748
  20
 468.49213621401
  10
 594.13720683160
  20
 467.89214536928
  10
 598.93720988336
  20
 467.89214536928
  10
 599.53720835748
  20
 468.49213621401
  10
 599.53720835748
  20
 470.39214536928
   0
LINE
   5
18D
 100
AcDbEntity
   8
LEVEL001
 370
25
 100
AcDbLine
   6
CONTINUOUS
  62
3
  10
 599.53720835748
  20
 476.89214536928
  30
0.0
  11
 599.53720835748
  21
 485.89214536928
  31
0.0
   0
LWPOLYLINE
   5
18E
 100
AcDbEntity
   8
LEVEL001
 370
25
   6
CONTINUOUS
  62
3
 100
AcDbPolyline
  90
4
  70
1
  10
 768.53720835748
  20
 485.89214536928
  10
 784.53720835748
  20
 485.89214536928
  10
 784.53720835748
  20
 487.49214536928
  10
 768.53720835748
  20
 487.49214536928
   0
LWPOLYLINE
   5
18F
 100
AcDbEntity
   8
LEVEL001
 370
25
   6
CONTINUOUS
  62
3
 100
AcDbPolyline
  90
4
  70
0
  10
 768.53720835748
  20
 501.89214536928
  10
 768.53720835748
  20
 500.29214536928
  10
 784.53720835748
  20
 500.29214536928
  10
 784.53720835748
  20
 501.89214536928
   0
LINE
   5
190
 100
AcDbEntity
   8
LEVEL001
 370
25
 100
AcDbLine
   6
CONTINUOUS
  62
3
  10
 770.03720835748
  20
 498.79214536928
  30
0.0
  11
 770.03720835748
  21
 488.99214536928
  31
0.0
   0
LINE
   5
191
 100
AcDbEntity
   8
LEVEL001
 370
25
 100
AcDbLine
   6
CONTINUOUS
  62
3
  10
 783.03720835748
  20
 498.79214536928
  30
0.0
  11
 783.03720835748
  21
 488.99214536928
  31
0.0
   0
ARC
   5
192
 100
AcDbEntity
   8
LEVEL001
 370
25
   6
CONTINUOUS
  62
3
 100
AcDbCircle
  10
 784.53720835748
  20
 498.79214536928
  30
0.0
  40
 1.5000000000000
 100
AcDbArc
  50
 90.000000000000
  51
 180.00000000000
   0
ARC
   5
193
 100
AcDbEntity
   8
LEVEL001
 370
25
   6
CONTINUOUS
  62
3
 100
AcDbCircle
  10
 768.53720835748
  20
 498.79214536928
  30
0.0
  40
 1.5000000000000
 100
AcDbArc
  50
0.0
  51
 90.000000000000
   0
ARC
   5
194
 100
AcDbEntity
   8
LEVEL001
 370
25
   6
CONTINUOUS
  62
3
 100
AcDbCircle
  10
 768.53720835748
  20
 488.99214536928
  30
0.0
  40
 1.5000000000000
 100
AcDbArc
  50
 270.00000000000
  51
0.0
   0
ARC
   5
195
 100
AcDbEntity
   8
LEVEL001
 370
25
   6
CONTINUOUS
  62
3
 100
AcDbCircle
  10
 784.53720835748
  20
 488.99214536928
  30
0.0
  40
 1.5000000000000
 100
AcDbArc
  50
 180.00000000000
  51
 270.00000000000
   0
LINE
   5
196
 100
AcDbEntity
   8
LEVEL001
 370
25
 100
AcDbLine
   6
DASHDOT
  62
3
  10
 596.53720835748
  20
 508.91560815246
  30
0.0
  11
 596.53720835748
  21
 461.39801106508
  31
0.0
   0
LINE
   5
197
 100
AcDbEntity
   8
LEVEL001
 370
25
 100
AcDbLine
   6
DASHDOT
  62
3
  10
 776.53720835748
  20
 508.91560815246
  30
0.0
  11
 776.53720835748
  21
 461.39801106508
  31
0.0
   0
LINE
   5
198
 100
AcDbEntity
   8
LEVEL001
 370
25
 100
AcDbLine
   6
CONTINUOUS
  62
3
  10
 779.53720835748
  20
 468.49213621401
  30
0.0
  11
 773.53720835748
  21
 468.49213621401
  31
0.0
   0
LINE
   5
199
 100
AcDbEntity
   8
LEVEL001
 370
25
 100
AcDbLine
   6
CONTINUOUS
  62
3
  10
 773.53720835748
  20
 483.89214536928
  30
0.0
  11
 779.53720835748
  21
 483.89214536928
  31
0.0
   0
LWPOLYLINE
   5
19A
 100
AcDbEntity
   8
LEVEL001
 370
25
   6
CONTINUOUS
  62
3
 100
AcDbPolyline
  90
4
  70
0
  10
 782.63720835748
  20
 476.89214536928
  10
 782.63720835748
  20
 475.39214536928
  10
 770.43720835748
  20
 475.39214536928
  10
 770.43720835748
  20
 476.89214536928
   0
LINE
   5
19B
 100
AcDbEntity
   8
LEVEL001
 370
25
 100
AcDbLine
   6
CONTINUOUS
  62
3
  10
 777.40323376127
  20
 475.39214536928
  30
0.0
  11
 776.53720835748
  21
 476.89214536928
  31
0.0
   0
LINE
   5
19C
 100
AcDbEntity
   8
LEVEL001
 370
25
 100
AcDbLine
   6
CONTINUOUS
  62
3
  10
 776.53720835748
  20
 475.39214536928
  30
0.0
  11
 775.67118295376
  21
 476.89214536928
  31
0.0
   0
LINE
   5
19D
 100
AcDbEntity
   8
LEVEL001
 370
25
 100
AcDbLine
   6
CONTINUOUS
  62
3
  10
 772.20708133870
  20
 470.39214536928
  30
0.0
  11
 780.86733537650
  21
 470.39214536928
  31
0.0
   0
LINE
   5
19E
 100
AcDbEntity
   8
LEVEL001
 370
25
 100
AcDbLine
   6
CONTINUOUS
  62
3
  10
 779.42395970355
  20
 471.06834363279
  30
0.0
  11
 779.42395970355
  21
 475.39214536928
  31
0.0
   0
LINE
   5
19F
 100
AcDbEntity
   8
LEVEL001
 370
25
 100
AcDbLine
   6
CONTINUOUS
  62
3
  10
 773.65045701165
  20
 471.06834363279
  30
0.0
  11
 773.65045701165
  21
 475.39214536928
  31
0.0
   0
LINE
   5
1A0
 100
AcDbEntity
   8
LEVEL001
 370
25
 100
AcDbLine
   6
CONTINUOUS
  62
3
  10
 782.31071104946
  20
 471.06834363279
  30
0.0
  11
 782.31071104946
  21
 475.39214536928
  31
0.0
   0
LINE
   5
1A1
 100
AcDbEntity
   8
LEVEL001
 370
25
 100
AcDbLine
   6
CONTINUOUS
  62
3
  10
 770.76370566574
  20
 475.39214536928
  30
0.0
  11
 770.76370566574
  21
 471.06834363279
  31
0.0
   0
ARC
   5
1A2
 100
AcDbEntity
   8
LEVEL001
 370
25
   6
CONTINUOUS
  62
3
 100
AcDbCircle
  10
 780.86733537650
  20
 472.27071971793
  30
0.0
  40
 1.8785743486438
 100
AcDbArc
  50
 219.79533255711
  51
 320.20466744289
   0
ARC
   5
1A3
 100
AcDbEntity
   8
LEVEL001
 370
25
   6
CONTINUOUS
  62
3
 100
AcDbCircle
  10
 776.53720835748
  20
 476.89214536928
  30
0.0
  40
 6.5000000000000
 100
AcDbArc
  50
 243.63323154779
  51
 296.36676845411
   0
ARC
   5
1A4
 100
AcDbEntity
   8
LEVEL001
 370
25
   6
CONTINUOUS
  62
3
 100
AcDbCircle
  10
 772.20708133870
  20
 472.27071971793
  30
0.0
  40
 1.8785743486438
 100
AcDbArc
  50
 219.79533255711
  51
 320.20466744289
   0
LINE
   5
1A5
 100
AcDbEntity
   8
LEVEL001
 370
25
 100
AcDbLine
   6
CONTINUOUS
  62
3
  10
 774.13720683160
  20
 483.89214536928
  30
0.0
  11
 774.13720683160
  21
 476.89214536928
  31
0.0
   0
LINE
   5
1A6
 100
AcDbEntity
   8
LEVEL001
 370
25
 100
AcDbLine
   6
CONTINUOUS
  62
3
  10
 774.13720683160
  20
 470.39214536928
  30
0.0
  11
 774.13720683160
  21
 467.89214536928
  31
0.0
   0
LINE
   5
1A7
 100
AcDbEntity
   8
LEVEL001
 370
25
 100
AcDbLine
   6
CONTINUOUS
  62
3
  10
 773.53720835748
  20
 485.89214536928
  30
0.0
  11
 773.53720835748
  21
 476.89214536928
  31
0.0
   0
LINE
   5
1A8
 100
AcDbEntity
   8
LEVEL001
 370
25
 100
AcDbLine
   6
CONTINUOUS
  62
3
  10
 778.93720988336
  20
 467.89214536928
  30
0.0
  11
 778.93720988336
  21
 470.39214536928
  31
0.0
   0
LINE
   5
1A9
 100
AcDbEntity
   8
LEVEL001
 370
25
 100
AcDbLine
   6
CONTINUOUS
  62
3
  10
 778.93720988336
  20
 476.89214536928
  30
0.0
  11
 778.93720988336
  21
 483.89214536928
  31
0.0
   0
LWPOLYLINE
   5
1AA
 100
AcDbEntity
   8
LEVEL001
 370
25
   6
CONTINUOUS
  62
3
 100
AcDbPolyline
  90
6
  70
0
  10
 773.53720835748
  20
 470.39214536928
  10
 773.53720835748
  20
 468.49213621401
  10
 774.13720683160
  20
 467.89214536928
  10
 778.93720988336
  20
 467.89214536928
  10
 779.53720835748
  20
 468.49213621401
  10
 779.53720835748
  20
 470.39214536928
   0
LINE
   5
1AB
 100
AcDbEntity
   8
LEVEL001
 370
25
 100
AcDbLine
   6
CONTINUOUS
  62
3
  10
 779.53720835748
  20
 476.89214536928
  30
0.0
  11
 779.53720835748
  21
 485.89214536928
  31
0.0
   0
LWPOLYLINE
   5
1AC
 100
AcDbEntity
   8
LEVEL001
 370
40
   6
CONTINUOUS
  62
7
 100
AcDbPolyline
  90
8
  70
0
  10
 580.53720835748
  20
 517.89214536928
  10
 512.53720835748
  20
 517.89214536928
  10
 512.53720835748
  20
 501.89214536928
  10
 829.53720835748
  20
 501.89214536928
  10
 829.53720835748
  20
 521.89214536928
  10
 810.53720835748
  20
 577.89214536928
  10
 580.53720835748
  20
 577.89214536928
  10
 580.53720835748
  20
 501.89214536928
   0
LINE
   5
1AD
 100
AcDbEntity
   8
LEVEL001
 370
25
 100
AcDbLine
   6
DOT
  62
3
  10
 580.53720835748
  20
 618.39214536928
  30
0.0
  11
 810.53720835748
  21
 618.39214536928
  31
0.0
   0
ENDBLK
   5
1AE
 100
AcDbEntity
   8
0
 100
AcDbBlockEnd
   0
BLOCK
   5
1AF
 100
AcDbEntity
   8
0
 100
AcDbBlockBegin
   2
BLOCK012
  70
64
  10
0.0
  20
0.0
  30
0.0
   3
BLOCK012
   0
LINE
   5
1B0
 100
AcDbEntity
   8
LEVEL001
 370
25
 100
AcDbLine
   6
CONTINUOUS
  62
3
  10
 613.30997447076
  20
 425.39214536928
  30
0.0
  11
 629.76445750299
  21
 425.39214536928
  31
0.0
   0
LINE
   5
1B1
 100
AcDbEntity
   8
LEVEL001
 370
25
 100
AcDbLine
   6
CONTINUOUS
  62
3
  10
 616.05239085260
  20
 424.17843882947
  30
0.0
  11
 616.05239085260
  21
 415.39214536928
  31
0.0
   0
LINE
   5
1B2
 100
AcDbEntity
   8
LEVEL001
 370
25
 100
AcDbLine
   6
CONTINUOUS
  62
3
  10
 627.02204112115
  20
 424.17843882947
  30
0.0
  11
 627.02204112115
  21
 415.39214536928
  31
0.0
   0
LINE
   5
1B3
 100
AcDbEntity
   8
LEVEL001
 370
25
 100
AcDbLine
   6
CONTINUOUS
  62
3
  10
 610.56755808892
  20
 424.17843882947
  30
0.0
  11
 610.56755808892
  21
 415.39214536928
  31
0.0
   0
LINE
   5
1B4
 100
AcDbEntity
   8
LEVEL001
 370
25
 100
AcDbLine
   6
CONTINUOUS
  62
3
  10
 632.50687388482
  20
 415.39214536928
  30
0.0
  11
 632.50687388482
  21
 424.17843882947
  31
0.0
   0
ARC
   5
1B5
 100
AcDbEntity
   8
LEVEL001
 370
25
   6
CONTINUOUS
  62
3
 100
AcDbCircle
  10
 613.30997447076
  20
 421.68699470843
  30
0.0
  40
 3.7051506608504
 100
AcDbArc
  50
 42.254675558368
  51
 137.74532444163
   0
ARC
   5
1B6
 100
AcDbEntity
   8
LEVEL001
 370
25
   6
CONTINUOUS
  62
3
 100
AcDbCircle
  10
 621.53720835748
  20
 412.39214536928
  30
0.0
  40
 12.999997561209
 100
AcDbArc
  50
 65.044770980260
  51
 114.95517688450
   0
ARC
   5
1B7
 100
AcDbEntity
   8
LEVEL001
 370
25
   6
CONTINUOUS
  62
3
 100
AcDbCircle
  10
 629.76445750299
  20
 421.68699470843
  30
0.0
  40
 3.7051506608504
 100
AcDbArc
  50
 42.254675558367
  51
 137.74542871184
   0
LINE
   5
1B8
 100
AcDbEntity
   8
LEVEL001
 370
25
 100
AcDbLine
   6
CONTINUOUS
  62
3
  10
 632.28720835748
  20
 476.89214536928
  30
0.0
  11
 632.28720835748
  21
 473.89214536928
  31
0.0
   0
LINE
   5
1B9
 100
AcDbEntity
   8
LEVEL001
 370
25
 100
AcDbLine
   6
CONTINUOUS
  62
3
  10
 610.56755808892
  20
 473.89214536928
  30
0.0
  11
 632.50687388482
  21
 473.89214536928
  31
0.0
   0
LINE
   5
1BA
 100
AcDbEntity
   8
LEVEL001
 370
25
 100
AcDbLine
   6
CONTINUOUS
  62
3
  10
 610.78720835748
  20
 473.89214536928
  30
0.0
  11
 610.78720835748
  21
 476.89214536928
  31
0.0
   0
LINE
   5
1BB
 100
AcDbEntity
   8
LEVEL001
 370
25
 100
AcDbLine
   6
CONTINUOUS
  62
3
  10
 619.80515269342
  20
 473.89214536928
  30
0.0
  11
 621.53720835748
  21
 476.89214536928
  31
0.0
   0
LINE
   5
1BC
 100
AcDbEntity
   8
LEVEL001
 370
25
 100
AcDbLine
   6
CONTINUOUS
  62
3
  10
 621.53720835748
  20
 473.89214536928
  30
0.0
  11
 623.26926402154
  21
 476.89214536928
  31
0.0
   0
LINE
   5
1BD
 100
AcDbEntity
   8
LEVEL001
 370
25
 100
AcDbLine
   6
CONTINUOUS
  62
3
  10
 616.05239085260
  20
 465.10585190910
  30
0.0
  11
 616.05239085260
  21
 473.89214536928
  31
0.0
   0
LINE
   5
1BE
 100
AcDbEntity
   8
LEVEL001
 370
25
 100
AcDbLine
   6
CONTINUOUS
  62
3
  10
 627.02204112115
  20
 465.10585190910
  30
0.0
  11
 627.02204112115
  21
 473.89214536928
  31
0.0
   0
LINE
   5
1BF
 100
AcDbEntity
   8
LEVEL001
 370
25
 100
AcDbLine
   6
CONTINUOUS
  62
3
  10
 610.56755808892
  20
 465.10585190910
  30
0.0
  11
 610.56755808892
  21
 473.89214536928
  31
0.0
   0
LINE
   5
1C0
 100
AcDbEntity
   8
LEVEL001
 370
25
 100
AcDbLine
   6
CONTINUOUS
  62
3
  10
 632.50687388482
  20
 473.89214536928
  30
0.0
  11
 632.50687388482
  21
 465.10585190910
  31
0.0
   0
ARC
   5
1C1
 100
AcDbEntity
   8
LEVEL001
 370
25
   6
CONTINUOUS
  62
3
 100
AcDbCircle
  10
 629.76445750299
  20
 467.59729603014
  30
0.0
  40
 3.7051506608504
 100
AcDbArc
  50
 222.25457128816
  51
 317.74532444163
   0
ARC
   5
1C2
 100
AcDbEntity
   8
LEVEL001
 370
25
   6
CONTINUOUS
  62
3
 100
AcDbCircle
  10
 621.53720835748
  20
 476.89214536928
  30
0.0
  40
 12.999997561209
 100
AcDbArc
  50
 245.04482311550
  51
 294.95522901974
   0
ARC
   5
1C3
 100
AcDbEntity
   8
LEVEL001
 370
25
   6
CONTINUOUS
  62
3
 100
AcDbCircle
  10
 613.30997447076
  20
 467.59729603014
  30
0.0
  40
 3.7051506608504
 100
AcDbArc
  50
 222.25467555837
  51
 317.74532444163
   0
LINE
   5
1C4
 100
AcDbEntity
   8
LEVEL001
 370
25
 100
AcDbLine
   6
CONTINUOUS
  62
3
  10
 613.30997447076
  20
 463.89214536928
  30
0.0
  11
 629.76445750299
  21
 463.89214536928
  31
0.0
   0
LINE
   5
1C5
 100
AcDbEntity
   8
LEVEL001
 370
25
 100
AcDbLine
   6
CONTINUOUS
  62
3
  10
 615.53720835748
  20
 425.39214536928
  30
0.0
  11
 615.53720835748
  21
 463.89214536928
  31
0.0
   0
LINE
   5
1C6
 100
AcDbEntity
   8
LEVEL001
 370
25
 100
AcDbLine
   6
CONTINUOUS
  62
3
  10
 616.85721568170
  20
 463.89214536928
  30
0.0
  11
 616.85721568170
  21
 425.39214536928
  31
0.0
   0
LINE
   5
1C7
 100
AcDbEntity
   8
LEVEL001
 370
25
 100
AcDbLine
   6
CONTINUOUS
  62
3
  10
 626.21721629205
  20
 425.39214536928
  30
0.0
  11
 626.21721629205
  21
 463.89214536928
  31
0.0
   0
LINE
   5
1C8
 100
AcDbEntity
   8
LEVEL001
 370
25
 100
AcDbLine
   6
CONTINUOUS
  62
3
  10
 627.53720835748
  20
 463.89214536928
  30
0.0
  11
 627.53720835748
  21
 425.39214536928
  31
0.0
   0
LINE
   5
1C9
 100
AcDbEntity
   8
LEVEL001
 370
25
 100
AcDbLine
   6
DASHDOT
  62
3
  10
 621.53720835748
  20
 371.51589331452
  30
0.0
  11
 621.53720835748
  21
 483.48921848158
  31
0.0
   0
LINE
   5
1CA
 100
AcDbEntity
   8
LEVEL001
 370
25
 100
AcDbLine
   6
CONTINUOUS
  62
3
  10
 632.28720835748
  20
 403.39214536928
  30
0.0
  11
 632.28720835748
  21
 400.39214536928
  31
0.0
   0
LINE
   5
1CB
 100
AcDbEntity
   8
LEVEL001
 370
25
 100
AcDbLine
   6
CONTINUOUS
  62
3
  10
 610.56755808892
  20
 400.39214536928
  30
0.0
  11
 632.50687388482
  21
 400.39214536928
  31
0.0
   0
LINE
   5
1CC
 100
AcDbEntity
   8
LEVEL001
 370
25
 100
AcDbLine
   6
CONTINUOUS
  62
3
  10
 610.78720835748
  20
 400.39214536928
  30
0.0
  11
 610.78720835748
  21
 403.39214536928
  31
0.0
   0
LINE
   5
1CD
 100
AcDbEntity
   8
LEVEL001
 370
25
 100
AcDbLine
   6
CONTINUOUS
  62
3
  10
 619.80515269342
  20
 400.39214536928
  30
0.0
  11
 621.53720835748
  21
 403.39214536928
  31
0.0
   0
LINE
   5
1CE
 100
AcDbEntity
   8
LEVEL001
 370
25
 100
AcDbLine
   6
CONTINUOUS
  62
3
  10
 621.53720835748
  20
 400.39214536928
  30
0.0
  11
 623.26926402154
  21
 403.39214536928
  31
0.0
   0
LINE
   5
1CF
 100
AcDbEntity
   8
LEVEL001
 370
25
 100
AcDbLine
   6
CONTINUOUS
  62
3
  10
 613.30997447076
  20
 390.39214536928
  30
0.0
  11
 629.76445750299
  21
 390.39214536928
  31
0.0
   0
LINE
   5
1D0
 100
AcDbEntity
   8
LEVEL001
 370
25
 100
AcDbLine
   6
CONTINUOUS
  62
3
  10
 616.05239085260
  20
 391.60585190910
  30
0.0
  11
 616.05239085260
  21
 400.39214536928
  31
0.0
   0
LINE
   5
1D1
 100
AcDbEntity
   8
LEVEL001
 370
25
 100
AcDbLine
   6
CONTINUOUS
  62
3
  10
 627.02204112115
  20
 391.60585190910
  30
0.0
  11
 627.02204112115
  21
 400.39214536928
  31
0.0
   0
LINE
   5
1D2
 100
AcDbEntity
   8
LEVEL001
 370
25
 100
AcDbLine
   6
CONTINUOUS
  62
3
  10
 610.56755808892
  20
 391.60585190910
  30
0.0
  11
 610.56755808892
  21
 400.39214536928
  31
0.0
   0
LINE
   5
1D3
 100
AcDbEntity
   8
LEVEL001
 370
25
 100
AcDbLine
   6
CONTINUOUS
  62
3
  10
 632.50687388482
  20
 400.39214536928
  30
0.0
  11
 632.50687388482
  21
 391.60585190910
  31
0.0
   0
ARC
   5
1D4
 100
AcDbEntity
   8
LEVEL001
 370
25
   6
CONTINUOUS
  62
3
 100
AcDbCircle
  10
 613.30997447076
  20
 394.09729603014
  30
0.0
  40
 3.7051506608504
 100
AcDbArc
  50
 222.25467555837
  51
 317.74532444163
   0
ARC
   5
1D5
 100
AcDbEntity
   8
LEVEL001
 370
25
   6
CONTINUOUS
  62
3
 100
AcDbCircle
  10
 621.53720835748
  20
 403.39214536928
  30
0.0
  40
 12.999997561209
 100
AcDbArc
  50
 245.04482311550
  51
 294.95522901974
   0
ARC
   5
1D6
 100
AcDbEntity
   8
LEVEL001
 370
25
   6
CONTINUOUS
  62
3
 100
AcDbCircle
  10
 629.76445750299
  20
 394.09729603014
  30
0.0
  40
 3.7051506608504
 100
AcDbArc
  50
 222.25457128816
  51
 317.74532444163
   0
LINE
   5
1D7
 100
AcDbEntity
   8
LEVEL001
 370
25
 100
AcDbLine
   6
CONTINUOUS
  62
3
  10
 615.53720835748
  20
 379.71214506411
  30
0.0
  11
 627.53720835748
  21
 379.71214506411
  31
0.0
   0
LWPOLYLINE
   5
1D8
 100
AcDbEntity
   8
LEVEL001
 370
25
   6
CONTINUOUS
  62
3
 100
AcDbPolyline
  90
6
  70
0
  10
 615.53720835748
  20
 390.39214536928
  10
 615.53720835748
  20
 379.71214506411
  10
 616.85721568170
  20
 378.39214536928
  10
 626.21721629205
  20
 378.39214536928
  10
 627.53720835748
  20
 379.71214506411
  10
 627.53720835748
  20
 390.39214536928
   0
LINE
   5
1D9
 100
AcDbEntity
   8
LEVEL001
 370
25
 100
AcDbLine
   6
CONTINUOUS
  62
3
  10
 616.85721568170
  20
 378.39214536928
  30
0.0
  11
 616.85721568170
  21
 390.39214536928
  31
0.0
   0
LINE
   5
1DA
 100
AcDbEntity
   8
LEVEL001
 370
25
 100
AcDbLine
   6
CONTINUOUS
  62
3
  10
 626.21721629205
  20
 378.39214536928
  30
0.0
  11
 626.21721629205
  21
 390.39214536928
  31
0.0
   0
ENDBLK
   5
1DB
 100
AcDbEntity
   8
0
 100
AcDbBlockEnd
   0
BLOCK
   5
1DC
 100
AcDbEntity
   8
0
 100
AcDbBlockBegin
   2
BLOCK013
  70
64
  10
0.0
  20
0.0
  30
0.0
   3
BLOCK013
   0
LINE
   5
1DD
 100
AcDbEntity
   8
LEVEL001
 370
25
 100
AcDbLine
   6
CONTINUOUS
  62
3
  10
 743.30997447076
  20
 425.39214536928
  30
0.0
  11
 759.76445750299
  21
 425.39214536928
  31
0.0
   0
LINE
   5
1DE
 100
AcDbEntity
   8
LEVEL001
 370
25
 100
AcDbLine
   6
CONTINUOUS
  62
3
  10
 746.05239085260
  20
 424.17843882947
  30
0.0
  11
 746.05239085260
  21
 415.39214536928
  31
0.0
   0
LINE
   5
1DF
 100
AcDbEntity
   8
LEVEL001
 370
25
 100
AcDbLine
   6
CONTINUOUS
  62
3
  10
 757.02204112115
  20
 424.17843882947
  30
0.0
  11
 757.02204112115
  21
 415.39214536928
  31
0.0
   0
LINE
   5
1E0
 100
AcDbEntity
   8
LEVEL001
 370
25
 100
AcDbLine
   6
CONTINUOUS
  62
3
  10
 740.56755808892
  20
 424.17843882947
  30
0.0
  11
 740.56755808892
  21
 415.39214536928
  31
0.0
   0
LINE
   5
1E1
 100
AcDbEntity
   8
LEVEL001
 370
25
 100
AcDbLine
   6
CONTINUOUS
  62
3
  10
 762.50687388482
  20
 415.39214536928
  30
0.0
  11
 762.50687388482
  21
 424.17843882947
  31
0.0
   0
ARC
   5
1E2
 100
AcDbEntity
   8
LEVEL001
 370
25
   6
CONTINUOUS
  62
3
 100
AcDbCircle
  10
 743.30997447076
  20
 421.68699470843
  30
0.0
  40
 3.7051506608504
 100
AcDbArc
  50
 42.254675558368
  51
 137.74532444163
   0
ARC
   5
1E3
 100
AcDbEntity
   8
LEVEL001
 370
25
   6
CONTINUOUS
  62
3
 100
AcDbCircle
  10
 751.53720835748
  20
 412.39214536928
  30
0.0
  40
 12.999997561209
 100
AcDbArc
  50
 65.044770980260
  51
 114.95517688450
   0
ARC
   5
1E4
 100
AcDbEntity
   8
LEVEL001
 370
25
   6
CONTINUOUS
  62
3
 100
AcDbCircle
  10
 759.76445750299
  20
 421.68699470843
  30
0.0
  40
 3.7051506608504
 100
AcDbArc
  50
 42.254675558367
  51
 137.74542871184
   0
LINE
   5
1E5
 100
AcDbEntity
   8
LEVEL001
 370
25
 100
AcDbLine
   6
CONTINUOUS
  62
3
  10
 762.28720835748
  20
 476.89214536928
  30
0.0
  11
 762.28720835748
  21
 473.89214536928
  31
0.0
   0
LINE
   5
1E6
 100
AcDbEntity
   8
LEVEL001
 370
25
 100
AcDbLine
   6
CONTINUOUS
  62
3
  10
 740.56755808892
  20
 473.89214536928
  30
0.0
  11
 762.50687388482
  21
 473.89214536928
  31
0.0
   0
LINE
   5
1E7
 100
AcDbEntity
   8
LEVEL001
 370
25
 100
AcDbLine
   6
CONTINUOUS
  62
3
  10
 740.78720835748
  20
 473.89214536928
  30
0.0
  11
 740.78720835748
  21
 476.89214536928
  31
0.0
   0
LINE
   5
1E8
 100
AcDbEntity
   8
LEVEL001
 370
25
 100
AcDbLine
   6
CONTINUOUS
  62
3
  10
 749.80515269342
  20
 473.89214536928
  30
0.0
  11
 751.53720835748
  21
 476.89214536928
  31
0.0
   0
LINE
   5
1E9
 100
AcDbEntity
   8
LEVEL001
 370
25
 100
AcDbLine
   6
CONTINUOUS
  62
3
  10
 751.53720835748
  20
 473.89214536928
  30
0.0
  11
 753.26926402154
  21
 476.89214536928
  31
0.0
   0
LINE
   5
1EA
 100
AcDbEntity
   8
LEVEL001
 370
25
 100
AcDbLine
   6
CONTINUOUS
  62
3
  10
 746.05239085260
  20
 465.10585190910
  30
0.0
  11
 746.05239085260
  21
 473.89214536928
  31
0.0
   0
LINE
   5
1EB
 100
AcDbEntity
   8
LEVEL001
 370
25
 100
AcDbLine
   6
CONTINUOUS
  62
3
  10
 757.02204112115
  20
 465.10585190910
  30
0.0
  11
 757.02204112115
  21
 473.89214536928
  31
0.0
   0
LINE
   5
1EC
 100
AcDbEntity
   8
LEVEL001
 370
25
 100
AcDbLine
   6
CONTINUOUS
  62
3
  10
 740.56755808892
  20
 465.10585190910
  30
0.0
  11
 740.56755808892
  21
 473.89214536928
  31
0.0
   0
LINE
   5
1ED
 100
AcDbEntity
   8
LEVEL001
 370
25
 100
AcDbLine
   6
CONTINUOUS
  62
3
  10
 762.50687388482
  20
 473.89214536928
  30
0.0
  11
 762.50687388482
  21
 465.10585190910
  31
0.0
   0
ARC
   5
1EE
 100
AcDbEntity
   8
LEVEL001
 370
25
   6
CONTINUOUS
  62
3
 100
AcDbCircle
  10
 759.76445750299
  20
 467.59729603014
  30
0.0
  40
 3.7051506608504
 100
AcDbArc
  50
 222.25457128816
  51
 317.74532444163
   0
ARC
   5
1EF
 100
AcDbEntity
   8
LEVEL001
 370
25
   6
CONTINUOUS
  62
3
 100
AcDbCircle
  10
 751.53720835748
  20
 476.89214536928
  30
0.0
  40
 12.999997561209
 100
AcDbArc
  50
 245.04482311550
  51
 294.95522901974
   0
ARC
   5
1F0
 100
AcDbEntity
   8
LEVEL001
 370
25
   6
CONTINUOUS
  62
3
 100
AcDbCircle
  10
 743.30997447076
  20
 467.59729603014
  30
0.0
  40
 3.7051506608504
 100
AcDbArc
  50
 222.25467555837
  51
 317.74532444163
   0
LINE
   5
1F1
 100
AcDbEntity
   8
LEVEL001
 370
25
 100
AcDbLine
   6
CONTINUOUS
  62
3
  10
 743.30997447076
  20
 463.89214536928
  30
0.0
  11
 759.76445750299
  21
 463.89214536928
  31
0.0
   0
LINE
   5
1F2
 100
AcDbEntity
   8
LEVEL001
 370
25
 100
AcDbLine
   6
CONTINUOUS
  62
3
  10
 745.53720835748
  20
 425.39214536928
  30
0.0
  11
 745.53720835748
  21
 463.89214536928
  31
0.0
   0
LINE
   5
1F3
 100
AcDbEntity
   8
LEVEL001
 370
25
 100
AcDbLine
   6
CONTINUOUS
  62
3
  10
 746.85721568170
  20
 463.89214536928
  30
0.0
  11
 746.85721568170
  21
 425.39214536928
  31
0.0
   0
LINE
   5
1F4
 100
AcDbEntity
   8
LEVEL001
 370
25
 100
AcDbLine
   6
CONTINUOUS
  62
3
  10
 756.21721629205
  20
 425.39214536928
  30
0.0
  11
 756.21721629205
  21
 463.89214536928
  31
0.0
   0
LINE
   5
1F5
 100
AcDbEntity
   8
LEVEL001
 370
25
 100
AcDbLine
   6
CONTINUOUS
  62
3
  10
 757.53720835748
  20
 463.89214536928
  30
0.0
  11
 757.53720835748
  21
 425.39214536928
  31
0.0
   0
LINE
   5
1F6
 100
AcDbEntity
   8
LEVEL001
 370
25
 100
AcDbLine
   6
DASHDOT
  62
3
  10
 751.53720835748
  20
 371.51589331452
  30
0.0
  11
 751.53720835748
  21
 483.48921848158
  31
0.0
   0
LINE
   5
1F7
 100
AcDbEntity
   8
LEVEL001
 370
25
 100
AcDbLine
   6
CONTINUOUS
  62
3
  10
 762.28720835748
  20
 403.39214536928
  30
0.0
  11
 762.28720835748
  21
 400.39214536928
  31
0.0
   0
LINE
   5
1F8
 100
AcDbEntity
   8
LEVEL001
 370
25
 100
AcDbLine
   6
CONTINUOUS
  62
3
  10
 740.56755808892
  20
 400.39214536928
  30
0.0
  11
 762.50687388482
  21
 400.39214536928
  31
0.0
   0
LINE
   5
1F9
 100
AcDbEntity
   8
LEVEL001
 370
25
 100
AcDbLine
   6
CONTINUOUS
  62
3
  10
 740.78720835748
  20
 400.39214536928
  30
0.0
  11
 740.78720835748
  21
 403.39214536928
  31
0.0
   0
LINE
   5
1FA
 100
AcDbEntity
   8
LEVEL001
 370
25
 100
AcDbLine
   6
CONTINUOUS
  62
3
  10
 749.80515269342
  20
 400.39214536928
  30
0.0
  11
 751.53720835748
  21
 403.39214536928
  31
0.0
   0
LINE
   5
1FB
 100
AcDbEntity
   8
LEVEL001
 370
25
 100
AcDbLine
   6
CONTINUOUS
  62
3
  10
 751.53720835748
  20
 400.39214536928
  30
0.0
  11
 753.26926402154
  21
 403.39214536928
  31
0.0
   0
LINE
   5
1FC
 100
AcDbEntity
   8
LEVEL001
 370
25
 100
AcDbLine
   6
CONTINUOUS
  62
3
  10
 743.30997447076
  20
 390.39214536928
  30
0.0
  11
 759.76445750299
  21
 390.39214536928
  31
0.0
   0
LINE
   5
1FD
 100
AcDbEntity
   8
LEVEL001
 370
25
 100
AcDbLine
   6
CONTINUOUS
  62
3
  10
 746.05239085260
  20
 391.60585190910
  30
0.0
  11
 746.05239085260
  21
 400.39214536928
  31
0.0
   0
LINE
   5
1FE
 100
AcDbEntity
   8
LEVEL001
 370
25
 100
AcDbLine
   6
CONTINUOUS
  62
3
  10
 757.02204112115
  20
 391.60585190910
  30
0.0
  11
 757.02204112115
  21
 400.39214536928
  31
0.0
   0
LINE
   5
1FF
 100
AcDbEntity
   8
LEVEL001
 370
25
 100
AcDbLine
   6
CONTINUOUS
  62
3
  10
 740.56755808892
  20
 391.60585190910
  30
0.0
  11
 740.56755808892
  21
 400.39214536928
  31
0.0
   0
LINE
   5
200
 100
AcDbEntity
   8
LEVEL001
 370
25
 100
AcDbLine
   6
CONTINUOUS
  62
3
  10
 762.50687388482
  20
 400.39214536928
  30
0.0
  11
 762.50687388482
  21
 391.60585190910
  31
0.0
   0
ARC
   5
201
 100
AcDbEntity
   8
LEVEL001
 370
25
   6
CONTINUOUS
  62
3
 100
AcDbCircle
  10
 743.30997447076
  20
 394.09729603014
  30
0.0
  40
 3.7051506608504
 100
AcDbArc
  50
 222.25467555837
  51
 317.74532444163
   0
ARC
   5
202
 100
AcDbEntity
   8
LEVEL001
 370
25
   6
CONTINUOUS
  62
3
 100
AcDbCircle
  10
 751.53720835748
  20
 403.39214536928
  30
0.0
  40
 12.999997561209
 100
AcDbArc
  50
 245.04482311550
  51
 294.95522901974
   0
ARC
   5
203
 100
AcDbEntity
   8
LEVEL001
 370
25
   6
CONTINUOUS
  62
3
 100
AcDbCircle
  10
 759.76445750299
  20
 394.09729603014
  30
0.0
  40
 3.7051506608504
 100
AcDbArc
  50
 222.25457128816
  51
 317.74532444163
   0
LINE
   5
204
 100
AcDbEntity
   8
LEVEL001
 370
25
 100
AcDbLine
   6
CONTINUOUS
  62
3
  10
 745.53720835748
  20
 379.71214506411
  30
0.0
  11
 757.53720835748
  21
 379.71214506411
  31
0.0
   0
LWPOLYLINE
   5
205
 100
AcDbEntity
   8
LEVEL001
 370
25
   6
CONTINUOUS
  62
3
 100
AcDbPolyline
  90
6
  70
0
  10
 745.53720835748
  20
 390.39214536928
  10
 745.53720835748
  20
 379.71214506411
  10
 746.85721568170
  20
 378.39214536928
  10
 756.21721629205
  20
 378.39214536928
  10
 757.53720835748
  20
 379.71214506411
  10
 757.53720835748
  20
 390.39214536928
   0
LINE
   5
206
 100
AcDbEntity
   8
LEVEL001
 370
25
 100
AcDbLine
   6
CONTINUOUS
  62
3
  10
 746.85721568170
  20
 378.39214536928
  30
0.0
  11
 746.85721568170
  21
 390.39214536928
  31
0.0
   0
LINE
   5
207
 100
AcDbEntity
   8
LEVEL001
 370
25
 100
AcDbLine
   6
CONTINUOUS
  62
3
  10
 756.21721629205
  20
 378.39214536928
  30
0.0
  11
 756.21721629205
  21
 390.39214536928
  31
0.0
   0
ENDBLK
   5
208
 100
AcDbEntity
   8
0
 100
AcDbBlockEnd
   0
BLOCK
   5
209
 100
AcDbEntity
   8
0
 100
AcDbBlockBegin
   2
BLOCK014
  70
64
  10
0.0
  20
0.0
  30
0.0
   3
BLOCK014
   0
LINE
   5
20A
 100
AcDbEntity
   8
LEVEL001
 370
25
 100
AcDbLine
   6
CONTINUOUS
  62
3
  10
 1136.3741729128
  20
 425.39214536928
  30
0.0
  11
 1152.8286559450
  21
 425.39214536928
  31
0.0
   0
LINE
   5
20B
 100
AcDbEntity
   8
LEVEL001
 370
25
 100
AcDbLine
   6
CONTINUOUS
  62
3
  10
 1139.1165892946
  20
 424.17843882947
  30
0.0
  11
 1139.1165892946
  21
 415.39214536928
  31
0.0
   0
LINE
   5
20C
 100
AcDbEntity
   8
LEVEL001
 370
25
 100
AcDbLine
   6
CONTINUOUS
  62
3
  10
 1150.0862395632
  20
 424.17843882947
  30
0.0
  11
 1150.0862395632
  21
 415.39214536928
  31
0.0
   0
LINE
   5
20D
 100
AcDbEntity
   8
LEVEL001
 370
25
 100
AcDbLine
   6
CONTINUOUS
  62
3
  10
 1133.6317565310
  20
 424.17843882947
  30
0.0
  11
 1133.6317565310
  21
 415.39214536928
  31
0.0
   0
LINE
   5
20E
 100
AcDbEntity
   8
LEVEL001
 370
25
 100
AcDbLine
   6
CONTINUOUS
  62
3
  10
 1155.5710723269
  20
 415.39214536928
  30
0.0
  11
 1155.5710723269
  21
 424.17843882947
  31
0.0
   0
ARC
   5
20F
 100
AcDbEntity
   8
LEVEL001
 370
25
   6
CONTINUOUS
  62
3
 100
AcDbCircle
  10
 1136.3741729128
  20
 421.68699470843
  30
0.0
  40
 3.7051506608504
 100
AcDbArc
  50
 42.254675558368
  51
 137.74532444163
   0
ARC
   5
210
 100
AcDbEntity
   8
LEVEL001
 370
25
   6
CONTINUOUS
  62
3
 100
AcDbCircle
  10
 1144.6014067995
  20
 412.39214536928
  30
0.0
  40
 12.999997561209
 100
AcDbArc
  50
 65.044770980259
  51
 114.95517688450
   0
ARC
   5
211
 100
AcDbEntity
   8
LEVEL001
 370
25
   6
CONTINUOUS
  62
3
 100
AcDbCircle
  10
 1152.8286559450
  20
 421.68699470843
  30
0.0
  40
 3.7051506608504
 100
AcDbArc
  50
 42.254675558368
  51
 137.74542871183
   0
LINE
   5
212
 100
AcDbEntity
   8
LEVEL001
 370
25
 100
AcDbLine
   6
CONTINUOUS
  62
3
  10
 1155.3514067995
  20
 476.89214536928
  30
0.0
  11
 1155.3514067995
  21
 473.89214536928
  31
0.0
   0
LINE
   5
213
 100
AcDbEntity
   8
LEVEL001
 370
25
 100
AcDbLine
   6
CONTINUOUS
  62
3
  10
 1133.6317565310
  20
 473.89214536928
  30
0.0
  11
 1155.5710723269
  21
 473.89214536928
  31
0.0
   0
LINE
   5
214
 100
AcDbEntity
   8
LEVEL001
 370
25
 100
AcDbLine
   6
CONTINUOUS
  62
3
  10
 1133.8514067995
  20
 473.89214536928
  30
0.0
  11
 1133.8514067995
  21
 476.89214536928
  31
0.0
   0
LINE
   5
215
 100
AcDbEntity
   8
LEVEL001
 370
25
 100
AcDbLine
   6
CONTINUOUS
  62
3
  10
 1142.8693511355
  20
 473.89214536928
  30
0.0
  11
 1144.6014067995
  21
 476.89214536928
  31
0.0
   0
LINE
   5
216
 100
AcDbEntity
   8
LEVEL001
 370
25
 100
AcDbLine
   6
CONTINUOUS
  62
3
  10
 1144.6014067995
  20
 473.89214536928
  30
0.0
  11
 1146.3334624636
  21
 476.89214536928
  31
0.0
   0
LINE
   5
217
 100
AcDbEntity
   8
LEVEL001
 370
25
 100
AcDbLine
   6
CONTINUOUS
  62
3
  10
 1139.1165892946
  20
 465.10585190910
  30
0.0
  11
 1139.1165892946
  21
 473.89214536928
  31
0.0
   0
LINE
   5
218
 100
AcDbEntity
   8
LEVEL001
 370
25
 100
AcDbLine
   6
CONTINUOUS
  62
3
  10
 1150.0862395632
  20
 465.10585190910
  30
0.0
  11
 1150.0862395632
  21
 473.89214536928
  31
0.0
   0
LINE
   5
219
 100
AcDbEntity
   8
LEVEL001
 370
25
 100
AcDbLine
   6
CONTINUOUS
  62
3
  10
 1133.6317565310
  20
 465.10585190910
  30
0.0
  11
 1133.6317565310
  21
 473.89214536928
  31
0.0
   0
LINE
   5
21A
 100
AcDbEntity
   8
LEVEL001
 370
25
 100
AcDbLine
   6
CONTINUOUS
  62
3
  10
 1155.5710723269
  20
 473.89214536928
  30
0.0
  11
 1155.5710723269
  21
 465.10585190910
  31
0.0
   0
ARC
   5
21B
 100
AcDbEntity
   8
LEVEL001
 370
25
   6
CONTINUOUS
  62
3
 100
AcDbCircle
  10
 1152.8286559450
  20
 467.59729603014
  30
0.0
  40
 3.7051506608504
 100
AcDbArc
  50
 222.25457128817
  51
 317.74532444163
   0
ARC
   5
21C
 100
AcDbEntity
   8
LEVEL001
 370
25
   6
CONTINUOUS
  62
3
 100
AcDbCircle
  10
 1144.6014067995
  20
 476.89214536928
  30
0.0
  40
 12.999997561209
 100
AcDbArc
  50
 245.04482311550
  51
 294.95522901974
   0
ARC
   5
21D
 100
AcDbEntity
   8
LEVEL001
 370
25
   6
CONTINUOUS
  62
3
 100
AcDbCircle
  10
 1136.3741729128
  20
 467.59729603014
  30
0.0
  40
 3.7051506608504
 100
AcDbArc
  50
 222.25467555837
  51
 317.74532444163
   0
LINE
   5
21E
 100
AcDbEntity
   8
LEVEL001
 370
25
 100
AcDbLine
   6
CONTINUOUS
  62
3
  10
 1136.3741729128
  20
 463.89214536928
  30
0.0
  11
 1152.8286559450
  21
 463.89214536928
  31
0.0
   0
LINE
   5
21F
 100
AcDbEntity
   8
LEVEL001
 370
25
 100
AcDbLine
   6
CONTINUOUS
  62
3
  10
 1138.6014067995
  20
 425.39214536928
  30
0.0
  11
 1138.6014067995
  21
 463.89214536928
  31
0.0
   0
LINE
   5
220
 100
AcDbEntity
   8
LEVEL001
 370
25
 100
AcDbLine
   6
CONTINUOUS
  62
3
  10
 1139.9214141237
  20
 463.89214536928
  30
0.0
  11
 1139.9214141237
  21
 425.39214536928
  31
0.0
   0
LINE
   5
221
 100
AcDbEntity
   8
LEVEL001
 370
25
 100
AcDbLine
   6
CONTINUOUS
  62
3
  10
 1149.2814147341
  20
 425.39214536928
  30
0.0
  11
 1149.2814147341
  21
 463.89214536928
  31
0.0
   0
LINE
   5
222
 100
AcDbEntity
   8
LEVEL001
 370
25
 100
AcDbLine
   6
CONTINUOUS
  62
3
  10
 1150.6014067995
  20
 463.89214536928
  30
0.0
  11
 1150.6014067995
  21
 425.39214536928
  31
0.0
   0
LINE
   5
223
 100
AcDbEntity
   8
LEVEL001
 370
25
 100
AcDbLine
   6
DASHDOT
  62
3
  10
 1144.6014067995
  20
 371.51589331452
  30
0.0
  11
 1144.6014067995
  21
 483.48921848158
  31
0.0
   0
LINE
   5
224
 100
AcDbEntity
   8
LEVEL001
 370
25
 100
AcDbLine
   6
CONTINUOUS
  62
3
  10
 1155.3514067995
  20
 403.39214536928
  30
0.0
  11
 1155.3514067995
  21
 400.39214536928
  31
0.0
   0
LINE
   5
225
 100
AcDbEntity
   8
LEVEL001
 370
25
 100
AcDbLine
   6
CONTINUOUS
  62
3
  10
 1133.6317565310
  20
 400.39214536928
  30
0.0
  11
 1155.5710723269
  21
 400.39214536928
  31
0.0
   0
LINE
   5
226
 100
AcDbEntity
   8
LEVEL001
 370
25
 100
AcDbLine
   6
CONTINUOUS
  62
3
  10
 1133.8514067995
  20
 400.39214536928
  30
0.0
  11
 1133.8514067995
  21
 403.39214536928
  31
0.0
   0
LINE
   5
227
 100
AcDbEntity
   8
LEVEL001
 370
25
 100
AcDbLine
   6
CONTINUOUS
  62
3
  10
 1142.8693511355
  20
 400.39214536928
  30
0.0
  11
 1144.6014067995
  21
 403.39214536928
  31
0.0
   0
LINE
   5
228
 100
AcDbEntity
   8
LEVEL001
 370
25
 100
AcDbLine
   6
CONTINUOUS
  62
3
  10
 1144.6014067995
  20
 400.39214536928
  30
0.0
  11
 1146.3334624636
  21
 403.39214536928
  31
0.0
   0
LINE
   5
229
 100
AcDbEntity
   8
LEVEL001
 370
25
 100
AcDbLine
   6
CONTINUOUS
  62
3
  10
 1136.3741729128
  20
 390.39214536928
  30
0.0
  11
 1152.8286559450
  21
 390.39214536928
  31
0.0
   0
LINE
   5
22A
 100
AcDbEntity
   8
LEVEL001
 370
25
 100
AcDbLine
   6
CONTINUOUS
  62
3
  10
 1139.1165892946
  20
 391.60585190910
  30
0.0
  11
 1139.1165892946
  21
 400.39214536928
  31
0.0
   0
LINE
   5
22B
 100
AcDbEntity
   8
LEVEL001
 370
25
 100
AcDbLine
   6
CONTINUOUS
  62
3
  10
 1150.0862395632
  20
 391.60585190910
  30
0.0
  11
 1150.0862395632
  21
 400.39214536928
  31
0.0
   0
LINE
   5
22C
 100
AcDbEntity
   8
LEVEL001
 370
25
 100
AcDbLine
   6
CONTINUOUS
  62
3
  10
 1133.6317565310
  20
 391.60585190910
  30
0.0
  11
 1133.6317565310
  21
 400.39214536928
  31
0.0
   0
LINE
   5
22D
 100
AcDbEntity
   8
LEVEL001
 370
25
 100
AcDbLine
   6
CONTINUOUS
  62
3
  10
 1155.5710723269
  20
 400.39214536928
  30
0.0
  11
 1155.5710723269
  21
 391.60585190910
  31
0.0
   0
ARC
   5
22E
 100
AcDbEntity
   8
LEVEL001
 370
25
   6
CONTINUOUS
  62
3
 100
AcDbCircle
  10
 1136.3741729128
  20
 394.09729603014
  30
0.0
  40
 3.7051506608504
 100
AcDbArc
  50
 222.25467555837
  51
 317.74532444163
   0
ARC
   5
22F
 100
AcDbEntity
   8
LEVEL001
 370
25
   6
CONTINUOUS
  62
3
 100
AcDbCircle
  10
 1144.6014067995
  20
 403.39214536928
  30
0.0
  40
 12.999997561209
 100
AcDbArc
  50
 245.04482311550
  51
 294.95522901974
   0
ARC
   5
230
 100
AcDbEntity
   8
LEVEL001
 370
25
   6
CONTINUOUS
  62
3
 100
AcDbCircle
  10
 1152.8286559450
  20
 394.09729603014
  30
0.0
  40
 3.7051506608504
 100
AcDbArc
  50
 222.25457128817
  51
 317.74532444163
   0
LINE
   5
231
 100
AcDbEntity
   8
LEVEL001
 370
25
 100
AcDbLine
   6
CONTINUOUS
  62
3
  10
 1138.6014067995
  20
 379.71214506411
  30
0.0
  11
 1150.6014067995
  21
 379.71214506411
  31
0.0
   0
LWPOLYLINE
   5
232
 100
AcDbEntity
   8
LEVEL001
 370
25
   6
CONTINUOUS
  62
3
 100
AcDbPolyline
  90
6
  70
0
  10
 1138.6014067995
  20
 390.39214536928
  10
 1138.6014067995
  20
 379.71214506411
  10
 1139.9214141237
  20
 378.39214536928
  10
 1149.2814147341
  20
 378.39214536928
  10
 1150.6014067995
  20
 379.71214506411
  10
 1150.6014067995
  20
 390.39214536928
   0
LINE
   5
233
 100
AcDbEntity
   8
LEVEL001
 370
25
 100
AcDbLine
   6
CONTINUOUS
  62
3
  10
 1139.9214141237
  20
 378.39214536928
  30
0.0
  11
 1139.9214141237
  21
 390.39214536928
  31
0.0
   0
LINE
   5
234
 100
AcDbEntity
   8
LEVEL001
 370
25
 100
AcDbLine
   6
CONTINUOUS
  62
3
  10
 1149.2814147341
  20
 378.39214536928
  30
0.0
  11
 1149.2814147341
  21
 390.39214536928
  31
0.0
   0
ENDBLK
   5
235
 100
AcDbEntity
   8
0
 100
AcDbBlockEnd
   0
BLOCK
   5
236
 100
AcDbEntity
   8
0
 100
AcDbBlockBegin
   2
BLOCK015
  70
64
  10
0.0
  20
0.0
  30
0.0
   3
BLOCK015
   0
LINE
   5
237
 100
AcDbEntity
   8
LEVEL001
 370
25
 100
AcDbLine
   6
CONTINUOUS
  62
3
  10
 1186.3741729128
  20
 425.39214536928
  30
0.0
  11
 1202.8286559450
  21
 425.39214536928
  31
0.0
   0
LINE
   5
238
 100
AcDbEntity
   8
LEVEL001
 370
25
 100
AcDbLine
   6
CONTINUOUS
  62
3
  10
 1189.1165892946
  20
 424.17843882947
  30
0.0
  11
 1189.1165892946
  21
 415.39214536928
  31
0.0
   0
LINE
   5
239
 100
AcDbEntity
   8
LEVEL001
 370
25
 100
AcDbLine
   6
CONTINUOUS
  62
3
  10
 1200.0862395632
  20
 424.17843882947
  30
0.0
  11
 1200.0862395632
  21
 415.39214536928
  31
0.0
   0
LINE
   5
23A
 100
AcDbEntity
   8
LEVEL001
 370
25
 100
AcDbLine
   6
CONTINUOUS
  62
3
  10
 1183.6317565310
  20
 424.17843882947
  30
0.0
  11
 1183.6317565310
  21
 415.39214536928
  31
0.0
   0
LINE
   5
23B
 100
AcDbEntity
   8
LEVEL001
 370
25
 100
AcDbLine
   6
CONTINUOUS
  62
3
  10
 1205.5710723269
  20
 415.39214536928
  30
0.0
  11
 1205.5710723269
  21
 424.17843882947
  31
0.0
   0
ARC
   5
23C
 100
AcDbEntity
   8
LEVEL001
 370
25
   6
CONTINUOUS
  62
3
 100
AcDbCircle
  10
 1186.3741729128
  20
 421.68699470843
  30
0.0
  40
 3.7051506608504
 100
AcDbArc
  50
 42.254675558368
  51
 137.74532444163
   0
ARC
   5
23D
 100
AcDbEntity
   8
LEVEL001
 370
25
   6
CONTINUOUS
  62
3
 100
AcDbCircle
  10
 1194.6014067995
  20
 412.39214536928
  30
0.0
  40
 12.999997561209
 100
AcDbArc
  50
 65.044770980259
  51
 114.95517688450
   0
ARC
   5
23E
 100
AcDbEntity
   8
LEVEL001
 370
25
   6
CONTINUOUS
  62
3
 100
AcDbCircle
  10
 1202.8286559450
  20
 421.68699470843
  30
0.0
  40
 3.7051506608504
 100
AcDbArc
  50
 42.254675558368
  51
 137.74542871183
   0
LINE
   5
23F
 100
AcDbEntity
   8
LEVEL001
 370
25
 100
AcDbLine
   6
CONTINUOUS
  62
3
  10
 1205.3514067995
  20
 476.89214536928
  30
0.0
  11
 1205.3514067995
  21
 473.89214536928
  31
0.0
   0
LINE
   5
240
 100
AcDbEntity
   8
LEVEL001
 370
25
 100
AcDbLine
   6
CONTINUOUS
  62
3
  10
 1183.6317565310
  20
 473.89214536928
  30
0.0
  11
 1205.5710723269
  21
 473.89214536928
  31
0.0
   0
LINE
   5
241
 100
AcDbEntity
   8
LEVEL001
 370
25
 100
AcDbLine
   6
CONTINUOUS
  62
3
  10
 1183.8514067995
  20
 473.89214536928
  30
0.0
  11
 1183.8514067995
  21
 476.89214536928
  31
0.0
   0
LINE
   5
242
 100
AcDbEntity
   8
LEVEL001
 370
25
 100
AcDbLine
   6
CONTINUOUS
  62
3
  10
 1192.8693511355
  20
 473.89214536928
  30
0.0
  11
 1194.6014067995
  21
 476.89214536928
  31
0.0
   0
LINE
   5
243
 100
AcDbEntity
   8
LEVEL001
 370
25
 100
AcDbLine
   6
CONTINUOUS
  62
3
  10
 1194.6014067995
  20
 473.89214536928
  30
0.0
  11
 1196.3334624636
  21
 476.89214536928
  31
0.0
   0
LINE
   5
244
 100
AcDbEntity
   8
LEVEL001
 370
25
 100
AcDbLine
   6
CONTINUOUS
  62
3
  10
 1189.1165892946
  20
 465.10585190910
  30
0.0
  11
 1189.1165892946
  21
 473.89214536928
  31
0.0
   0
LINE
   5
245
 100
AcDbEntity
   8
LEVEL001
 370
25
 100
AcDbLine
   6
CONTINUOUS
  62
3
  10
 1200.0862395632
  20
 465.10585190910
  30
0.0
  11
 1200.0862395632
  21
 473.89214536928
  31
0.0
   0
LINE
   5
246
 100
AcDbEntity
   8
LEVEL001
 370
25
 100
AcDbLine
   6
CONTINUOUS
  62
3
  10
 1183.6317565310
  20
 465.10585190910
  30
0.0
  11
 1183.6317565310
  21
 473.89214536928
  31
0.0
   0
LINE
   5
247
 100
AcDbEntity
   8
LEVEL001
 370
25
 100
AcDbLine
   6
CONTINUOUS
  62
3
  10
 1205.5710723269
  20
 473.89214536928
  30
0.0
  11
 1205.5710723269
  21
 465.10585190910
  31
0.0
   0
ARC
   5
248
 100
AcDbEntity
   8
LEVEL001
 370
25
   6
CONTINUOUS
  62
3
 100
AcDbCircle
  10
 1202.8286559450
  20
 467.59729603014
  30
0.0
  40
 3.7051506608504
 100
AcDbArc
  50
 222.25457128817
  51
 317.74532444163
   0
ARC
   5
249
 100
AcDbEntity
   8
LEVEL001
 370
25
   6
CONTINUOUS
  62
3
 100
AcDbCircle
  10
 1194.6014067995
  20
 476.89214536928
  30
0.0
  40
 12.999997561209
 100
AcDbArc
  50
 245.04482311550
  51
 294.95522901974
   0
ARC
   5
24A
 100
AcDbEntity
   8
LEVEL001
 370
25
   6
CONTINUOUS
  62
3
 100
AcDbCircle
  10
 1186.3741729128
  20
 467.59729603014
  30
0.0
  40
 3.7051506608504
 100
AcDbArc
  50
 222.25467555837
  51
 317.74532444163
   0
LINE
   5
24B
 100
AcDbEntity
   8
LEVEL001
 370
25
 100
AcDbLine
   6
CONTINUOUS
  62
3
  10
 1186.3741729128
  20
 463.89214536928
  30
0.0
  11
 1202.8286559450
  21
 463.89214536928
  31
0.0
   0
LINE
   5
24C
 100
AcDbEntity
   8
LEVEL001
 370
25
 100
AcDbLine
   6
CONTINUOUS
  62
3
  10
 1188.6014067995
  20
 425.39214536928
  30
0.0
  11
 1188.6014067995
  21
 463.89214536928
  31
0.0
   0
LINE
   5
24D
 100
AcDbEntity
   8
LEVEL001
 370
25
 100
AcDbLine
   6
CONTINUOUS
  62
3
  10
 1189.9214141237
  20
 463.89214536928
  30
0.0
  11
 1189.9214141237
  21
 425.39214536928
  31
0.0
   0
LINE
   5
24E
 100
AcDbEntity
   8
LEVEL001
 370
25
 100
AcDbLine
   6
CONTINUOUS
  62
3
  10
 1199.2814147341
  20
 425.39214536928
  30
0.0
  11
 1199.2814147341
  21
 463.89214536928
  31
0.0
   0
LINE
   5
24F
 100
AcDbEntity
   8
LEVEL001
 370
25
 100
AcDbLine
   6
CONTINUOUS
  62
3
  10
 1200.6014067995
  20
 463.89214536928
  30
0.0
  11
 1200.6014067995
  21
 425.39214536928
  31
0.0
   0
LINE
   5
250
 100
AcDbEntity
   8
LEVEL001
 370
25
 100
AcDbLine
   6
DASHDOT
  62
3
  10
 1194.6014067995
  20
 371.51589331452
  30
0.0
  11
 1194.6014067995
  21
 483.48921848158
  31
0.0
   0
LINE
   5
251
 100
AcDbEntity
   8
LEVEL001
 370
25
 100
AcDbLine
   6
CONTINUOUS
  62
3
  10
 1205.3514067995
  20
 403.39214536928
  30
0.0
  11
 1205.3514067995
  21
 400.39214536928
  31
0.0
   0
LINE
   5
252
 100
AcDbEntity
   8
LEVEL001
 370
25
 100
AcDbLine
   6
CONTINUOUS
  62
3
  10
 1183.6317565310
  20
 400.39214536928
  30
0.0
  11
 1205.5710723269
  21
 400.39214536928
  31
0.0
   0
LINE
   5
253
 100
AcDbEntity
   8
LEVEL001
 370
25
 100
AcDbLine
   6
CONTINUOUS
  62
3
  10
 1183.8514067995
  20
 400.39214536928
  30
0.0
  11
 1183.8514067995
  21
 403.39214536928
  31
0.0
   0
LINE
   5
254
 100
AcDbEntity
   8
LEVEL001
 370
25
 100
AcDbLine
   6
CONTINUOUS
  62
3
  10
 1192.8693511355
  20
 400.39214536928
  30
0.0
  11
 1194.6014067995
  21
 403.39214536928
  31
0.0
   0
LINE
   5
255
 100
AcDbEntity
   8
LEVEL001
 370
25
 100
AcDbLine
   6
CONTINUOUS
  62
3
  10
 1194.6014067995
  20
 400.39214536928
  30
0.0
  11
 1196.3334624636
  21
 403.39214536928
  31
0.0
   0
LINE
   5
256
 100
AcDbEntity
   8
LEVEL001
 370
25
 100
AcDbLine
   6
CONTINUOUS
  62
3
  10
 1186.3741729128
  20
 390.39214536928
  30
0.0
  11
 1202.8286559450
  21
 390.39214536928
  31
0.0
   0
LINE
   5
257
 100
AcDbEntity
   8
LEVEL001
 370
25
 100
AcDbLine
   6
CONTINUOUS
  62
3
  10
 1189.1165892946
  20
 391.60585190910
  30
0.0
  11
 1189.1165892946
  21
 400.39214536928
  31
0.0
   0
LINE
   5
258
 100
AcDbEntity
   8
LEVEL001
 370
25
 100
AcDbLine
   6
CONTINUOUS
  62
3
  10
 1200.0862395632
  20
 391.60585190910
  30
0.0
  11
 1200.0862395632
  21
 400.39214536928
  31
0.0
   0
LINE
   5
259
 100
AcDbEntity
   8
LEVEL001
 370
25
 100
AcDbLine
   6
CONTINUOUS
  62
3
  10
 1183.6317565310
  20
 391.60585190910
  30
0.0
  11
 1183.6317565310
  21
 400.39214536928
  31
0.0
   0
LINE
   5
25A
 100
AcDbEntity
   8
LEVEL001
 370
25
 100
AcDbLine
   6
CONTINUOUS
  62
3
  10
 1205.5710723269
  20
 400.39214536928
  30
0.0
  11
 1205.5710723269
  21
 391.60585190910
  31
0.0
   0
ARC
   5
25B
 100
AcDbEntity
   8
LEVEL001
 370
25
   6
CONTINUOUS
  62
3
 100
AcDbCircle
  10
 1186.3741729128
  20
 394.09729603014
  30
0.0
  40
 3.7051506608504
 100
AcDbArc
  50
 222.25467555837
  51
 317.74532444163
   0
ARC
   5
25C
 100
AcDbEntity
   8
LEVEL001
 370
25
   6
CONTINUOUS
  62
3
 100
AcDbCircle
  10
 1194.6014067995
  20
 403.39214536928
  30
0.0
  40
 12.999997561209
 100
AcDbArc
  50
 245.04482311550
  51
 294.95522901974
   0
ARC
   5
25D
 100
AcDbEntity
   8
LEVEL001
 370
25
   6
CONTINUOUS
  62
3
 100
AcDbCircle
  10
 1202.8286559450
  20
 394.09729603014
  30
0.0
  40
 3.7051506608504
 100
AcDbArc
  50
 222.25457128817
  51
 317.74532444163
   0
LINE
   5
25E
 100
AcDbEntity
   8
LEVEL001
 370
25
 100
AcDbLine
   6
CONTINUOUS
  62
3
  10
 1188.6014067995
  20
 379.71214506411
  30
0.0
  11
 1200.6014067995
  21
 379.71214506411
  31
0.0
   0
LWPOLYLINE
   5
25F
 100
AcDbEntity
   8
LEVEL001
 370
25
   6
CONTINUOUS
  62
3
 100
AcDbPolyline
  90
6
  70
0
  10
 1188.6014067995
  20
 390.39214536928
  10
 1188.6014067995
  20
 379.71214506411
  10
 1189.9214141237
  20
 378.39214536928
  10
 1199.2814147341
  20
 378.39214536928
  10
 1200.6014067995
  20
 379.71214506411
  10
 1200.6014067995
  20
 390.39214536928
   0
LINE
   5
260
 100
AcDbEntity
   8
LEVEL001
 370
25
 100
AcDbLine
   6
CONTINUOUS
  62
3
  10
 1189.9214141237
  20
 378.39214536928
  30
0.0
  11
 1189.9214141237
  21
 390.39214536928
  31
0.0
   0
LINE
   5
261
 100
AcDbEntity
   8
LEVEL001
 370
25
 100
AcDbLine
   6
CONTINUOUS
  62
3
  10
 1199.2814147341
  20
 378.39214536928
  30
0.0
  11
 1199.2814147341
  21
 390.39214536928
  31
0.0
   0
ENDBLK
   5
262
 100
AcDbEntity
   8
0
 100
AcDbBlockEnd
   0
BLOCK
   5
263
 100
AcDbEntity
   8
0
 100
AcDbBlockBegin
   2
*D1
  70
65
  10
0.0
  20
0.0
  30
0.0
   3
*D1
   0
LINE
   5
264
 100
AcDbEntity
   8
LEVEL001
 370
25
 100
AcDbLine
   6
CONTINUOUS
  62
3
  10
 808.53720835748
  20
 271.39214536928
  30
0.0
  11
 882.86628454359
  21
 271.39214536928
  31
0.0
   0
LINE
   5
265
 100
AcDbEntity
   8
LEVEL001
 370
25
 100
AcDbLine
   6
CONTINUOUS
  62
3
  10
 870.86628454359
  20
 235.39214536928
  30
0.0
  11
 870.86628454359
  21
 263.39214536928
  31
0.0
   0
LINE
   5
266
 100
AcDbEntity
   8
LEVEL001
 370
25
 100
AcDbLine
   6
CONTINUOUS
  62
3
  10
 870.86628454359
  20
 350.94246813131
  30
0.0
  11
 870.86628454359
  21
 263.39214536928
  31
0.0
   0
INSERT
   5
267
 100
AcDbEntity
   8
LEVEL001
   6
CONTINUOUS
  62
3
 100
AcDbBlockReference
   2
_OPEN30
  10
 870.86628454359
  20
 255.39214536928
  30
0.0
  41
 16.000000000000
  42
 16.000000000000
  43
 16.000000000000
  50
 90.000000000000
   0
INSERT
   5
268
 100
AcDbEntity
   8
LEVEL001
   6
CONTINUOUS
  62
3
 100
AcDbBlockReference
   2
_OPEN30
  10
 870.86628454359
  20
 271.39214536928
  30
0.0
  41
 16.000000000000
  42
 16.000000000000
  43
 16.000000000000
  50
 270.00000000000
   0
MTEXT
   5
269
 100
AcDbEntity
   8
LEVEL001
 370
40
  62
7
 100
AcDbMText
  10
 861.19359418246
  20
 294.94246813131
  30
0.0
  40
 20.000000000000
  41
0.0
  71
7
  72
1
   1
\A1;１６
   7
GMM003
  11
0.0
  21
 1.0000000000000
  31
0.0
   0
ENDBLK
   5
26A
 100
AcDbEntity
   8
0
 100
AcDbBlockEnd
   0
BLOCK
   5
26B
 100
AcDbEntity
   8
0
 100
AcDbBlockBegin
   2
*D2
  70
65
  10
0.0
  20
0.0
  30
0.0
   3
*D2
   0
LINE
   5
26C
 100
AcDbEntity
   8
LEVEL001
 370
25
 100
AcDbLine
   6
CONTINUOUS
  62
3
  10
 808.53720835748
  20
 255.39214536928
  30
0.0
  11
 930.21915675930
  21
 255.39214536928
  31
0.0
   0
LINE
   5
26D
 100
AcDbEntity
   8
LEVEL001
 370
25
 100
AcDbLine
   6
CONTINUOUS
  62
3
  10
 918.21915675930
  20
 255.39214536928
  30
0.0
  11
 918.21915675930
  21
 456.64214536928
  31
0.0
   0
LINE
   5
26E
 100
AcDbEntity
   8
LEVEL001
 370
25
 100
AcDbLine
   6
CONTINUOUS
  62
3
  10
 918.21915675930
  20
 657.89214536928
  30
0.0
  11
 918.21915675930
  21
 456.64214536928
  31
0.0
   0
INSERT
   5
26F
 100
AcDbEntity
   8
LEVEL001
   6
CONTINUOUS
  62
3
 100
AcDbBlockReference
   2
_OPEN30
  10
 918.21915675930
  20
 255.39214536928
  30
0.0
  41
 16.000000000000
  42
 16.000000000000
  43
 16.000000000000
  50
 270.00000000000
   0
INSERT
   5
270
 100
AcDbEntity
   8
LEVEL001
   6
CONTINUOUS
  62
3
 100
AcDbBlockReference
   2
_OPEN30
  10
 918.21915675930
  20
 657.89214536928
  30
0.0
  41
 16.000000000000
  42
 16.000000000000
  43
 16.000000000000
  50
 90.000000000000
   0
MTEXT
   5
271
 100
AcDbEntity
   8
LEVEL001
 370
40
  62
7
 100
AcDbMText
  10
 909.64772818787
  20
 456.64214536928
  30
0.0
  40
 20.000000000000
  41
0.0
  71
8
  72
1
   1
\A1;４０３
   7
GMM003
  11
0.0
  21
 1.0000000000000
  31
0.0
   0
ENDBLK
   5
272
 100
AcDbEntity
   8
0
 100
AcDbBlockEnd
   0
BLOCK
   5
273
 100
AcDbEntity
   8
0
 100
AcDbBlockBegin
   2
*D3
  70
65
  10
0.0
  20
0.0
  30
0.0
   3
*D3
   0
LINE
   5
274
 100
AcDbEntity
   8
LEVEL001
 370
25
 100
AcDbLine
   6
CONTINUOUS
  62
3
  10
 410.53720835748
  20
 765.75624459881
  30
0.0
  11
 410.53720835748
  21
 802.20105509965
  31
0.0
   0
LINE
   5
275
 100
AcDbEntity
   8
LEVEL001
 370
25
 100
AcDbLine
   6
CONTINUOUS
  62
3
  10
 410.53720835748
  20
 790.20105509965
  30
0.0
  11
 455.53720835748
  21
 790.20105509965
  31
0.0
   0
LINE
   5
276
 100
AcDbEntity
   8
LEVEL001
 370
25
 100
AcDbLine
   6
CONTINUOUS
  62
3
  10
 500.53720835748
  20
 790.20105509965
  30
0.0
  11
 455.53720835748
  21
 790.20105509965
  31
0.0
   0
INSERT
   5
277
 100
AcDbEntity
   8
LEVEL001
   6
CONTINUOUS
  62
3
 100
AcDbBlockReference
   2
_OPEN30
  10
 410.53720835748
  20
 790.20105509965
  30
0.0
  41
 16.000000000000
  42
 16.000000000000
  43
 16.000000000000
  50
 180.00000000000
   0
INSERT
   5
278
 100
AcDbEntity
   8
LEVEL001
   6
CONTINUOUS
  62
3
 100
AcDbBlockReference
   2
_OPEN30
  10
 500.53720835748
  20
 790.20105509965
  30
0.0
  41
 16.000000000000
  42
 16.000000000000
  43
 16.000000000000
  50
0.0
   0
MTEXT
   5
279
 100
AcDbEntity
   8
LEVEL001
 370
40
  62
7
 100
AcDbMText
  10
 455.53720835748
  20
 798.77248367108
  30
0.0
  40
 20.000000000000
  41
0.0
  71
8
  72
1
   1
\A1;９０
   7
GMM003
   0
ENDBLK
   5
27A
 100
AcDbEntity
   8
0
 100
AcDbBlockEnd
   0
BLOCK
   5
27B
 100
AcDbEntity
   8
0
 100
AcDbBlockBegin
   2
*D4
  70
65
  10
0.0
  20
0.0
  30
0.0
   3
*D4
   0
LINE
   5
27C
 100
AcDbEntity
   8
LEVEL001
 370
25
 100
AcDbLine
   6
CONTINUOUS
  62
3
  10
 500.53720835748
  20
 665.89214536928
  30
0.0
  11
 500.53720835748
  21
 802.20105509965
  31
0.0
   0
LINE
   5
27D
 100
AcDbEntity
   8
LEVEL001
 370
25
 100
AcDbLine
   6
CONTINUOUS
  62
3
  10
 1020.5372083575
  20
 665.89214536928
  30
0.0
  11
 1020.5372083575
  21
 802.20105509965
  31
0.0
   0
LINE
   5
27E
 100
AcDbEntity
   8
LEVEL001
 370
25
 100
AcDbLine
   6
CONTINUOUS
  62
3
  10
 500.53720835748
  20
 790.20105509965
  30
0.0
  11
 760.53720835748
  21
 790.20105509965
  31
0.0
   0
LINE
   5
27F
 100
AcDbEntity
   8
LEVEL001
 370
25
 100
AcDbLine
   6
CONTINUOUS
  62
3
  10
 1020.5372083575
  20
 790.20105509965
  30
0.0
  11
 760.53720835748
  21
 790.20105509965
  31
0.0
   0
INSERT
   5
280
 100
AcDbEntity
   8
LEVEL001
   6
CONTINUOUS
  62
3
 100
AcDbBlockReference
   2
_OPEN30
  10
 500.53720835748
  20
 790.20105509965
  30
0.0
  41
 16.000000000000
  42
 16.000000000000
  43
 16.000000000000
  50
 180.00000000000
   0
INSERT
   5
281
 100
AcDbEntity
   8
LEVEL001
   6
CONTINUOUS
  62
3
 100
AcDbBlockReference
   2
_OPEN30
  10
 1020.5372083575
  20
 790.20105509965
  30
0.0
  41
 16.000000000000
  42
 16.000000000000
  43
 16.000000000000
  50
0.0
   0
MTEXT
   5
282
 100
AcDbEntity
   8
LEVEL001
 370
40
  62
7
 100
AcDbMText
  10
 760.53720835748
  20
 798.77248367108
  30
0.0
  40
 20.000000000000
  41
0.0
  71
8
  72
1
   1
\A1;５２０
   7
GMM003
   0
ENDBLK
   5
283
 100
AcDbEntity
   8
0
 100
AcDbBlockEnd
   0
BLOCK
   5
284
 100
AcDbEntity
   8
0
 100
AcDbBlockBegin
   2
*D5
  70
65
  10
0.0
  20
0.0
  30
0.0
   3
*D5
   0
LINE
   5
285
 100
AcDbEntity
   8
LEVEL001
 370
25
 100
AcDbLine
   6
CONTINUOUS
  62
3
  10
 635.53720835748
  20
 738.39214536928
  30
0.0
  11
 635.53720835748
  21
 863.48124267292
  31
0.0
   0
LINE
   5
286
 100
AcDbEntity
   8
LEVEL001
 370
25
 100
AcDbLine
   6
CONTINUOUS
  62
3
  10
 185.53720835748
  20
 738.39214536928
  30
0.0
  11
 185.53720835748
  21
 863.48124267292
  31
0.0
   0
LINE
   5
287
 100
AcDbEntity
   8
LEVEL001
 370
25
 100
AcDbLine
   6
CONTINUOUS
  62
3
  10
 635.53720835748
  20
 851.48124267292
  30
0.0
  11
 410.53720835748
  21
 851.48124267292
  31
0.0
   0
LINE
   5
288
 100
AcDbEntity
   8
LEVEL001
 370
25
 100
AcDbLine
   6
CONTINUOUS
  62
3
  10
 185.53720835748
  20
 851.48124267292
  30
0.0
  11
 410.53720835748
  21
 851.48124267292
  31
0.0
   0
INSERT
   5
289
 100
AcDbEntity
   8
LEVEL001
   6
CONTINUOUS
  62
3
 100
AcDbBlockReference
   2
_OPEN30
  10
 635.53720835748
  20
 851.48124267292
  30
0.0
  41
 16.000000000000
  42
 16.000000000000
  43
 16.000000000000
  50
0.0
   0
INSERT
   5
28A
 100
AcDbEntity
   8
LEVEL001
   6
CONTINUOUS
  62
3
 100
AcDbBlockReference
   2
_OPEN30
  10
 185.53720835748
  20
 851.48124267292
  30
0.0
  41
 16.000000000000
  42
 16.000000000000
  43
 16.000000000000
  50
 180.00000000000
   0
MTEXT
   5
28B
 100
AcDbEntity
   8
LEVEL001
 370
40
  62
7
 100
AcDbMText
  10
 410.53720835748
  20
 860.05267124435
  30
0.0
  40
 20.000000000000
  41
0.0
  71
8
  72
1
   1
\A1;φ４５０
   7
GMM003
   0
ENDBLK
   5
28C
 100
AcDbEntity
   8
0
 100
AcDbBlockEnd
   0
BLOCK
   5
28D
 100
AcDbEntity
   8
0
 100
AcDbBlockBegin
   2
BLOCK016
  70
64
  10
0.0
  20
0.0
  30
0.0
   3
BLOCK016
   0
LINE
   5
28E
 100
AcDbEntity
   8
LEVEL001
 370
40
 100
AcDbLine
   6
CONTINUOUS
  62
7
  10
 810.53720835748
  20
 1505.8235638921
  30
0.0
  11
 829.53720835748
  21
 1505.8235638921
  31
0.0
   0
LWPOLYLINE
   5
28F
 100
AcDbEntity
   8
LEVEL001
 370
40
   6
CONTINUOUS
  62
7
 100
AcDbPolyline
  90
4
  70
0
  10
 810.53720835748
  20
 1519.8235638921
  10
 810.53720835748
  20
 1502.3235638921
  10
 580.53720835748
  20
 1502.3235638921
  10
 580.53720835748
  20
 1519.8235638921
   0
LWPOLYLINE
   5
290
 100
AcDbEntity
   8
LEVEL001
 370
40
   6
CONTINUOUS
  62
7
 100
AcDbPolyline
  90
3
  70
0
  10
 810.53720835748
  20
 1502.3235638921
  10
 829.53720835748
  20
 1502.3235638921
  10
 829.53720835748
  20
 1519.8235638921
   0
LINE
   5
291
 100
AcDbEntity
   8
LEVEL001
 370
40
 100
AcDbLine
   6
CONTINUOUS
  62
7
  10
 810.53720835748
  20
 1565.8235638921
  30
0.0
  11
 829.53720835748
  21
 1565.8235638921
  31
0.0
   0
LWPOLYLINE
   5
292
 100
AcDbEntity
   8
LEVEL001
 370
40
   6
CONTINUOUS
  62
7
 100
AcDbPolyline
  90
4
  70
0
  10
 580.53720835748
  20
 1551.8235638921
  10
 580.53720835748
  20
 1569.3235638921
  10
 810.53720835748
  20
 1569.3235638921
  10
 810.53720835748
  20
 1551.8235638921
   0
LWPOLYLINE
   5
293
 100
AcDbEntity
   8
LEVEL001
 370
40
   6
CONTINUOUS
  62
7
 100
AcDbPolyline
  90
3
  70
0
  10
 829.53720835748
  20
 1551.8235638921
  10
 829.53720835748
  20
 1569.3235638921
  10
 810.53720835748
  20
 1569.3235638921
   0
LWPOLYLINE
   5
294
 100
AcDbEntity
   8
LEVEL001
 370
40
   6
CONTINUOUS
  62
7
 100
AcDbPolyline
  90
3
  70
0
  10
 462.53720835748
  20
 1551.8235638921
  10
 462.53720835748
  20
 1565.8235638921
  10
 580.53720835748
  20
 1565.8235638921
   0
LINE
   5
295
 100
AcDbEntity
   8
LEVEL001
 370
40
 100
AcDbLine
   6
CONTINUOUS
  62
7
  10
 562.53720835748
  20
 1551.8235638921
  30
0.0
  11
 562.53720835748
  21
 1565.8235638921
  31
0.0
   0
LWPOLYLINE
   5
296
 100
AcDbEntity
   8
LEVEL001
 370
40
   6
CONTINUOUS
  62
7
 100
AcDbPolyline
  90
3
  70
0
  10
 580.53720835748
  20
 1505.8235638921
  10
 462.53720835748
  20
 1505.8235638921
  10
 462.53720835748
  20
 1519.8235638921
   0
LINE
   5
297
 100
AcDbEntity
   8
LEVEL001
 370
40
 100
AcDbLine
   6
CONTINUOUS
  62
7
  10
 562.53720835748
  20
 1505.8235638921
  30
0.0
  11
 562.53720835748
  21
 1519.8235638921
  31
0.0
   0
ENDBLK
   5
298
 100
AcDbEntity
   8
0
 100
AcDbBlockEnd
   0
BLOCK
   5
299
 100
AcDbEntity
   8
0
 100
AcDbBlockBegin
   2
BLOCK017
  70
64
  10
0.0
  20
0.0
  30
0.0
   3
BLOCK017
   0
CIRCLE
   5
29A
 100
AcDbEntity
   8
LEVEL001
 370
9
 100
AcDbCircle
   6
CONTINUOUS
  62
11
  10
 596.53720835748
  20
 1515.8235638921
  30
0.0
  40
 3.0000000000000
   0
LINE
   5
29B
 100
AcDbEntity
   8
LEVEL001
 370
9
 100
AcDbLine
   6
DASHDOT
  62
11
  10
 602.53720835748
  20
 1515.8235638921
  30
0.0
  11
 590.53720835748
  21
 1515.8235638921
  31
0.0
   0
LINE
   5
29C
 100
AcDbEntity
   8
LEVEL001
 370
9
 100
AcDbLine
   6
DASHDOT
  62
11
  10
 596.53720835748
  20
 1509.8235638921
  30
0.0
  11
 596.53720835748
  21
 1521.8235638921
  31
0.0
   0
CIRCLE
   5
29D
 100
AcDbEntity
   8
LEVEL001
 370
9
 100
AcDbCircle
   6
CONTINUOUS
  62
11
  10
 596.53720835748
  20
 1515.8235638921
  30
0.0
  40
 2.0000000000000
   0
CIRCLE
   5
29E
 100
AcDbEntity
   8
LEVEL001
 370
9
 100
AcDbCircle
   6
DOT
  62
11
  10
 596.53720835748
  20
 1515.8235638921
  30
0.0
  40
 8.0000000000000
   0
CIRCLE
   5
29F
 100
AcDbEntity
   8
LEVEL001
 370
9
 100
AcDbCircle
   6
CONTINUOUS
  62
11
  10
 776.53720835748
  20
 1515.8235638921
  30
0.0
  40
 3.0000000000000
   0
LINE
   5
2A0
 100
AcDbEntity
   8
LEVEL001
 370
9
 100
AcDbLine
   6
DASHDOT
  62
11
  10
 782.53720835748
  20
 1515.8235638921
  30
0.0
  11
 770.53720835748
  21
 1515.8235638921
  31
0.0
   0
LINE
   5
2A1
 100
AcDbEntity
   8
LEVEL001
 370
9
 100
AcDbLine
   6
DASHDOT
  62
11
  10
 776.53720835748
  20
 1509.8235638921
  30
0.0
  11
 776.53720835748
  21
 1521.8235638921
  31
0.0
   0
CIRCLE
   5
2A2
 100
AcDbEntity
   8
LEVEL001
 370
9
 100
AcDbCircle
   6
CONTINUOUS
  62
11
  10
 776.53720835748
  20
 1515.8235638921
  30
0.0
  40
 2.0000000000000
   0
CIRCLE
   5
2A3
 100
AcDbEntity
   8
LEVEL001
 370
9
 100
AcDbCircle
   6
DOT
  62
11
  10
 776.53720835748
  20
 1515.8235638921
  30
0.0
  40
 8.0000000000000
   0
CIRCLE
   5
2A4
 100
AcDbEntity
   8
LEVEL001
 370
9
 100
AcDbCircle
   6
CONTINUOUS
  62
11
  10
 596.53720835748
  20
 1555.8235638921
  30
0.0
  40
 3.0000000000000
   0
LINE
   5
2A5
 100
AcDbEntity
   8
LEVEL001
 370
9
 100
AcDbLine
   6
DASHDOT
  62
11
  10
 602.53720835748
  20
 1555.8235638921
  30
0.0
  11
 590.53720835748
  21
 1555.8235638921
  31
0.0
   0
LINE
   5
2A6
 100
AcDbEntity
   8
LEVEL001
 370
9
 100
AcDbLine
   6
DASHDOT
  62
11
  10
 596.53720835748
  20
 1549.8235638921
  30
0.0
  11
 596.53720835748
  21
 1561.8235638921
  31
0.0
   0
CIRCLE
   5
2A7
 100
AcDbEntity
   8
LEVEL001
 370
9
 100
AcDbCircle
   6
CONTINUOUS
  62
11
  10
 596.53720835748
  20
 1555.8235638921
  30
0.0
  40
 2.0000000000000
   0
CIRCLE
   5
2A8
 100
AcDbEntity
   8
LEVEL001
 370
9
 100
AcDbCircle
   6
DOT
  62
11
  10
 596.53720835748
  20
 1555.8235638921
  30
0.0
  40
 8.0000000000000
   0
CIRCLE
   5
2A9
 100
AcDbEntity
   8
LEVEL001
 370
9
 100
AcDbCircle
   6
CONTINUOUS
  62
11
  10
 776.53720835748
  20
 1555.8235638921
  30
0.0
  40
 3.0000000000000
   0
LINE
   5
2AA
 100
AcDbEntity
   8
LEVEL001
 370
9
 100
AcDbLine
   6
DASHDOT
  62
11
  10
 782.53720835748
  20
 1555.8235638921
  30
0.0
  11
 770.53720835748
  21
 1555.8235638921
  31
0.0
   0
LINE
   5
2AB
 100
AcDbEntity
   8
LEVEL001
 370
9
 100
AcDbLine
   6
DASHDOT
  62
11
  10
 776.53720835748
  20
 1549.8235638921
  30
0.0
  11
 776.53720835748
  21
 1561.8235638921
  31
0.0
   0
CIRCLE
   5
2AC
 100
AcDbEntity
   8
LEVEL001
 370
9
 100
AcDbCircle
   6
CONTINUOUS
  62
11
  10
 776.53720835748
  20
 1555.8235638921
  30
0.0
  40
 2.0000000000000
   0
CIRCLE
   5
2AD
 100
AcDbEntity
   8
LEVEL001
 370
9
 100
AcDbCircle
   6
DOT
  62
11
  10
 776.53720835748
  20
 1555.8235638921
  30
0.0
  40
 8.0000000000000
   0
ENDBLK
   5
2AE
 100
AcDbEntity
   8
0
 100
AcDbBlockEnd
   0
BLOCK
   5
2AF
 100
AcDbEntity
   8
0
 100
AcDbBlockBegin
   2
BLOCK018
  70
64
  10
0.0
  20
0.0
  30
0.0
   3
BLOCK018
   0
CIRCLE
   5
2B0
 100
AcDbEntity
   8
LEVEL001
 370
9
 100
AcDbCircle
   6
DOT
  62
11
  10
 686.53720835748
  20
 1535.8235638921
  30
0.0
  40
 30.250000000000
   0
CIRCLE
   5
2B1
 100
AcDbEntity
   8
LEVEL001
 370
9
 100
AcDbCircle
   6
DOT
  62
11
  10
 686.53720835748
  20
 1535.8235638921
  30
0.0
  40
 26.450000000000
   0
ENDBLK
   5
2B2
 100
AcDbEntity
   8
0
 100
AcDbBlockEnd
   0
BLOCK
   5
2B3
 100
AcDbEntity
   8
0
 100
AcDbBlockBegin
   2
BLOCK019
  70
64
  10
0.0
  20
0.0
  30
0.0
   3
BLOCK019
   0
ARC
   5
2B4
 100
AcDbEntity
   8
LEVEL001
 370
9
   6
DOT
  62
11
 100
AcDbCircle
  10
 622.53720835748
  20
 1510.8235638921
  30
0.0
  40
 7.0000000000000
 100
AcDbArc
  50
 90.000000000000
  51
 270.00000000000
   0
ARC
   5
2B5
 100
AcDbEntity
   8
LEVEL001
 370
9
   6
DOT
  62
11
 100
AcDbCircle
  10
 638.53720835748
  20
 1510.8235638921
  30
0.0
  40
 7.0000000000000
 100
AcDbArc
  50
 270.00000000000
  51
 90.000000000000
   0
LINE
   5
2B6
 100
AcDbEntity
   8
LEVEL001
 370
9
 100
AcDbLine
   6
DOT
  62
11
  10
 622.53720835748
  20
 1503.8235638921
  30
0.0
  11
 638.53720835748
  21
 1503.8235638921
  31
0.0
   0
LINE
   5
2B7
 100
AcDbEntity
   8
LEVEL001
 370
9
 100
AcDbLine
   6
DOT
  62
11
  10
 622.53720835748
  20
 1517.8235638921
  30
0.0
  11
 638.53720835748
  21
 1517.8235638921
  31
0.0
   0
LINE
   5
2B8
 100
AcDbEntity
   8
LEVEL001
 370
9
 100
AcDbLine
   6
DASHDOT
  62
11
  10
 649.68735365405
  20
 1510.8235638921
  30
0.0
  11
 610.32570323801
  21
 1510.8235638921
  31
0.0
   0
LINE
   5
2B9
 100
AcDbEntity
   8
LEVEL001
 370
9
 100
AcDbLine
   6
DASHDOT
  62
11
  10
 630.53720835748
  20
 1499.1785054832
  30
0.0
  11
 630.53720835748
  21
 1524.4005339051
  31
0.0
   0
ENDBLK
   5
2BA
 100
AcDbEntity
   8
0
 100
AcDbBlockEnd
   0
BLOCK
   5
2BB
 100
AcDbEntity
   8
0
 100
AcDbBlockBegin
   2
BLOCK020
  70
64
  10
0.0
  20
0.0
  30
0.0
   3
BLOCK020
   0
ARC
   5
2BC
 100
AcDbEntity
   8
LEVEL001
 370
9
   6
DOT
  62
11
 100
AcDbCircle
  10
 622.53720835748
  20
 1560.8235638921
  30
0.0
  40
 7.0000000000000
 100
AcDbArc
  50
 90.000000000000
  51
 270.00000000000
   0
ARC
   5
2BD
 100
AcDbEntity
   8
LEVEL001
 370
9
   6
DOT
  62
11
 100
AcDbCircle
  10
 638.53720835748
  20
 1560.8235638921
  30
0.0
  40
 7.0000000000000
 100
AcDbArc
  50
 270.00000000000
  51
 90.000000000000
   0
LINE
   5
2BE
 100
AcDbEntity
   8
LEVEL001
 370
9
 100
AcDbLine
   6
DOT
  62
11
  10
 622.53720835748
  20
 1567.8235638921
  30
0.0
  11
 638.53720835748
  21
 1567.8235638921
  31
0.0
   0
LINE
   5
2BF
 100
AcDbEntity
   8
LEVEL001
 370
9
 100
AcDbLine
   6
DOT
  62
11
  10
 622.53720835748
  20
 1553.8235638921
  30
0.0
  11
 638.53720835748
  21
 1553.8235638921
  31
0.0
   0
LINE
   5
2C0
 100
AcDbEntity
   8
LEVEL001
 370
9
 100
AcDbLine
   6
DASHDOT
  62
11
  10
 649.68735365405
  20
 1560.8235638921
  30
0.0
  11
 610.32570323801
  21
 1560.8235638921
  31
0.0
   0
LINE
   5
2C1
 100
AcDbEntity
   8
LEVEL001
 370
9
 100
AcDbLine
   6
DASHDOT
  62
11
  10
 630.53720835748
  20
 1572.4686223011
  30
0.0
  11
 630.53720835748
  21
 1547.2465938792
  31
0.0
   0
ENDBLK
   5
2C2
 100
AcDbEntity
   8
0
 100
AcDbBlockEnd
   0
BLOCK
   5
2C3
 100
AcDbEntity
   8
0
 100
AcDbBlockBegin
   2
BLOCK021
  70
64
  10
0.0
  20
0.0
  30
0.0
   3
BLOCK021
   0
ARC
   5
2C4
 100
AcDbEntity
   8
LEVEL001
 370
9
   6
DOT
  62
11
 100
AcDbCircle
  10
 750.53720835748
  20
 1510.8235638921
  30
0.0
  40
 7.0000000000000
 100
AcDbArc
  50
 270.00000000000
  51
 90.000000000000
   0
ARC
   5
2C5
 100
AcDbEntity
   8
LEVEL001
 370
9
   6
DOT
  62
11
 100
AcDbCircle
  10
 734.53720835748
  20
 1510.8235638921
  30
0.0
  40
 7.0000000000000
 100
AcDbArc
  50
 90.000000000000
  51
 270.00000000000
   0
LINE
   5
2C6
 100
AcDbEntity
   8
LEVEL001
 370
9
 100
AcDbLine
   6
DOT
  62
11
  10
 750.53720835748
  20
 1503.8235638921
  30
0.0
  11
 734.53720835748
  21
 1503.8235638921
  31
0.0
   0
LINE
   5
2C7
 100
AcDbEntity
   8
LEVEL001
 370
9
 100
AcDbLine
   6
DOT
  62
11
  10
 750.53720835748
  20
 1517.8235638921
  30
0.0
  11
 734.53720835748
  21
 1517.8235638921
  31
0.0
   0
LINE
   5
2C8
 100
AcDbEntity
   8
LEVEL001
 370
9
 100
AcDbLine
   6
DASHDOT
  62
11
  10
 723.38706306091
  20
 1510.8235638921
  30
0.0
  11
 762.74871347694
  21
 1510.8235638921
  31
0.0
   0
LINE
   5
2C9
 100
AcDbEntity
   8
LEVEL001
 370
9
 100
AcDbLine
   6
DASHDOT
  62
11
  10
 742.53720835748
  20
 1499.1785054832
  30
0.0
  11
 742.53720835748
  21
 1524.4005339051
  31
0.0
   0
ENDBLK
   5
2CA
 100
AcDbEntity
   8
0
 100
AcDbBlockEnd
   0
BLOCK
   5
2CB
 100
AcDbEntity
   8
0
 100
AcDbBlockBegin
   2
BLOCK022
  70
64
  10
0.0
  20
0.0
  30
0.0
   3
BLOCK022
   0
ARC
   5
2CC
 100
AcDbEntity
   8
LEVEL001
 370
9
   6
DOT
  62
11
 100
AcDbCircle
  10
 750.53720835748
  20
 1560.8235638921
  30
0.0
  40
 7.0000000000000
 100
AcDbArc
  50
 270.00000000000
  51
 90.000000000000
   0
ARC
   5
2CD
 100
AcDbEntity
   8
LEVEL001
 370
9
   6
DOT
  62
11
 100
AcDbCircle
  10
 734.53720835748
  20
 1560.8235638921
  30
0.0
  40
 7.0000000000000
 100
AcDbArc
  50
 90.000000000000
  51
 270.00000000000
   0
LINE
   5
2CE
 100
AcDbEntity
   8
LEVEL001
 370
9
 100
AcDbLine
   6
DOT
  62
11
  10
 750.53720835748
  20
 1567.8235638921
  30
0.0
  11
 734.53720835748
  21
 1567.8235638921
  31
0.0
   0
LINE
   5
2CF
 100
AcDbEntity
   8
LEVEL001
 370
9
 100
AcDbLine
   6
DOT
  62
11
  10
 750.53720835748
  20
 1553.8235638921
  30
0.0
  11
 734.53720835748
  21
 1553.8235638921
  31
0.0
   0
LINE
   5
2D0
 100
AcDbEntity
   8
LEVEL001
 370
9
 100
AcDbLine
   6
DASHDOT
  62
11
  10
 723.38706306091
  20
 1560.8235638921
  30
0.0
  11
 762.74871347694
  21
 1560.8235638921
  31
0.0
   0
LINE
   5
2D1
 100
AcDbEntity
   8
LEVEL001
 370
9
 100
AcDbLine
   6
DASHDOT
  62
11
  10
 742.53720835748
  20
 1572.4686223011
  30
0.0
  11
 742.53720835748
  21
 1547.2465938792
  31
0.0
   0
ENDBLK
   5
2D2
 100
AcDbEntity
   8
0
 100
AcDbBlockEnd
   0
BLOCK
   5
2D3
 100
AcDbEntity
   8
0
 100
AcDbBlockBegin
   2
*D6
  70
65
  10
0.0
  20
0.0
  30
0.0
   3
*D6
   0
LINE
   5
2D4
 100
AcDbEntity
   8
LEVEL001
 370
25
 100
AcDbLine
   6
CONTINUOUS
  62
3
  10
 808.53720835748
  20
 1615.8235638921
  30
0.0
  11
 930.21915675930
  21
 1615.8235638921
  31
0.0
   0
LINE
   5
2D5
 100
AcDbEntity
   8
LEVEL001
 370
25
 100
AcDbLine
   6
CONTINUOUS
  62
3
  10
 918.21915675930
  20
 1615.8235638921
  30
0.0
  11
 918.21915675930
  21
 1575.8235638921
  31
0.0
   0
LINE
   5
2D6
 100
AcDbEntity
   8
LEVEL001
 370
25
 100
AcDbLine
   6
CONTINUOUS
  62
3
  10
 918.21915675930
  20
 1535.8235638921
  30
0.0
  11
 918.21915675930
  21
 1575.8235638921
  31
0.0
   0
INSERT
   5
2D7
 100
AcDbEntity
   8
LEVEL001
   6
CONTINUOUS
  62
3
 100
AcDbBlockReference
   2
_OPEN30
  10
 918.21915675930
  20
 1615.8235638921
  30
0.0
  41
 16.000000000000
  42
 16.000000000000
  43
 16.000000000000
  50
 90.000000000000
   0
INSERT
   5
2D8
 100
AcDbEntity
   8
LEVEL001
   6
CONTINUOUS
  62
3
 100
AcDbBlockReference
   2
_OPEN30
  10
 918.21915675930
  20
 1535.8235638921
  30
0.0
  41
 16.000000000000
  42
 16.000000000000
  43
 16.000000000000
  50
 270.00000000000
   0
MTEXT
   5
2D9
 100
AcDbEntity
   8
LEVEL001
 370
40
  62
7
 100
AcDbMText
  10
 909.07935605590
  20
 1585.3919844527
  30
0.0
  40
 20.000000000000
  41
0.0
  71
8
  72
1
   1
\A1;８０
   7
GMM003
  11
0.0
  21
 1.0000000000000
  31
0.0
   0
ENDBLK
   5
2DA
 100
AcDbEntity
   8
0
 100
AcDbBlockEnd
   0
BLOCK
   5
2DB
 100
AcDbEntity
   8
0
 100
AcDbBlockBegin
   2
*D7
  70
65
  10
0.0
  20
0.0
  30
0.0
   3
*D7
   0
LINE
   5
2DC
 100
AcDbEntity
   8
LEVEL001
 370
25
 100
AcDbLine
   6
CONTINUOUS
  62
3
  10
 918.21915675930
  20
 1535.8235638921
  30
0.0
  11
 906.21915675930
  21
 1535.8235638921
  31
0.0
   0
LINE
   5
2DD
 100
AcDbEntity
   8
LEVEL001
 370
25
 100
AcDbLine
   6
CONTINUOUS
  62
3
  10
 883.09543274363
  20
 1295.8235638921
  30
0.0
  11
 930.21915675930
  21
 1295.8235638921
  31
0.0
   0
LINE
   5
2DE
 100
AcDbEntity
   8
LEVEL001
 370
25
 100
AcDbLine
   6
CONTINUOUS
  62
3
  10
 918.21915675930
  20
 1535.8235638921
  30
0.0
  11
 918.21915675930
  21
 1415.8235638921
  31
0.0
   0
LINE
   5
2DF
 100
AcDbEntity
   8
LEVEL001
 370
25
 100
AcDbLine
   6
CONTINUOUS
  62
3
  10
 918.21915675930
  20
 1295.8235638921
  30
0.0
  11
 918.21915675930
  21
 1415.8235638921
  31
0.0
   0
INSERT
   5
2E0
 100
AcDbEntity
   8
LEVEL001
   6
CONTINUOUS
  62
3
 100
AcDbBlockReference
   2
_OPEN30
  10
 918.21915675930
  20
 1535.8235638921
  30
0.0
  41
 16.000000000000
  42
 16.000000000000
  43
 16.000000000000
  50
 90.000000000000
   0
INSERT
   5
2E1
 100
AcDbEntity
   8
LEVEL001
   6
CONTINUOUS
  62
3
 100
AcDbBlockReference
   2
_OPEN30
  10
 918.21915675930
  20
 1295.8235638921
  30
0.0
  41
 16.000000000000
  42
 16.000000000000
  43
 16.000000000000
  50
 270.00000000000
   0
MTEXT
   5
2E2
 100
AcDbEntity
   8
LEVEL001
 370
40
  62
7
 100
AcDbMText
  10
 909.64772818787
  20
 1415.8235638921
  30
0.0
  40
 20.000000000000
  41
0.0
  71
8
  72
1
   1
\A1;（２４０）
   7
GMM003
  11
0.0
  21
 1.0000000000000
  31
0.0
   0
ENDBLK
   5
2E3
 100
AcDbEntity
   8
0
 100
AcDbBlockEnd
   0
BLOCK
   5
2E4
 100
AcDbEntity
   8
0
 100
AcDbBlockBegin
   2
BLOCK023
  70
64
  10
0.0
  20
0.0
  30
0.0
   3
BLOCK023
   0
CIRCLE
   5
2E5
 100
AcDbEntity
   8
LEVEL001
 370
9
 100
AcDbCircle
   6
CONTINUOUS
  62
11
  10
 590.53720835748
  20
 1295.8235638921
  30
0.0
  40
 25.000000000000
   0
CIRCLE
   5
2E6
 100
AcDbEntity
   8
LEVEL001
 370
9
 100
AcDbCircle
   6
CONTINUOUS
  62
11
  10
 320.53720835748
  20
 1139.9389912109
  30
0.0
  40
 25.000000000000
   0
CIRCLE
   5
2E7
 100
AcDbEntity
   8
LEVEL001
 370
9
 100
AcDbCircle
   6
CONTINUOUS
  62
11
  10
 320.53720835748
  20
 1451.7081365733
  30
0.0
  40
 25.000000000000
   0
LINE
   5
2E8
 100
AcDbEntity
   8
LEVEL001
 370
9
 100
AcDbLine
   6
DASHDOT
  62
11
  10
 300.48953118753
  20
 1486.4317320054
  30
0.0
  11
 342.83895625649
  21
 1413.0803761147
  31
0.0
   0
LINE
   5
2E9
 100
AcDbEntity
   8
LEVEL001
 370
9
 100
AcDbLine
   6
DASHDOT
  62
11
  10
 300.68364794387
  20
 1105.5516158634
  30
0.0
  11
 341.56168016408
  21
 1176.3544445823
  31
0.0
   0
CIRCLE
   5
2EA
 100
AcDbEntity
   8
LEVEL001
 370
9
 100
AcDbCircle
   6
DASHDOT
  62
11
  10
 410.53720835748
  20
 1295.8235638921
  30
0.0
  40
 180.00000000000
   0
ENDBLK
   5
2EB
 100
AcDbEntity
   8
0
 100
AcDbBlockEnd
   0
BLOCK
   5
2EC
 100
AcDbEntity
   8
0
 100
AcDbBlockBegin
   2
BLOCK024
  70
64
  10
0.0
  20
0.0
  30
0.0
   3
BLOCK024
   0
CIRCLE
   5
2ED
 100
AcDbEntity
   8
LEVEL001
 370
40
 100
AcDbCircle
   6
CONTINUOUS
  62
7
  10
 410.53720835748
  20
 1265.8235638921
  30
0.0
  40
 225.00000000000
   0
ARC
   5
2EE
 100
AcDbEntity
   8
LEVEL001
 370
40
   6
CONTINUOUS
  62
7
 100
AcDbCircle
  10
 410.53720835748
  20
 1265.8235638921
  30
0.0
  40
 328.50000000000
 100
AcDbArc
  50
 106.03208852302
  51
 180.00000000000
   0
ARC
   5
2EF
 100
AcDbEntity
   8
LEVEL001
 370
40
   6
CONTINUOUS
  62
7
 100
AcDbCircle
  10
 388.03720835748
  20
 1265.8235638921
  30
0.0
  40
 306.00000000000
 100
AcDbArc
  50
 180.00000000000
  51
 306.40298850963
   0
LINE
   5
2F0
 100
AcDbEntity
   8
LEVEL001
 370
40
 100
AcDbLine
   6
CONTINUOUS
  62
7
  10
 569.63623412457
  20
 1019.5355336502
  30
0.0
  11
 569.63623412457
  21
 1106.7245381253
  31
0.0
   0
ARC
   5
2F1
 100
AcDbEntity
   8
LEVEL001
 370
40
   6
CONTINUOUS
  62
7
 100
AcDbCircle
  10
 410.53720835748
  20
 1265.8235638921
  30
0.0
  40
 288.00000000000
 100
AcDbArc
  50
 90.000000000000
  51
 135.00000000005
   0
LINE
   5
2F2
 100
AcDbEntity
   8
LEVEL001
 370
40
 100
AcDbLine
   6
CONTINUOUS
  62
7
  10
 384.84983556257
  20
 1516.5109366872
  30
0.0
  11
 410.53720835756
  21
 1490.8235638922
  31
0.0
   0
LINE
   5
2F3
 100
AcDbEntity
   8
LEVEL001
 370
40
 100
AcDbLine
   6
CONTINUOUS
  62
7
  10
 319.81350157121
  20
 1581.5472706786
  30
0.0
  11
 353.28518333287
  21
 1548.0755889169
  31
0.0
   0
ARC
   5
2F4
 100
AcDbEntity
   8
LEVEL001
 370
25
   6
DASHDOT
  62
3
 100
AcDbCircle
  10
 410.53720835748
  20
 1265.8235638921
  30
0.0
  40
 270.00000000000
 100
AcDbArc
  50
 90.000000000000
  51
 146.53548602527
   0
ARC
   5
2F5
 100
AcDbEntity
   8
LEVEL001
 370
40
   6
CONTINUOUS
  62
7
 100
AcDbCircle
  10
 410.53720835748
  20
 1265.8235638921
  30
0.0
  40
 252.00000000000
 100
AcDbArc
  50
 90.000000000000
  51
 157.69054225615
   0
CIRCLE
   5
2F6
 100
AcDbEntity
   8
LEVEL001
 370
40
 100
AcDbCircle
   6
CONTINUOUS
  62
7
  10
 410.53720835748
  20
 1265.8235638921
  30
0.0
  40
 175.00000000000
   0
LWPOLYLINE
   5
2F7
 100
AcDbEntity
   8
LEVEL001
 370
40
   6
CONTINUOUS
  62
7
 100
AcDbPolyline
  90
4
  70
0
  10
 410.53720835748
  20
 1517.8235638921
  10
 494.53720835748
  20
 1517.8235638921
  10
 494.53720835748
  20
 1553.8235638921
  10
 410.53720835748
  20
 1553.8235638921
   0
ENDBLK
   5
2F8
 100
AcDbEntity
   8
0
 100
AcDbBlockEnd
   0
BLOCK
   5
2F9
 100
AcDbEntity
   8
0
 100
AcDbBlockBegin
   2
*D8
  70
65
  10
0.0
  20
0.0
  30
0.0
   3
*D8
   0
LINE
   5
2FA
 100
AcDbEntity
   8
LEVEL001
 370
25
 100
AcDbLine
   6
CONTINUOUS
  62
3
  10
 175.53720835748
  20
 1610.8235638921
  30
0.0
  11
 175.53720835748
  21
 1728.4284876905
  31
0.0
   0
LINE
   5
2FB
 100
AcDbEntity
   8
LEVEL001
 370
25
 100
AcDbLine
   6
CONTINUOUS
  62
3
  10
 175.53720835748
  20
 1716.4284876905
  30
0.0
  11
 475.53720835748
  21
 1716.4284876905
  31
0.0
   0
LINE
   5
2FC
 100
AcDbEntity
   8
LEVEL001
 370
25
 100
AcDbLine
   6
CONTINUOUS
  62
3
  10
 775.53720835748
  20
 1716.4284876905
  30
0.0
  11
 475.53720835748
  21
 1716.4284876905
  31
0.0
   0
INSERT
   5
2FD
 100
AcDbEntity
   8
LEVEL001
   6
CONTINUOUS
  62
3
 100
AcDbBlockReference
   2
_OPEN30
  10
 175.53720835748
  20
 1716.4284876905
  30
0.0
  41
 16.000000000000
  42
 16.000000000000
  43
 16.000000000000
  50
 180.00000000000
   0
INSERT
   5
2FE
 100
AcDbEntity
   8
LEVEL001
   6
CONTINUOUS
  62
3
 100
AcDbBlockReference
   2
_OPEN30
  10
 775.53720835748
  20
 1716.4284876905
  30
0.0
  41
 16.000000000000
  42
 16.000000000000
  43
 16.000000000000
  50
0.0
   0
MTEXT
   5
2FF
 100
AcDbEntity
   8
LEVEL001
 370
40
  62
7
 100
AcDbMText
  10
 475.53720835748
  20
 1724.9999162619
  30
0.0
  40
 20.000000000000
  41
0.0
  71
8
  72
1
   1
\A1;６００
   7
GMM003
   0
ENDBLK
   5
300
 100
AcDbEntity
   8
0
 100
AcDbBlockEnd
   0
BLOCK
   5
301
 100
AcDbEntity
   8
0
 100
AcDbBlockBegin
   2
*D9
  70
65
  10
0.0
  20
0.0
  30
0.0
   3
*D9
   0
LINE
   5
302
 100
AcDbEntity
   8
LEVEL001
 370
25
 100
AcDbLine
   6
CONTINUOUS
  62
3
  10
 775.53720835748
  20
 1610.8235638921
  30
0.0
  11
 775.53720835748
  21
 1728.4284876905
  31
0.0
   0
LINE
   5
303
 100
AcDbEntity
   8
LEVEL001
 370
25
 100
AcDbLine
   6
CONTINUOUS
  62
3
  10
 800.53720835748
  20
 1623.8235638921
  30
0.0
  11
 800.53720835748
  21
 1728.4284876905
  31
0.0
   0
LINE
   5
304
 100
AcDbEntity
   8
LEVEL001
 370
25
 100
AcDbLine
   6
CONTINUOUS
  62
3
  10
 775.53720835748
  20
 1716.4284876905
  30
0.0
  11
 788.03720835748
  21
 1716.4284876905
  31
0.0
   0
LINE
   5
305
 100
AcDbEntity
   8
LEVEL001
 370
25
 100
AcDbLine
   6
CONTINUOUS
  62
3
  10
 881.12906583202
  20
 1716.4284876905
  30
0.0
  11
 788.03720835748
  21
 1716.4284876905
  31
0.0
   0
INSERT
   5
306
 100
AcDbEntity
   8
LEVEL001
   6
CONTINUOUS
  62
3
 100
AcDbBlockReference
   2
_OPEN30
  10
 800.53720835748
  20
 1716.4284876905
  30
0.0
  41
 16.000000000000
  42
 16.000000000000
  43
 16.000000000000
  50
 180.00000000000
   0
MTEXT
   5
307
 100
AcDbEntity
   8
LEVEL001
 370
40
  62
7
 100
AcDbMText
  10
 825.12906583202
  20
 1722.5301804249
  30
0.0
  40
 20.000000000000
  41
0.0
  71
7
  72
1
   1
\A1;２５
   7
GMM003
   0
ENDBLK
   5
308
 100
AcDbEntity
   8
0
 100
AcDbBlockEnd
   0
BLOCK
   5
309
 100
AcDbEntity
   8
0
 100
AcDbBlockBegin
   2
*D10
  70
65
  10
0.0
  20
0.0
  30
0.0
   3
*D10
   0
LINE
   5
30A
 100
AcDbEntity
   8
LEVEL001
 370
25
 100
AcDbLine
   6
CONTINUOUS
  62
3
  10
 150.53720835748
  20
 1623.8235638921
  30
0.0
  11
 150.53720835748
  21
 1789.7086752638
  31
0.0
   0
LINE
   5
30B
 100
AcDbEntity
   8
LEVEL001
 370
25
 100
AcDbLine
   6
CONTINUOUS
  62
3
  10
 150.53720835748
  20
 1777.7086752638
  30
0.0
  11
 475.53720835748
  21
 1777.7086752638
  31
0.0
   0
LINE
   5
30C
 100
AcDbEntity
   8
LEVEL001
 370
25
 100
AcDbLine
   6
CONTINUOUS
  62
3
  10
 800.53720835748
  20
 1777.7086752638
  30
0.0
  11
 475.53720835748
  21
 1777.7086752638
  31
0.0
   0
INSERT
   5
30D
 100
AcDbEntity
   8
LEVEL001
   6
CONTINUOUS
  62
3
 100
AcDbBlockReference
   2
_OPEN30
  10
 150.53720835748
  20
 1777.7086752638
  30
0.0
  41
 16.000000000000
  42
 16.000000000000
  43
 16.000000000000
  50
 180.00000000000
   0
INSERT
   5
30E
 100
AcDbEntity
   8
LEVEL001
   6
CONTINUOUS
  62
3
 100
AcDbBlockReference
   2
_OPEN30
  10
 800.53720835748
  20
 1777.7086752638
  30
0.0
  41
 16.000000000000
  42
 16.000000000000
  43
 16.000000000000
  50
0.0
   0
MTEXT
   5
30F
 100
AcDbEntity
   8
LEVEL001
 370
40
  62
7
 100
AcDbMText
  10
 475.53720835748
  20
 1786.2801038352
  30
0.0
  40
 20.000000000000
  41
0.0
  71
8
  72
1
   1
\A1;６５０
   7
GMM003
   0
ENDBLK
   5
310
 100
AcDbEntity
   8
0
 100
AcDbBlockEnd
   0
BLOCK
   5
311
 100
AcDbEntity
   8
0
 100
AcDbBlockBegin
   2
*D11
  70
65
  10
0.0
  20
0.0
  30
0.0
   3
*D11
   0
LINE
   5
312
 100
AcDbEntity
   8
LEVEL001
 370
25
 100
AcDbLine
   6
CONTINUOUS
  62
3
  10
 800.53720835748
  20
 1623.8235638921
  30
0.0
  11
 800.53720835748
  21
 1789.7086752638
  31
0.0
   0
LINE
   5
313
 100
AcDbEntity
   8
LEVEL001
 370
25
 100
AcDbLine
   6
CONTINUOUS
  62
3
  10
 1020.5372083575
  20
 1559.8235638921
  30
0.0
  11
 1020.5372083575
  21
 1789.7086752638
  31
0.0
   0
LINE
   5
314
 100
AcDbEntity
   8
LEVEL001
 370
25
 100
AcDbLine
   6
CONTINUOUS
  62
3
  10
 800.53720835748
  20
 1777.7086752638
  30
0.0
  11
 910.53720835748
  21
 1777.7086752638
  31
0.0
   0
LINE
   5
315
 100
AcDbEntity
   8
LEVEL001
 370
25
 100
AcDbLine
   6
CONTINUOUS
  62
3
  10
 1020.5372083575
  20
 1777.7086752638
  30
0.0
  11
 910.53720835748
  21
 1777.7086752638
  31
0.0
   0
INSERT
   5
316
 100
AcDbEntity
   8
LEVEL001
   6
CONTINUOUS
  62
3
 100
AcDbBlockReference
   2
_OPEN30
  10
 800.53720835748
  20
 1777.7086752638
  30
0.0
  41
 16.000000000000
  42
 16.000000000000
  43
 16.000000000000
  50
 180.00000000000
   0
INSERT
   5
317
 100
AcDbEntity
   8
LEVEL001
   6
CONTINUOUS
  62
3
 100
AcDbBlockReference
   2
_OPEN30
  10
 1020.5372083575
  20
 1777.7086752638
  30
0.0
  41
 16.000000000000
  42
 16.000000000000
  43
 16.000000000000
  50
0.0
   0
MTEXT
   5
318
 100
AcDbEntity
   8
LEVEL001
 370
40
  62
7
 100
AcDbMText
  10
 910.53720835748
  20
 1786.2801038352
  30
0.0
  40
 20.000000000000
  41
0.0
  71
8
  72
1
   1
\A1;２２０
   7
GMM003
   0
ENDBLK
   5
319
 100
AcDbEntity
   8
0
 100
AcDbBlockEnd
   0
BLOCK
   5
31A
 100
AcDbEntity
   8
0
 100
AcDbBlockBegin
   2
*D13
  70
65
  10
0.0
  20
0.0
  30
0.0
   3
*D13
   0
LINE
   5
31B
 100
AcDbEntity
   8
LEVEL001
 370
25
 100
AcDbLine
   6
CONTINUOUS
  62
3
  10
 142.53720835748
  20
 1615.8235638921
  30
0.0
  11
 24.696365767878
  21
 1615.8235638921
  31
0.0
   0
LINE
   5
31C
 100
AcDbEntity
   8
LEVEL001
 370
25
 100
AcDbLine
   6
CONTINUOUS
  62
3
  10
 36.696365767878
  20
 1696.6214328843
  30
0.0
  11
 36.696365767878
  21
 1603.3235638921
  31
0.0
   0
LINE
   5
31D
 100
AcDbEntity
   8
LEVEL001
 370
25
 100
AcDbLine
   6
CONTINUOUS
  62
3
  10
 36.696365767878
  20
 1590.8235638921
  30
0.0
  11
 36.696365767878
  21
 1603.3235638921
  31
0.0
   0
INSERT
   5
31E
 100
AcDbEntity
   8
LEVEL001
   6
CONTINUOUS
  62
3
 100
AcDbBlockReference
   2
_OPEN30
  10
 36.696365767878
  20
 1615.8235638921
  30
0.0
  41
 16.000000000000
  42
 16.000000000000
  43
 16.000000000000
  50
 270.00000000000
   0
MTEXT
   5
31F
 100
AcDbEntity
   8
LEVEL001
 370
40
  62
7
 100
AcDbMText
  10
 31.452391845138
  20
 1640.6214328843
  30
0.0
  40
 20.000000000000
  41
0.0
  71
7
  72
1
   1
\A1;２５
   7
GMM003
  11
0.0
  21
 1.0000000000000
  31
0.0
   0
ENDBLK
   5
320
 100
AcDbEntity
   8
0
 100
AcDbBlockEnd
   0
BLOCK
   5
321
 100
AcDbEntity
   8
0
 100
AcDbBlockBegin
   2
*D14
  70
65
  10
0.0
  20
0.0
  30
0.0
   3
*D14
   0
LINE
   5
322
 100
AcDbEntity
   8
LEVEL001
 370
25
 100
AcDbLine
   6
CONTINUOUS
  62
3
  10
 155.53720835748
  20
 1590.8235638921
  30
0.0
  11
 24.696365767878
  21
 1590.8235638921
  31
0.0
   0
LINE
   5
323
 100
AcDbEntity
   8
LEVEL001
 370
25
 100
AcDbLine
   6
CONTINUOUS
  62
3
  10
 155.53720835748
  20
 1040.8235638921
  30
0.0
  11
 24.696365767878
  21
 1040.8235638921
  31
0.0
   0
LINE
   5
324
 100
AcDbEntity
   8
LEVEL001
 370
25
 100
AcDbLine
   6
CONTINUOUS
  62
3
  10
 36.696365767878
  20
 1590.8235638921
  30
0.0
  11
 36.696365767878
  21
 1315.8235638921
  31
0.0
   0
LINE
   5
325
 100
AcDbEntity
   8
LEVEL001
 370
25
 100
AcDbLine
   6
CONTINUOUS
  62
3
  10
 36.696365767878
  20
 1040.8235638921
  30
0.0
  11
 36.696365767878
  21
 1315.8235638921
  31
0.0
   0
INSERT
   5
326
 100
AcDbEntity
   8
LEVEL001
   6
CONTINUOUS
  62
3
 100
AcDbBlockReference
   2
_OPEN30
  10
 36.696365767878
  20
 1590.8235638921
  30
0.0
  41
 16.000000000000
  42
 16.000000000000
  43
 16.000000000000
  50
 90.000000000000
   0
INSERT
   5
327
 100
AcDbEntity
   8
LEVEL001
   6
CONTINUOUS
  62
3
 100
AcDbBlockReference
   2
_OPEN30
  10
 36.696365767878
  20
 1040.8235638921
  30
0.0
  41
 16.000000000000
  42
 16.000000000000
  43
 16.000000000000
  50
 270.00000000000
   0
MTEXT
   5
328
 100
AcDbEntity
   8
LEVEL001
 370
40
  62
7
 100
AcDbMText
  10
 28.124937196450
  20
 1315.8235638921
  30
0.0
  40
 20.000000000000
  41
0.0
  71
8
  72
1
   1
\A1;５５０
   7
GMM003
  11
0.0
  21
 1.0000000000000
  31
0.0
   0
ENDBLK
   5
329
 100
AcDbEntity
   8
0
 100
AcDbBlockEnd
   0
BLOCK
   5
32A
 100
AcDbEntity
   8
0
 100
AcDbBlockBegin
   2
*D15
  70
65
  10
0.0
  20
0.0
  30
0.0
   3
*D15
   0
LINE
   5
32B
 100
AcDbEntity
   8
LEVEL001
 370
25
 100
AcDbLine
   6
CONTINUOUS
  62
3
  10
 142.53720835748
  20
 1615.8235638921
  30
0.0
  11
-36.583821805393
  21
 1615.8235638921
  31
0.0
   0
LINE
   5
32C
 100
AcDbEntity
   8
LEVEL001
 370
25
 100
AcDbLine
   6
CONTINUOUS
  62
3
  10
 142.53720835748
  20
 1015.8235638921
  30
0.0
  11
-36.583821805393
  21
 1015.8235638921
  31
0.0
   0
LINE
   5
32D
 100
AcDbEntity
   8
LEVEL001
 370
25
 100
AcDbLine
   6
CONTINUOUS
  62
3
  10
-24.583821805393
  20
 1615.8235638921
  30
0.0
  11
-24.583821805393
  21
 1315.8235638921
  31
0.0
   0
LINE
   5
32E
 100
AcDbEntity
   8
LEVEL001
 370
25
 100
AcDbLine
   6
CONTINUOUS
  62
3
  10
-24.583821805393
  20
 1015.8235638921
  30
0.0
  11
-24.583821805393
  21
 1315.8235638921
  31
0.0
   0
INSERT
   5
32F
 100
AcDbEntity
   8
LEVEL001
   6
CONTINUOUS
  62
3
 100
AcDbBlockReference
   2
_OPEN30
  10
-24.583821805393
  20
 1615.8235638921
  30
0.0
  41
 16.000000000000
  42
 16.000000000000
  43
 16.000000000000
  50
 90.000000000000
   0
INSERT
   5
330
 100
AcDbEntity
   8
LEVEL001
   6
CONTINUOUS
  62
3
 100
AcDbBlockReference
   2
_OPEN30
  10
-24.583821805393
  20
 1015.8235638921
  30
0.0
  41
 16.000000000000
  42
 16.000000000000
  43
 16.000000000000
  50
 270.00000000000
   0
MTEXT
   5
331
 100
AcDbEntity
   8
LEVEL001
 370
40
  62
7
 100
AcDbMText
  10
-33.155250376821
  20
 1315.8235638921
  30
0.0
  40
 20.000000000000
  41
0.0
  71
8
  72
1
   1
\A1;６００
   7
GMM003
  11
0.0
  21
 1.0000000000000
  31
0.0
   0
ENDBLK
   5
332
 100
AcDbEntity
   8
0
 100
AcDbBlockEnd
   0
BLOCK
   5
333
 100
AcDbEntity
   8
0
 100
AcDbBlockBegin
   2
*D16
  70
65
  10
0.0
  20
0.0
  30
0.0
   3
*D16
   0
LINE
   5
334
 100
AcDbEntity
   8
LEVEL001
 370
25
 100
AcDbLine
   6
CONTINUOUS
  62
3
  10
 142.53720835748
  20
 255.39214536928
  30
0.0
  11
 24.696365767878
  21
 255.39214536928
  31
0.0
   0
LINE
   5
335
 100
AcDbEntity
   8
LEVEL001
 370
25
 100
AcDbLine
   6
CONTINUOUS
  62
3
  10
 177.53720835748
  20
 730.39214536928
  30
0.0
  11
 24.696365767878
  21
 730.39214536928
  31
0.0
   0
LINE
   5
336
 100
AcDbEntity
   8
LEVEL001
 370
25
 100
AcDbLine
   6
CONTINUOUS
  62
3
  10
 36.696365767878
  20
 255.39214536928
  30
0.0
  11
 36.696365767878
  21
 492.89214536928
  31
0.0
   0
LINE
   5
337
 100
AcDbEntity
   8
LEVEL001
 370
25
 100
AcDbLine
   6
CONTINUOUS
  62
3
  10
 36.696365767878
  20
 730.39214536928
  30
0.0
  11
 36.696365767878
  21
 492.89214536928
  31
0.0
   0
INSERT
   5
338
 100
AcDbEntity
   8
LEVEL001
   6
CONTINUOUS
  62
3
 100
AcDbBlockReference
   2
_OPEN30
  10
 36.696365767878
  20
 255.39214536928
  30
0.0
  41
 16.000000000000
  42
 16.000000000000
  43
 16.000000000000
  50
 270.00000000000
   0
INSERT
   5
339
 100
AcDbEntity
   8
LEVEL001
   6
CONTINUOUS
  62
3
 100
AcDbBlockReference
   2
_OPEN30
  10
 36.696365767878
  20
 730.39214536928
  30
0.0
  41
 16.000000000000
  42
 16.000000000000
  43
 16.000000000000
  50
 90.000000000000
   0
MTEXT
   5
33A
 100
AcDbEntity
   8
LEVEL001
 370
40
  62
7
 100
AcDbMText
  10
 28.124937196450
  20
 492.89214536928
  30
0.0
  40
 20.000000000000
  41
0.0
  71
8
  72
1
   1
\A1;（４７５）
   7
GMM003
  11
0.0
  21
 1.0000000000000
  31
0.0
   0
ENDBLK
   5
33B
 100
AcDbEntity
   8
0
 100
AcDbBlockEnd
   0
ENDSEC
   0
SECTION
   2
ENTITIES
   0
TEXT
   5
33C
 100
AcDbEntity
   8
LEVEL001
 370
25
  62
3
 100
AcDbText
  10
-165.88128097853
  20
 120.26184844971
  30
0.0
  40
 2.5999999046326
   1
　
  41
 0.76923079744599
   7
STANDARD
 100
AcDbText
   0
TEXT
   5
33D
 100
AcDbEntity
   8
LEVEL001
 370
25
  62
3
 100
AcDbText
  10
-149.23487289748
  20
 120.17190551758
  30
0.0
  40
 2.5999999046326
   1
　
  41
 0.42307690191551
   7
STANDARD
 100
AcDbText
   0
TEXT
   5
33E
 100
AcDbEntity
   8
LEVEL001
 370
25
  62
3
 100
AcDbText
  10
-195.10787399611
  20
 126.32980531044
  30
0.0
  40
 3.5999999046326
   1
　
  41
 1.1111111405455
   7
STANDARD
 100
AcDbText
   0
TEXT
   5
33F
 100
AcDbEntity
   8
LEVEL001
 370
25
  62
3
 100
AcDbText
  10
-187.10787399611
  20
 126.32980531044
  30
0.0
  40
 3.5999999046326
   1
　
  41
 1.1111111405455
   7
STANDARD
 100
AcDbText
   0
TEXT
   5
340
 100
AcDbEntity
   8
LEVEL001
 370
25
  62
3
 100
AcDbText
  10
-179.10787399611
  20
 126.32980531044
  30
0.0
  40
 3.5999999046326
   1
　
  41
 1.1111111405455
   7
STANDARD
 100
AcDbText
   0
TEXT
   5
341
 100
AcDbEntity
   8
LEVEL001
 370
25
  62
3
 100
AcDbText
  10
-171.10787399611
  20
 126.32980531044
  30
0.0
  40
 3.5999999046326
   1
　
  41
 1.1111111405455
   7
STANDARD
 100
AcDbText
   0
TEXT
   5
342
 100
AcDbEntity
   8
LEVEL001
 370
25
  62
3
 100
AcDbText
  10
-163.10787399611
  20
 126.32980531044
  30
0.0
  40
 3.5999999046326
   1
　
  41
 1.1111111405455
   7
STANDARD
 100
AcDbText
   0
TEXT
   5
343
 100
AcDbEntity
   8
LEVEL001
 370
25
  62
3
 100
AcDbText
  10
-148.01046188674
  20
 128.45293610878
  30
0.0
  40
 3.5999999046326
   1
　
  41
 1.1111111405455
   7
STANDARD
 100
AcDbText
   0
TEXT
   5
344
 100
AcDbEntity
   8
LEVEL001
 370
25
  62
3
 100
AcDbText
  10
-144.01046188674
  20
 128.45293610878
  30
0.0
  40
 3.5999999046326
   1
　
  41
 1.1111111405455
   7
STANDARD
 100
AcDbText
   0
TEXT
   5
345
 100
AcDbEntity
   8
LEVEL001
 370
25
  62
3
 100
AcDbText
  10
-140.01046188674
  20
 128.45293610878
  30
0.0
  40
 3.5999999046326
   1
　
  41
 1.1111111405455
   7
STANDARD
 100
AcDbText
   0
TEXT
   5
346
 100
AcDbEntity
   8
LEVEL001
 370
25
  62
3
 100
AcDbText
  10
-136.01046188674
  20
 128.45293610878
  30
0.0
  40
 3.5999999046326
   1
　
  41
 1.1111111405455
   7
STANDARD
 100
AcDbText
   0
TEXT
   5
347
 100
AcDbEntity
   8
LEVEL001
 370
25
  62
3
 100
AcDbText
  10
-195.78447922072
  20
-135.37816423588
  30
0.0
  40
 3.5000000000000
   1
　
  41
 1.1428571428571
   7
STANDARD
 100
AcDbText
   0
TEXT
   5
348
 100
AcDbEntity
   8
LEVEL001
 370
25
  62
3
 100
AcDbText
  10
-191.78447922072
  20
-135.37816423588
  30
0.0
  40
 3.5000000000000
   1
 
  41
 0.57142857142857
   7
STANDARD
 100
AcDbText
   0
TEXT
   5
349
 100
AcDbEntity
   8
LEVEL001
 370
25
  62
3
 100
AcDbText
  10
-185.78447922072
  20
-135.37816423588
  30
0.0
  40
 3.5000000000000
   1
　
  41
 1.1428571428571
   7
STANDARD
 100
AcDbText
   0
TEXT
   5
34A
 100
AcDbEntity
   8
LEVEL001
 370
25
  62
3
 100
AcDbText
  10
-181.78447922072
  20
-135.37816423588
  30
0.0
  40
 3.5000000000000
   1
 
  41
 0.57142857142857
   7
STANDARD
 100
AcDbText
   0
TEXT
   5
34B
 100
AcDbEntity
   8
LEVEL001
 370
25
  62
3
 100
AcDbText
  10
-199.12780197463
  20
-127.74216264896
  30
0.0
  40
 3.5000000000000
   1
 
  41
 0.45714286395482
   7
STANDARD
 100
AcDbText
   0
TEXT
   5
34C
 100
AcDbEntity
   8
LEVEL001
 370
25
  62
3
 100
AcDbText
  10
-194.32779892287
  20
-127.74216264896
  30
0.0
  40
 3.5000000000000
   1
 
  41
 0.45714286395482
   7
STANDARD
 100
AcDbText
   0
TEXT
   5
34D
 100
AcDbEntity
   8
LEVEL001
 370
25
  62
3
 100
AcDbText
  10
-182.35412033400
  20
-127.74216264896
  30
0.0
  40
 3.5000000000000
   1
 
  41
 0.45714286395482
   7
STANDARD
 100
AcDbText
   0
TEXT
   5
34E
 100
AcDbEntity
   8
LEVEL001
 370
25
  62
3
 100
AcDbText
  10
-180.75411423049
  20
-127.74216264896
  30
0.0
  40
 3.5000000000000
   1
 
  41
 0.45714286395482
   7
STANDARD
 100
AcDbText
   0
TEXT
   5
34F
 100
AcDbEntity
   8
LEVEL001
 370
25
  62
3
 100
AcDbText
  10
-101.39085110030
  20
-145.43401152305
  30
0.0
  40
 4.0000000000000
   1
　
  41
 0.80000001192093
   7
STANDARD
 100
AcDbText
   0
TEXT
   5
350
 100
AcDbEntity
   8
LEVEL001
 370
25
  62
3
 100
AcDbText
  10
-98.190854152058
  20
-145.43401152305
  30
0.0
  40
 4.0000000000000
   1
　
  41
 0.80000001192093
   7
STANDARD
 100
AcDbText
   0
TEXT
   5
351
 100
AcDbEntity
   8
LEVEL001
 370
25
  62
3
 100
AcDbText
  10
-94.990849574421
  20
-145.43401152305
  30
0.0
  40
 4.0000000000000
   1
　
  41
 0.80000001192093
   7
STANDARD
 100
AcDbText
   0
TEXT
   5
352
 100
AcDbEntity
   8
LEVEL001
 370
25
  62
3
 100
AcDbText
  10
-137.13345821700
  20
-135.44821733646
  30
0.0
  40
 3.5000000000000
   1
　
  41
 0.71428571428571
   7
STANDARD
 100
AcDbText
   0
TEXT
   5
353
 100
AcDbEntity
   8
LEVEL001
 370
25
  62
3
 100
AcDbText
  10
-103.09236629805
  20
-135.48129839115
  30
0.0
  40
 3.5000000000000
   1
　
  41
 1.1428571428571
   7
STANDARD
 100
AcDbText
   0
TEXT
   5
354
 100
AcDbEntity
   8
LEVEL001
 370
25
  62
3
 100
AcDbText
  10
-105.09236629805
  20
-135.48129839115
  30
0.0
  40
 3.5000000000000
   1
　
  41
 1.1428571428571
   7
STANDARD
 100
AcDbText
   0
TEXT
   5
355
 100
AcDbEntity
   8
LEVEL001
 370
25
  62
3
 100
AcDbText
  10
-105.09234627089
  20
-135.48129839115
  30
0.0
  40
 3.5000000000000
   1
　
  41
 1.1428571428571
   7
STANDARD
 100
AcDbText
   0
POINT
   5
356
 100
AcDbEntity
   8
LEVEL001
 100
AcDbPoint
  62
7
  10
-210.00003412603
  20
-148.50000836058
  30
0.0
   0
LINE
   5
357
 100
AcDbEntity
   8
LEVEL001
 370
25
 100
AcDbLine
   6
CONTINUOUS
  62
3
  10
-161.99995119603
  20
 19.499890167754
  30
0.0
  11
 1342.0000488040
  21
 19.499890167754
  31
0.0
   0
LINE
   5
358
 100
AcDbEntity
   8
LEVEL001
 370
25
 100
AcDbLine
   6
CONTINUOUS
  62
3
  10
 430.00004880397
  20
-60.500109832246
  30
0.0
  11
 430.00004880397
  21
-140.50010983225
  31
0.0
   0
LWPOLYLINE
   5
359
 100
AcDbEntity
   8
LEVEL001
 370
40
   6
CONTINUOUS
  62
7
 100
AcDbPolyline
  90
6
  70
1
  10
-161.99995119603
  20
-140.50010983225
  10
 846.00004880397
  20
-140.50010983225
  10
 846.00004880397
  20
-60.500109832246
  10
 1342.0000488040
  20
-60.500109832246
  10
 1342.0000488040
  20
 2099.4998901678
  10
-161.99995119603
  20
 2099.4998901678
   0
LINE
   5
35A
 100
AcDbEntity
   8
LEVEL001
 370
25
 100
AcDbLine
   6
CONTINUOUS
  62
3
  10
 382.00004880397
  20
-60.500109832246
  30
0.0
  11
 846.00004880397
  21
-60.500109832246
  31
0.0
   0
LINE
   5
35B
 100
AcDbEntity
   8
LEVEL001
 370
25
 100
AcDbLine
   6
CONTINUOUS
  62
3
  10
 638.00014798610
  20
-60.500108878571
  30
0.0
  11
 638.00014798610
  21
-140.50010983225
  31
0.0
   0
LINE
   5
35C
 100
AcDbEntity
   8
LEVEL001
 370
25
 100
AcDbLine
   6
CONTINUOUS
  62
3
  10
 590.00014798610
  20
-60.500108878571
  30
0.0
  11
 590.00014798610
  21
-140.50010983225
  31
0.0
   0
LINE
   5
35D
 100
AcDbEntity
   8
LEVEL001
 370
25
 100
AcDbLine
   6
CONTINUOUS
  62
3
  10
 382.00004880397
  20
 19.499890167754
  30
0.0
  11
 382.00004880397
  21
-140.50010983225
  31
0.0
   0
INSERT
   5
35E
 100
AcDbEntity
   8
0
 100
AcDbBlockReference
   2
BLOCK001
  10
0.0
  20
0.0
  30
0.0
   0
MTEXT
   5
35F
 100
AcDbEntity
   8
LEVEL001
 370
40
  62
7
 100
AcDbMText
  10
 392.95033566921
  20
-68.013742702767
  30
0.0
  40
 19.200000000000
  41
0.0
  71
1
  72
3
   1
日付
   7
GMM001
   0
MTEXT
   5
360
 100
AcDbEntity
   8
LEVEL001
 370
40
  62
7
 100
AcDbMText
  10
 600.95043485133
  20
-68.836499913333
  30
0.0
  40
 19.200000000000
  41
0.0
  71
1
  72
3
   1
尺度
   7
GMM001
   0
LINE
   5
361
 100
AcDbEntity
   8
LEVEL001
 370
25
 100
AcDbLine
   6
CONTINUOUS
  62
3
  10
 846.00004880397
  20
 19.499890167754
  30
0.0
  11
 846.00004880397
  21
-60.500109832246
  31
0.0
   0
LINE
   5
362
 100
AcDbEntity
   8
LEVEL001
 370
25
 100
AcDbLine
   6
CONTINUOUS
  62
3
  10
 894.00004880397
  20
 19.499890167754
  30
0.0
  11
 894.00004880397
  21
-60.500109832246
  31
0.0
   0
MTEXT
   5
363
 100
AcDbEntity
   8
LEVEL001
 370
40
  62
7
 100
AcDbMText
  10
 385.11622078058
  20
-9.5341341905049
  30
0.0
  40
 19.200000000000
  41
0.0
  71
7
  72
1
   1
ワーク名称
   7
GMM002
   0
MTEXT
   5
364
 100
AcDbEntity
   8
LEVEL001
 370
40
  62
7
 100
AcDbMText
  10
 856.95033566921
  20
 9.9168005141472
  30
0.0
  40
 19.200000000000
  41
0.0
  71
1
  72
3
   1
図番
   7
GMM001
   0
MTEXT
   5
365
 100
AcDbEntity
   8
LEVEL001
 370
40
  62
7
 100
AcDbMText
  10
 321.75386894445
  20
-64.278322416869
  30
0.0
  40
 28.000000000000
  41
0.0
  71
7
  72
1
   1
様
   7
GMM003
   0
LINE
   5
366
 100
AcDbEntity
   8
LEVEL001
 370
25
 100
AcDbLine
   6
CONTINUOUS
  62
3
  10
-161.99995119603
  20
-76.500109832246
  30
0.0
  11
 382.00004880397
  21
-76.500109832246
  31
0.0
   0
MTEXT
   5
367
 100
AcDbEntity
   8
LEVEL001
 370
40
  62
7
 100
AcDbMText
  10
-154.35494268838
  20
-9.5341341905049
  30
0.0
  40
 19.200000000000
  41
0.0
  71
7
  72
1
   1
お客様
   7
GMM002
   0
MTEXT
   5
368
 100
AcDbEntity
   8
LEVEL001
 370
40
  62
7
 100
AcDbMText
  10
-154.35494268838
  20
-119.50897192247
  30
0.0
  40
 19.200000000000
  41
0.0
  71
7
  72
1
   1
仕様書番号
   7
GMM002
   0
MTEXT
   5
369
 100
AcDbEntity
   8
LEVEL001
 370
40
  62
7
 100
AcDbMText
  10
 651.07918600746
  20
-124.99663000495
  30
0.0
  40
 21.600000000000
  41
0.0
  71
4
  72
1
   1
Ａ４－１／８\P
   7
GMM002
   0
LINE
   5
36A
 100
AcDbEntity
   8
LEVEL001
 370
25
 100
AcDbLine
   6
DASHDOT
  62
3
  10
 1838.5401459854
  20
 807.44887353202
  30
0.0
  11
 1838.5401459854
  21
 759.12043795620
  31
0.0
   0
LINE
   5
36B
 100
AcDbEntity
   8
LEVEL001
 370
25
 100
AcDbLine
   6
DASHDOT
  62
3
  10
 686.53720835748
  20
 434.47038967078
  30
0.0
  11
 686.53720835748
  21
 260.08171841009
  31
0.0
   0
INSERT
   5
36C
 100
AcDbEntity
   8
0
 100
AcDbBlockReference
   2
BLOCK002
  10
0.0
  20
0.0
  30
0.0
   0
INSERT
   5
36D
 100
AcDbEntity
   8
0
 100
AcDbBlockReference
   2
BLOCK003
  10
0.0
  20
0.0
  30
0.0
   0
INSERT
   5
36E
 100
AcDbEntity
   8
0
 100
AcDbBlockReference
   2
BLOCK004
  10
0.0
  20
0.0
  30
0.0
   0
INSERT
   5
36F
 100
AcDbEntity
   8
0
 100
AcDbBlockReference
   2
BLOCK005
  10
0.0
  20
0.0
  30
0.0
   0
INSERT
   5
370
 100
AcDbEntity
   8
0
 100
AcDbBlockReference
   2
BLOCK006
  10
0.0
  20
0.0
  30
0.0
   0
INSERT
   5
371
 100
AcDbEntity
   8
0
 100
AcDbBlockReference
   2
BLOCK007
  10
0.0
  20
0.0
  30
0.0
   0
LWPOLYLINE
   5
372
 100
AcDbEntity
   8
LEVEL001
 370
40
   6
CONTINUOUS
  62
7
 100
AcDbPolyline
  90
4
  70
0
  10
 1294.1230254580
  20
 271.39214536928
  10
 1089.6014067995
  20
 271.39214536928
  10
 1089.6014067995
  20
 255.39214536928
  10
 1294.1230254580
  20
 255.39214536928
   0
LINE
   5
373
 100
AcDbEntity
   8
LEVEL001
 370
25
 100
AcDbLine
   6
DASHDOT
  62
3
  10
 1169.6014067995
  20
 663.31078521262
  30
0.0
  11
 1169.6014067995
  21
 231.27595396323
  31
0.0
   0
MTEXT
   5
374
 100
AcDbEntity
   8
LEVEL001
 370
9
  62
11
 100
AcDbMText
  10
 296.19522912462
  20
 416.77135135113
  30
0.0
  40
 16.000000000000
  41
0.0
  71
7
  72
1
   1
ＳＴ－５
   7
GMM002
   0
INSERT
   5
375
 100
AcDbEntity
   8
0
 100
AcDbBlockReference
   2
BLOCK008
  10
0.0
  20
0.0
  30
0.0
   0
LINE
   5
376
 100
AcDbEntity
   8
LEVEL001
 370
25
 100
AcDbLine
   6
DASHDOT
  62
3
  10
 410.53720835748
  20
 583.39214536928
  30
0.0
  11
 410.53720835748
  21
 261.50128384200
  31
0.0
   0
INSERT
   5
377
 100
AcDbEntity
   8
0
 100
AcDbBlockReference
   2
BLOCK009
  10
0.0
  20
0.0
  30
0.0
   0
LWPOLYLINE
   5
378
 100
AcDbEntity
   8
LEVEL001
 370
40
   6
CONTINUOUS
  62
7
 100
AcDbPolyline
  90
4
  70
1
  10
 1137.1014067995
  20
 621.89214536928
  10
 1202.1014067995
  20
 621.89214536928
  10
 1202.1014067995
  20
 637.89214536928
  10
 1137.1014067995
  20
 637.89214536928
   0
LWPOLYLINE
   5
379
 100
AcDbEntity
   8
LEVEL001
 370
40
   6
CONTINUOUS
  62
7
 100
AcDbPolyline
  90
4
  70
1
  10
 1153.6014067995
  20
 637.89214536928
  10
 1185.6014067995
  20
 637.89214536928
  10
 1185.6014067995
  20
 657.89214536928
  10
 1153.6014067995
  20
 657.89214536928
   0
INSERT
   5
37A
 100
AcDbEntity
   8
0
 100
AcDbBlockReference
   2
BLOCK010
  10
0.0
  20
0.0
  30
0.0
   0
LWPOLYLINE
   5
37B
 100
AcDbEntity
   8
LEVEL001
 370
40
   6
CONTINUOUS
  62
7
 100
AcDbPolyline
  90
4
  70
1
  10
 1132.1014067995
  20
 476.89214536928
  10
 1207.1014067995
  20
 476.89214536928
  10
 1207.1014067995
  20
 485.89214536928
  10
 1132.1014067995
  20
 485.89214536928
   0
LWPOLYLINE
   5
37C
 100
AcDbEntity
   8
LEVEL001
 370
40
   6
CONTINUOUS
  62
7
 100
AcDbPolyline
  90
4
  70
1
  10
 586.53720835748
  20
 476.89214536928
  10
 786.53720835748
  20
 476.89214536928
  10
 786.53720835748
  20
 485.89214536928
  10
 586.53720835748
  20
 485.89214536928
   0
INSERT
   5
37D
 100
AcDbEntity
   8
0
 100
AcDbBlockReference
   2
BLOCK011
  10
0.0
  20
0.0
  30
0.0
   0
LWPOLYLINE
   5
37E
 100
AcDbEntity
   8
LEVEL001
 370
40
   6
CONTINUOUS
  62
7
 100
AcDbPolyline
  90
4
  70
1
  10
 500.53720835748
  20
 637.89214536928
  10
 1020.5372083575
  20
 637.89214536928
  10
 1020.5372083575
  20
 657.89214536928
  10
 500.53720835748
  20
 657.89214536928
   0
LINE
   5
37F
 100
AcDbEntity
   8
LEVEL001
 370
40
 100
AcDbLine
   6
CONTINUOUS
  62
7
  10
 580.53720835748
  20
 637.89214536928
  30
0.0
  11
 580.53720835748
  21
 621.89214536928
  31
0.0
   0
LINE
   5
380
 100
AcDbEntity
   8
LEVEL001
 370
40
 100
AcDbLine
   6
CONTINUOUS
  62
7
  10
 810.53720835748
  20
 621.89214536928
  30
0.0
  11
 810.53720835748
  21
 637.89214536928
  31
0.0
   0
MTEXT
   5
381
 100
AcDbEntity
   8
LEVEL001
 370
9
  62
11
 100
AcDbMText
  10
 639.06251363633
  20
 530.35661930660
  30
0.0
  40
 16.000000000000
  41
0.0
  71
7
  72
1
   1
ＳＨ－２０
   7
GMM002
   0
INSERT
   5
382
 100
AcDbEntity
   8
0
 100
AcDbBlockReference
   2
BLOCK012
  10
0.0
  20
0.0
  30
0.0
   0
INSERT
   5
383
 100
AcDbEntity
   8
0
 100
AcDbBlockReference
   2
BLOCK013
  10
0.0
  20
0.0
  30
0.0
   0
INSERT
   5
384
 100
AcDbEntity
   8
0
 100
AcDbBlockReference
   2
BLOCK014
  10
0.0
  20
0.0
  30
0.0
   0
INSERT
   5
385
 100
AcDbEntity
   8
0
 100
AcDbBlockReference
   2
BLOCK015
  10
0.0
  20
0.0
  30
0.0
   0
MTEXT
   5
386
 100
AcDbEntity
   8
LEVEL001
 370
9
  62
11
 100
AcDbMText
  10
 535.56004606056
  20
 689.06470116363
  30
0.0
  40
 16.000000000000
  41
0.0
  71
7
  72
1
   1
Ａ－９
   7
GMM002
   0
DIMENSION
   5
387
 100
AcDbEntity
   8
LEVEL001
 370
40
   6
CONTINUOUS
  62
7
 100
AcDbDimension
   2
*D1
  10
 870.86628454359
  20
 271.39214536928
  30
0.0
  11
 870.86628454359
  21
 294.94246813131
  31
0.0
  70
128
   3
GMM001
 100
AcDbAlignedDimension
  13
 800.53720835748
  23
 255.39214536928
  33
0.0
  14
 800.53720835748
  24
 271.39214536928
  34
0.0
  50
 90.000000000000
 100
AcDbRotatedDimension
   0
DIMENSION
   5
388
 100
AcDbEntity
   8
LEVEL001
 370
40
   6
CONTINUOUS
  62
7
 100
AcDbDimension
   2
*D2
  10
 918.21915675930
  20
 657.89214536928
  30
0.0
  11
 918.21915675930
  21
 456.64214536928
  31
0.0
  70
0
   3
GMM002
 100
AcDbAlignedDimension
  13
 800.53720835748
  23
 255.39214536928
  33
0.0
  14
 918.21915675930
  24
 657.89214536928
  34
0.0
  50
 90.000000000000
 100
AcDbRotatedDimension
   0
DIMENSION
   5
389
 100
AcDbEntity
   8
LEVEL001
 370
40
   6
CONTINUOUS
  62
7
 100
AcDbDimension
   2
*D3
  10
 500.53720835748
  20
 790.20105509965
  30
0.0
  11
 455.53720835748
  21
 790.20105509965
  31
0.0
  70
0
   3
GMM003
 100
AcDbAlignedDimension
  13
 410.53720835748
  23
 757.75624459881
  33
0.0
  14
 500.53720835748
  24
 657.89214536928
  34
0.0
 100
AcDbRotatedDimension
   0
DIMENSION
   5
38A
 100
AcDbEntity
   8
LEVEL001
 370
40
   6
CONTINUOUS
  62
7
 100
AcDbDimension
   2
*D4
  10
 1020.5372083575
  20
 790.20105509965
  30
0.0
  11
 760.53720835748
  21
 790.20105509965
  31
0.0
  70
0
   3
GMM003
 100
AcDbAlignedDimension
  13
 500.53720835748
  23
 657.89214536928
  33
0.0
  14
 1020.5372083575
  24
 657.89214536928
  34
0.0
 100
AcDbRotatedDimension
   0
DIMENSION
   5
38B
 100
AcDbEntity
   8
LEVEL001
 370
40
   6
CONTINUOUS
  62
7
 100
AcDbDimension
   2
*D5
  10
 185.53720835748
  20
 851.48124267292
  30
0.0
  11
 410.53720835748
  21
 851.48124267292
  31
0.0
  70
0
   3
GMM004
 100
AcDbAlignedDimension
  13
 635.53720835748
  23
 730.39214536928
  33
0.0
  14
 185.53720835748
  24
 730.39214536928
  34
0.0
  50
 180.00000000000
 100
AcDbRotatedDimension
   0
LWPOLYLINE
   5
38C
 100
AcDbEntity
   8
LEVEL001
 370
40
   6
CONTINUOUS
  62
7
 100
AcDbPolyline
  90
4
  70
1
  10
 500.53720835748
  20
 1551.8235638921
  10
 1020.5372083575
  20
 1551.8235638921
  10
 1020.5372083575
  20
 1519.8235638921
  10
 500.53720835748
  20
 1519.8235638921
   0
INSERT
   5
38D
 100
AcDbEntity
   8
0
 100
AcDbBlockReference
   2
BLOCK016
  10
0.0
  20
0.0
  30
0.0
   0
INSERT
   5
38E
 100
AcDbEntity
   8
0
 100
AcDbBlockReference
   2
BLOCK017
  10
0.0
  20
0.0
  30
0.0
   0
LWPOLYLINE
   5
38F
 100
AcDbEntity
   8
LEVEL001
 370
40
   6
CONTINUOUS
  62
7
 100
AcDbPolyline
  90
4
  70
0
  10
 586.53720835748
  20
 1569.3235638921
  10
 586.53720835748
  20
 1573.3235638921
  10
 786.53720835748
  20
 1573.3235638921
  10
 786.53720835748
  20
 1569.3235638921
   0
LWPOLYLINE
   5
390
 100
AcDbEntity
   8
LEVEL001
 370
40
   6
CONTINUOUS
  62
7
 100
AcDbPolyline
  90
4
  70
0
  10
 586.53720835748
  20
 1502.3235638921
  10
 586.53720835748
  20
 1498.3235638921
  10
 786.53720835748
  20
 1498.3235638921
  10
 786.53720835748
  20
 1502.3235638921
   0
LINE
   5
391
 100
AcDbEntity
   8
LEVEL001
 370
9
 100
AcDbLine
   6
DOT
  62
11
  10
 586.53720835748
  20
 1502.3235638921
  30
0.0
  11
 586.53720835748
  21
 1569.3235638921
  31
0.0
   0
LINE
   5
392
 100
AcDbEntity
   8
LEVEL001
 370
9
 100
AcDbLine
   6
DOT
  62
11
  10
 786.53720835748
  20
 1502.3235638921
  30
0.0
  11
 786.53720835748
  21
 1569.3235638921
  31
0.0
   0
LINE
   5
393
 100
AcDbEntity
   8
LEVEL001
 370
9
 100
AcDbLine
   6
DOT
  62
11
  10
 766.53720835748
  20
 1502.3235638921
  30
0.0
  11
 766.53720835748
  21
 1569.3235638921
  31
0.0
   0
LINE
   5
394
 100
AcDbEntity
   8
LEVEL001
 370
9
 100
AcDbLine
   6
DOT
  62
11
  10
 606.53720835748
  20
 1502.3235638921
  30
0.0
  11
 606.53720835748
  21
 1569.3235638921
  31
0.0
   0
LINE
   5
395
 100
AcDbEntity
   8
LEVEL001
 370
40
 100
AcDbLine
   6
CONTINUOUS
  62
7
  10
 606.53720835748
  20
 1569.3235638921
  30
0.0
  11
 606.53720835748
  21
 1573.3235638921
  31
0.0
   0
LINE
   5
396
 100
AcDbEntity
   8
LEVEL001
 370
40
 100
AcDbLine
   6
CONTINUOUS
  62
7
  10
 766.53720835748
  20
 1569.3235638921
  30
0.0
  11
 766.53720835748
  21
 1573.3235638921
  31
0.0
   0
LINE
   5
397
 100
AcDbEntity
   8
LEVEL001
 370
40
 100
AcDbLine
   6
CONTINUOUS
  62
7
  10
 766.53720835748
  20
 1502.3235638921
  30
0.0
  11
 766.53720835748
  21
 1498.3235638921
  31
0.0
   0
LINE
   5
398
 100
AcDbEntity
   8
LEVEL001
 370
40
 100
AcDbLine
   6
CONTINUOUS
  62
7
  10
 606.53720835748
  20
 1502.3235638921
  30
0.0
  11
 606.53720835748
  21
 1498.3235638921
  31
0.0
   0
LINE
   5
399
 100
AcDbEntity
   8
LEVEL001
 370
9
 100
AcDbLine
   6
DASHDOT
  62
11
  10
 686.53720835748
  20
 1493.6033332074
  30
0.0
  11
 686.53720835748
  21
 1579.5025983548
  31
0.0
   0
INSERT
   5
39A
 100
AcDbEntity
   8
0
 100
AcDbBlockReference
   2
BLOCK018
  10
0.0
  20
0.0
  30
0.0
   0
INSERT
   5
39B
 100
AcDbEntity
   8
0
 100
AcDbBlockReference
   2
BLOCK019
  10
0.0
  20
0.0
  30
0.0
   0
INSERT
   5
39C
 100
AcDbEntity
   8
0
 100
AcDbBlockReference
   2
BLOCK020
  10
0.0
  20
0.0
  30
0.0
   0
INSERT
   5
39D
 100
AcDbEntity
   8
0
 100
AcDbBlockReference
   2
BLOCK021
  10
0.0
  20
0.0
  30
0.0
   0
INSERT
   5
39E
 100
AcDbEntity
   8
0
 100
AcDbBlockReference
   2
BLOCK022
  10
0.0
  20
0.0
  30
0.0
   0
CIRCLE
   5
39F
 100
AcDbEntity
   8
LEVEL001
 370
40
 100
AcDbCircle
   6
CONTINUOUS
  62
7
  10
 775.53720835748
  20
 1590.8235638921
  30
0.0
  40
 7.0000000000000
   0
LINE
   5
3A0
 100
AcDbEntity
   8
LEVEL001
 370
25
 100
AcDbLine
   6
DASHDOT
  62
3
  10
 775.53720835748
  20
 1578.8235638921
  30
0.0
  11
 775.53720835748
  21
 1602.8235638921
  31
0.0
   0
LINE
   5
3A1
 100
AcDbEntity
   8
LEVEL001
 370
25
 100
AcDbLine
   6
DASHDOT
  62
3
  10
 787.53720835748
  20
 1590.8235638921
  30
0.0
  11
 763.53720835748
  21
 1590.8235638921
  31
0.0
   0
LINE
   5
3A2
 100
AcDbEntity
   8
LEVEL001
 370
25
 100
AcDbLine
   6
DOT
  62
3
  10
 800.53720835748
  20
 1502.3235638921
  30
0.0
  11
 800.53720835748
  21
 1569.3235638921
  31
0.0
   0
DIMENSION
   5
3A3
 100
AcDbEntity
   8
LEVEL001
 370
40
   6
CONTINUOUS
  62
7
 100
AcDbDimension
   2
*D6
  10
 918.21915675930
  20
 1535.8235638921
  30
0.0
  11
 918.21915675930
  21
 1585.3919844527
  31
0.0
  70
128
   3
GMM005
 100
AcDbAlignedDimension
  13
 800.53720835748
  23
 1615.8235638921
  33
0.0
  14
 919.41656618943
  24
 1535.8235638921
  34
0.0
  50
 270.00000000000
 100
AcDbRotatedDimension
   0
DIMENSION
   5
3A4
 100
AcDbEntity
   8
LEVEL001
 370
40
   6
CONTINUOUS
  62
7
 100
AcDbDimension
   2
*D7
  10
 918.21915675930
  20
 1295.8235638921
  30
0.0
  11
 918.21915675930
  21
 1415.8235638921
  31
0.0
  70
0
   1
\A1;（２４０）
   3
GMM006
 100
AcDbAlignedDimension
  13
 919.41656618943
  23
 1535.8235638921
  33
0.0
  14
 875.09543274363
  24
 1295.8235638921
  34
0.0
  50
 270.00000000000
 100
AcDbRotatedDimension
   0
INSERT
   5
3A6
 100
AcDbEntity
   8
0
 100
AcDbBlockReference
   2
BLOCK023
  10
0.0
  20
0.0
  30
0.0
   0
LINE
   5
3A7
 100
AcDbEntity
   8
LEVEL001
 370
25
 100
AcDbLine
   6
DASHDOT
  62
3
  10
 1050.0981577342
  20
 1535.8235638921
  30
0.0
  11
 410.53720835748
  21
 1535.8235638921
  31
0.0
   0
INSERT
   5
3A8
 100
AcDbEntity
   8
0
 100
AcDbBlockReference
   2
BLOCK024
  10
0.0
  20
0.0
  30
0.0
   0
LINE
   5
3A9
 100
AcDbEntity
   8
LEVEL001
 370
25
 100
AcDbLine
   6
DASHDOT
  62
3
  10
 410.53720835748
  20
 931.52660623910
  30
0.0
  11
 410.53720835748
  21
 1593.0394709600
  31
0.0
   0
CIRCLE
   5
3AA
 100
AcDbEntity
   8
LEVEL001
 370
40
 100
AcDbCircle
   6
CONTINUOUS
  62
7
  10
 175.53720835748
  20
 1590.8235638921
  30
0.0
  40
 7.0000000000000
   0
LINE
   5
3AB
 100
AcDbEntity
   8
LEVEL001
 370
25
 100
AcDbLine
   6
DASHDOT
  62
3
  10
 175.53720835748
  20
 1578.8235638921
  30
0.0
  11
 175.53720835748
  21
 1602.8235638921
  31
0.0
   0
LINE
   5
3AC
 100
AcDbEntity
   8
LEVEL001
 370
25
 100
AcDbLine
   6
DASHDOT
  62
3
  10
 187.53720835748
  20
 1590.8235638921
  30
0.0
  11
 163.53720835748
  21
 1590.8235638921
  31
0.0
   0
DIMENSION
   5
3AD
 100
AcDbEntity
   8
LEVEL001
 370
40
   6
CONTINUOUS
  62
7
 100
AcDbDimension
   2
*D8
  10
 775.53720835748
  20
 1716.4284876905
  30
0.0
  11
 475.53720835748
  21
 1716.4284876905
  31
0.0
  70
0
   3
GMM003
 100
AcDbAlignedDimension
  13
 175.53720835748
  23
 1602.8235638921
  33
0.0
  14
 775.53720835748
  24
 1602.8235638921
  34
0.0
 100
AcDbRotatedDimension
   0
DIMENSION
   5
3AE
 100
AcDbEntity
   8
LEVEL001
 370
40
   6
CONTINUOUS
  62
7
 100
AcDbDimension
   2
*D9
  10
 800.53720835748
  20
 1716.4284876905
  30
0.0
  11
 825.12906583202
  21
 1716.4284876905
  31
0.0
  70
128
   3
GMM007
 100
AcDbAlignedDimension
  13
 775.53720835748
  23
 1602.8235638921
  33
0.0
  14
 800.53720835748
  24
 1615.8235638921
  34
0.0
 100
AcDbRotatedDimension
   0
DIMENSION
   5
3AF
 100
AcDbEntity
   8
LEVEL001
 370
40
   6
CONTINUOUS
  62
7
 100
AcDbDimension
   2
*D10
  10
 800.53720835748
  20
 1777.7086752638
  30
0.0
  11
 475.53720835748
  21
 1777.7086752638
  31
0.0
  70
0
   3
GMM003
 100
AcDbAlignedDimension
  13
 150.53720835748
  23
 1615.8235638921
  33
0.0
  14
 800.53720835748
  24
 1615.8235638921
  34
0.0
 100
AcDbRotatedDimension
   0
DIMENSION
   5
3B0
 100
AcDbEntity
   8
LEVEL001
 370
40
   6
CONTINUOUS
  62
7
 100
AcDbDimension
   2
*D11
  10
 1020.5372083575
  20
 1777.7086752638
  30
0.0
  11
 910.53720835748
  21
 1777.7086752638
  31
0.0
  70
0
   3
GMM003
 100
AcDbAlignedDimension
  13
 800.53720835748
  23
 1615.8235638921
  33
0.0
  14
 1020.5372083575
  24
 1551.8235638921
  34
0.0
 100
AcDbRotatedDimension
   0
LEADER
   5
3B1
 100
AcDbEntity
   8
LEVEL001
 370
40
   6
CONTINUOUS
  62
3
 100
AcDbLeader
   3
GMM008
  73
0
  74
0
  75
0
  40
 20.000000000000
  41
 243.00265873939
  76
2
  10
 171.67152001095
  20
 1599.0186715466
  30
0.0
  10
 34.714739065653
  20
 1853.1275126526
  30
0.0
  77
3
 340
3B3
 213
0.0
 223
-8.5714285714287
 233
0.0
   0
MTEXT
   5
3B3
 102
{ACAD_REACTORS
 330
3B2
 102
}
 100
AcDbEntity
   8
LEVEL001
 370
40
  62
7
 100
AcDbMText
  10
 53.717397805038
  20
 1861.6989412240
  30
0.0
  40
 20.000000000000
  41
0.0
  71
7
  72
1
   1
\A1;４－φ１４取付穴
   7
GMM003
   0
CIRCLE
   5
3B4
 100
AcDbEntity
   8
LEVEL001
 370
40
 100
AcDbCircle
   6
CONTINUOUS
  62
7
  10
 775.53720835748
  20
 1040.8235638921
  30
0.0
  40
 7.0000000000000
   0
LINE
   5
3B5
 100
AcDbEntity
   8
LEVEL001
 370
25
 100
AcDbLine
   6
DASHDOT
  62
3
  10
 775.53720835748
  20
 1028.8235638921
  30
0.0
  11
 775.53720835748
  21
 1052.8235638921
  31
0.0
   0
LINE
   5
3B6
 100
AcDbEntity
   8
LEVEL001
 370
25
 100
AcDbLine
   6
DASHDOT
  62
3
  10
 787.53720835748
  20
 1040.8235638921
  30
0.0
  11
 763.53720835748
  21
 1040.8235638921
  31
0.0
   0
CIRCLE
   5
3B7
 100
AcDbEntity
   8
LEVEL001
 370
40
 100
AcDbCircle
   6
CONTINUOUS
  62
7
  10
 175.53720835748
  20
 1040.8235638921
  30
0.0
  40
 7.0000000000000
   0
LINE
   5
3B8
 100
AcDbEntity
   8
LEVEL001
 370
25
 100
AcDbLine
   6
DASHDOT
  62
3
  10
 175.53720835748
  20
 1028.8235638921
  30
0.0
  11
 175.53720835748
  21
 1052.8235638921
  31
0.0
   0
LINE
   5
3B9
 100
AcDbEntity
   8
LEVEL001
 370
25
 100
AcDbLine
   6
DASHDOT
  62
3
  10
 187.53720835748
  20
 1040.8235638921
  30
0.0
  11
 163.53720835748
  21
 1040.8235638921
  31
0.0
   0
LWPOLYLINE
   5
3BA
 100
AcDbEntity
   8
LEVEL001
 370
40
   6
CONTINUOUS
  62
7
 100
AcDbPolyline
  90
3
  70
0
  10
 800.53720835748
  20
 1502.3235638921
  10
 800.53720835748
  20
 1015.8235638921
  10
 564.49116835838
  20
 1015.8235638921
   0
LINE
   5
3BB
 100
AcDbEntity
   8
LEVEL001
 370
25
 100
AcDbLine
   6
DOT
  62
3
  10
 211.58324835658
  20
 1015.8235638921
  30
0.0
  11
 564.49116835838
  21
 1015.8235638921
  31
0.0
   0
LWPOLYLINE
   5
3BC
 100
AcDbEntity
   8
LEVEL001
 370
40
   6
CONTINUOUS
  62
7
 100
AcDbPolyline
  90
3
  70
0
  10
 211.58324835658
  20
 1015.8235638921
  10
 150.53720835748
  20
 1015.8235638921
  10
 150.53720835748
  20
 1072.8734408033
   0
LWPOLYLINE
   5
3BD
 100
AcDbEntity
   8
LEVEL001
 370
40
   6
CONTINUOUS
  62
7
 100
AcDbPolyline
  90
4
  70
0
  10
 150.53720835748
  20
 1466.6026713710
  10
 150.53720835748
  20
 1615.8235638921
  10
 800.53720835748
  20
 1615.8235638921
  10
 800.53720835748
  20
 1569.3235638921
   0
LINE
   5
3BE
 100
AcDbEntity
   8
LEVEL001
 370
25
 100
AcDbLine
   6
DOT
  62
3
  10
 150.53720835748
  20
 1072.8734408033
  30
0.0
  11
 150.53720835748
  21
 1466.6026713710
  31
0.0
   0
LINE
   5
3BF
 100
AcDbEntity
   8
LEVEL001
 370
25
 100
AcDbLine
   6
DASHDOT
  62
3
  10
 875.09543274363
  20
 1295.8235638921
  30
0.0
  11
 56.194607268464
  21
 1295.8235638921
  31
0.0
   0
DIMENSION
   5
3C0
 100
AcDbEntity
   8
LEVEL001
 370
40
   6
CONTINUOUS
  62
7
 100
AcDbDimension
   2
*D13
  10
 36.696365767878
  20
 1590.8235638921
  30
0.0
  11
 36.696365767878
  21
 1640.6214328843
  31
0.0
  70
128
   3
GMM009
 100
AcDbAlignedDimension
  13
 150.53720835748
  23
 1615.8235638921
  33
0.0
  14
 163.53720835748
  24
 1590.8235638921
  34
0.0
  50
 270.00000000000
 100
AcDbRotatedDimension
   0
DIMENSION
   5
3C1
 100
AcDbEntity
   8
LEVEL001
 370
40
   6
CONTINUOUS
  62
7
 100
AcDbDimension
   2
*D14
  10
 36.696365767878
  20
 1040.8235638921
  30
0.0
  11
 36.696365767878
  21
 1315.8235638921
  31
0.0
  70
0
   3
GMM003
 100
AcDbAlignedDimension
  13
 163.53720835748
  23
 1590.8235638921
  33
0.0
  14
 163.53720835748
  24
 1040.8235638921
  34
0.0
  50
 270.00000000000
 100
AcDbRotatedDimension
   0
DIMENSION
   5
3C2
 100
AcDbEntity
   8
LEVEL001
 370
40
   6
CONTINUOUS
  62
7
 100
AcDbDimension
   2
*D15
  10
-24.583821805393
  20
 1015.8235638921
  30
0.0
  11
-24.583821805393
  21
 1315.8235638921
  31
0.0
  70
0
   3
GMM003
 100
AcDbAlignedDimension
  13
 150.53720835748
  23
 1615.8235638921
  33
0.0
  14
 150.53720835748
  24
 1015.8235638921
  34
0.0
  50
 270.00000000000
 100
AcDbRotatedDimension
   0
LWPOLYLINE
   5
3C3
 100
AcDbEntity
   8
LEVEL001
 370
40
   6
CONTINUOUS
  62
7
 100
AcDbPolyline
  90
4
  70
1
  10
 150.53720835748
  20
 255.39214536928
  10
 800.53720835748
  20
 255.39214536928
  10
 800.53720835748
  20
 271.39214536928
  10
 150.53720835748
  20
 271.39214536928
   0
DIMENSION
   5
3C4
 100
AcDbEntity
   8
LEVEL001
 370
40
   6
CONTINUOUS
  62
7
 100
AcDbDimension
   2
*D16
  10
 36.696365767878
  20
 730.39214536928
  30
0.0
  11
 36.696365767878
  21
 492.89214536928
  31
0.0
  70
0
   1
\A1;（４７５）
   3
GMM006
 100
AcDbAlignedDimension
  13
 150.53720835748
  23
 255.39214536928
  33
0.0
  14
 185.53720835748
  24
 730.39214536928
  34
0.0
  50
 90.000000000000
 100
AcDbRotatedDimension
   0
MTEXT
   5
3C6
 100
AcDbEntity
   8
LEVEL001
 370
40
  62
7
 100
AcDbMText
  10
 927.44820588536
  20
-36.495452298573
  30
0.0
  40
 24.000000000000
  41
0.0
  71
7
  72
1
   1
ＳＴ５Ｒａ９／ＳＨ２０
   7
GMM002
   0
ENDSEC
  0
SECTION
  2
OBJECTS
  0
DICTIONARY
  5
C
100
AcDbDictionary
  3
ACAD_GROUP
350
D
  3
ACAD_MLINESTYLE
350
1B
  0
DICTIONARY
  5
D
102
{ACAD_REACTORS
330
C
102
}
100
AcDbDictionary
  0
DICTIONARY
  5
1B
102
{ACAD_REACTORS
330
C
102
}
100
AcDbDictionary
  3
STANDARD
350
1C
  0
MLINESTYLE
  5
1C
102
{ACAD_REACTORS
330
1B
102
}
100
AcDbMlineStyle
  2
STANDARD
 70
     0
  3

 62
   256
 51
90.0
 52
90.0
 71
     2
 49
0.5
 62
   256
  6
BYLAYER
 49
-0.5
 62
   256
  6
BYLAYER
  0
ENDSEC
   0
EOF
