   0
SECTION
   2
HEADER
   9
$ACADVER
   1
AC1015
   9
$DWGCODEPAGE
   3
ANSI_932
   9
$LIMMIN
  10
-210.00000000000
  20
-148.50000000000
   9
$LIMMAX
  10
 1050.0000000000
  20
 1633.5000000000
   9
$EXTMIN
  10
-210.00000000000
  20
-148.50000000000
  30
0.0
   9
$EXTMAX
  10
 1050.0000000000
  20
 1633.5000000000
  30
0.0
   9
$LTSCALE
  40
 35.640000000000
   9
$HANDSEED
   5
3C4
   0
ENDSEC
   0
SECTION
   2
TABLES
  0
TABLE
  2
VPORT
  5
8
100
AcDbSymbolTable
 70
     1
  0
VPORT
  5
3C3
100
AcDbSymbolTableRecord
100
AcDbViewportTableRecord
  2
*ACTIVE
 70
     0
 10
0.0
 20
0.0
 11
1.0
 21
1.0
  12
 420.00000000000
  22
 742.50000000000
 13
0.0
 23
0.0
 14
1.0
 24
1.0
 15
0.0
 25
0.0
 16
0.0
 26
0.0
 36
1.0
 17
0.0
 27
0.0
 37
0.0
  40
 1782.0000000000
  41
 1.4787878787879
 42
50.0
 43
0.0
 44
0.0
 50
0.0
 51
0.0
 71
     0
 72
   100
 73
     1
 74
     1
 75
     0
 76
     0
 77
     0
 78
     0
  0
ENDTAB
  0
TABLE
  2
LTYPE
  5
5
100
AcDbSymbolTable
 70
    25
  0
LTYPE
  5
12
100
AcDbSymbolTableRecord
100
AcDbLinetypeTableRecord
  2
BYBLOCK
 70
     0
  3

 72
    65
 73
     0
 40
0.0
  0
LTYPE
  5
13
100
AcDbSymbolTableRecord
100
AcDbLinetypeTableRecord
  2
BYLAYER
 70
     0
  3

 72
    65
 73
     0
 40
0.0
  0
LTYPE
  5
14
100
AcDbSymbolTableRecord
100
AcDbLinetypeTableRecord
  2
CONTINUOUS
 70
     0
  3
Solid line
 72
    65
 73
     0
 40
0.0
  0
LTYPE
  5
20
100
AcDbSymbolTableRecord
100
AcDbLinetypeTableRecord
  2
BORDER
 70
     0
  3
__ __ . __ __ . __ __ . __ __ . __ __ . __ __ .
 72
    65
 73
     6
 40
1.75
 49
0.5
 74
     0
 49
-0.25
 74
     0
 49
0.5
 74
     0
 49
-0.25
 74
     0
 49
0.0
 74
     0
 49
-0.25
 74
     0
  0
LTYPE
  5
21
100
AcDbSymbolTableRecord
100
AcDbLinetypeTableRecord
  2
BORDER2
 70
     0
  3
__.__.__.__.__.__.__.__.__.__.__.__.__.__.__.__
 72
    65
 73
     6
 40
0.875
 49
0.25
 74
     0
 49
-0.125
 74
     0
 49
0.25
 74
     0
 49
-0.125
 74
     0
 49
0.0
 74
     0
 49
-0.125
 74
     0
  0
LTYPE
  5
22
100
AcDbSymbolTableRecord
100
AcDbLinetypeTableRecord
  2
BORDERX2
 70
     0
  3
____  ____  .  ____  ____  .  ____  ____  .  __
 72
    65
 73
     6
 40
3.5
 49
1.0
 74
     0
 49
-0.5
 74
     0
 49
1.0
 74
     0
 49
-0.5
 74
     0
 49
0.0
 74
     0
 49
-0.5
 74
     0
  0
LTYPE
  5
23
100
AcDbSymbolTableRecord
100
AcDbLinetypeTableRecord
  2
CENTER
 70
     0
  3
____ _ ____ _ ____ _ ____ _ ____ _ ____ _ ____ 
 72
    65
 73
     4
 40
2.0
 49
1.25
 74
     0
 49
-0.25
 74
     0
 49
0.25
 74
     0
 49
-0.25
 74
     0
  0
LTYPE
  5
24
100
AcDbSymbolTableRecord
100
AcDbLinetypeTableRecord
  2
CENTER2
 70
     0
  3
___ _ ___ _ ___ _ ___ _ ___ _ ___ _ ___ _ ___ _
 72
    65
 73
     4
 40
1.125
 49
0.75
 74
     0
 49
-0.125
 74
     0
 49
0.125
 74
     0
 49
-0.125
 74
     0
  0
LTYPE
  5
25
100
AcDbSymbolTableRecord
100
AcDbLinetypeTableRecord
  2
CENTERX2
 70
     0
  3
________  __  ________  __  ________  __  _____
 72
    65
 73
     4
 40
4.0
 49
2.5
 74
     0
 49
-0.5
 74
     0
 49
0.5
 74
     0
 49
-0.5
 74
     0
  0
LTYPE
  5
26
100
AcDbSymbolTableRecord
100
AcDbLinetypeTableRecord
  2
DASHDOT
 70
     0
  3
__ . __ . __ . __ . __ . __ . __ . __ . __ . __
 72
    65
 73
     4
 40
1.0
 49
0.5
 74
     0
 49
-0.25
 74
     0
 49
0.0
 74
     0
 49
-0.25
 74
     0
  0
LTYPE
  5
27
100
AcDbSymbolTableRecord
100
AcDbLinetypeTableRecord
  2
DASHDOT2
 70
     0
  3
_._._._._._._._._._._._._._._._._._._._._._._._
 72
    65
 73
     4
 40
0.5
 49
0.25
 74
     0
 49
-0.125
 74
     0
 49
0.0
 74
     0
 49
-0.125
 74
     0
  0
LTYPE
  5
28
100
AcDbSymbolTableRecord
100
AcDbLinetypeTableRecord
  2
DASHDOTX2
 70
     0
  3
____  .  ____  .  ____  .  ____  .  ____  .  __
 72
    65
 73
     4
 40
2.0
 49
1.0
 74
     0
 49
-0.5
 74
     0
 49
0.0
 74
     0
 49
-0.5
 74
     0
  0
LTYPE
  5
29
100
AcDbSymbolTableRecord
100
AcDbLinetypeTableRecord
  2
DASHED
 70
     0
  3
__ __ __ __ __ __ __ __ __ __ __ __ __ __ __ __
 72
    65
 73
     2
 40
0.75
 49
0.5
 74
     0
 49
-0.25
 74
     0
  0
LTYPE
  5
2A
100
AcDbSymbolTableRecord
100
AcDbLinetypeTableRecord
  2
DASHED2
 70
     0
  3
_ _ _ _ _ _ _ _ _ _ _ _ _ _ _ _ _ _ _ _ _ _ _ _
 72
    65
 73
     2
 40
0.375
 49
0.25
 74
     0
 49
-0.125
 74
     0
  0
LTYPE
  5
2B
100
AcDbSymbolTableRecord
100
AcDbLinetypeTableRecord
  2
DASHEDX2
 70
     0
  3
____  ____  ____  ____  ____  ____  ____  ____ 
 72
    65
 73
     2
 40
1.5
 49
1.0
 74
     0
 49
-0.5
 74
     0
  0
LTYPE
  5
2C
100
AcDbSymbolTableRecord
100
AcDbLinetypeTableRecord
  2
DIVIDE
 70
     0
  3
____ . . ____ . . ____ . . ____ . . ____ . . __
 72
    65
 73
     6
 40
1.25
 49
0.5
 74
     0
 49
-0.25
 74
     0
 49
0.0
 74
     0
 49
-0.25
 74
     0
 49
0.0
 74
     0
 49
-0.25
 74
     0
  0
LTYPE
  5
2D
100
AcDbSymbolTableRecord
100
AcDbLinetypeTableRecord
  2
DIVIDE2
 70
     0
  3
__..__..__..__..__..__..__..__..__..__..__..__.
 72
    65
 73
     6
 40
0.625
 49
0.25
 74
     0
 49
-0.125
 74
     0
 49
0.0
 74
     0
 49
-0.125
 74
     0
 49
0.0
 74
     0
 49
-0.125
 74
     0
  0
LTYPE
  5
2E
100
AcDbSymbolTableRecord
100
AcDbLinetypeTableRecord
  2
DIVIDEX2
 70
     0
  3
________  .  .  ________  .  .  ________  .  . 
 72
    65
 73
     6
 40
2.5
 49
1.0
 74
     0
 49
-0.5
 74
     0
 49
0.0
 74
     0
 49
-0.5
 74
     0
 49
0.0
 74
     0
 49
-0.5
 74
     0
  0
LTYPE
  5
2F
100
AcDbSymbolTableRecord
100
AcDbLinetypeTableRecord
  2
DOT
 70
     0
  3
. . . . . . . . . . . . . . . . . . . . . . . .
 72
    65
 73
     2
 40
0.25
 49
0.0
 74
     0
 49
-0.25
 74
     0
  0
LTYPE
  5
30
100
AcDbSymbolTableRecord
100
AcDbLinetypeTableRecord
  2
DOT2
 70
     0
  3
...............................................
 72
    65
 73
     2
 40
0.125
 49
0.0
 74
     0
 49
-0.125
 74
     0
  0
LTYPE
  5
31
100
AcDbSymbolTableRecord
100
AcDbLinetypeTableRecord
  2
DOTX2
 70
     0
  3
.  .  .  .  .  .  .  .  .  .  .  .  .  .  .  . 
 72
    65
 73
     2
 40
0.5
 49
0.0
 74
     0
 49
-0.5
 74
     0
  0
LTYPE
  5
32
100
AcDbSymbolTableRecord
100
AcDbLinetypeTableRecord
  2
HIDDEN
 70
     0
  3
__ __ __ __ __ __ __ __ __ __ __ __ __ __ __ __
 72
    65
 73
     2
 40
0.375
 49
0.25
 74
     0
 49
-0.125
 74
     0
  0
LTYPE
  5
33
100
AcDbSymbolTableRecord
100
AcDbLinetypeTableRecord
  2
HIDDEN2
 70
     0
  3
_ _ _ _ _ _ _ _ _ _ _ _ _ _ _ _ _ _ _ _ _ _ _ _
 72
    65
 73
     2
 40
0.1875
 49
0.125
 74
     0
 49
-0.0625
 74
     0
  0
LTYPE
  5
34
100
AcDbSymbolTableRecord
100
AcDbLinetypeTableRecord
  2
HIDDENX2
 70
     0
  3
____ ____ ____ ____ ____ ____ ____ ____ ____ __
 72
    65
 73
     2
 40
0.75
 49
0.5
 74
     0
 49
-0.25
 74
     0
  0
LTYPE
  5
35
100
AcDbSymbolTableRecord
100
AcDbLinetypeTableRecord
  2
PHANTOM
 70
     0
  3
______  __  __  ______  __  __  ______  __  __ 
 72
    65
 73
     6
 40
2.5
 49
1.25
 74
     0
 49
-0.25
 74
     0
 49
0.25
 74
     0
 49
-0.25
 74
     0
 49
0.25
 74
     0
 49
-0.25
 74
     0
  0
LTYPE
  5
36
100
AcDbSymbolTableRecord
100
AcDbLinetypeTableRecord
  2
PHANTOM2
 70
     0
  3
___ _ _ ___ _ _ ___ _ _ ___ _ _ ___ _ _ ___ _ _
 72
    65
 73
     6
 40
1.25
 49
0.625
 74
     0
 49
-0.125
 74
     0
 49
0.125
 74
     0
 49
-0.125
 74
     0
 49
0.125
 74
     0
 49
-0.125
 74
     0
  0
LTYPE
  5
37
100
AcDbSymbolTableRecord
100
AcDbLinetypeTableRecord
  2
PHANTOMX2
 70
     0
  3
____________    ____    ____    ____________   
 72
    65
 73
     6
 40
5.0
 49
2.5
 74
     0
 49
-0.5
 74
     0
 49
0.5
 74
     0
 49
-0.5
 74
     0
 49
0.5
 74
     0
 49
-0.5
 74
     0
  0
ENDTAB
   0
TABLE
   2
LAYER
   5
2
 100
AcDbSymbolTable
  70
2
   0
LAYER
   5
E
 100
AcDbSymbolTableRecord
 100
AcDbLayerTableRecord
   2
0
  70
0
  62
7
   6
CONTINUOUS
 390
30
   0
LAYER
   5
39
 100
AcDbSymbolTableRecord
 100
AcDbLayerTableRecord
   2
LEVEL001
  70
0
  62
7
   6
CONTINUOUS
 390
30
   0
ENDTAB
  0
TABLE
  2
STYLE
  5
3
100
AcDbSymbolTable
  70
5
  0
STYLE
  5
F
100
AcDbSymbolTableRecord
100
AcDbTextStyleTableRecord
  2
STANDARD
 70
     0
 40
0.0
 41
1.0
 50
0.0
 71
     0
 42
0.2
  3
TXT
  4
BIGFONT
  0
STYLE
  5
38
100
AcDbSymbolTableRecord
100
AcDbTextStyleTableRecord
  2
STANDARD1
 70
     4
 40
0.0
 41
1.0
 50
0.0
 71
     0
 42
0.2
  3
TXT
  4
BIGFONT
   0
STYLE
   5
3A
 100
AcDbSymbolTableRecord
 100
AcDbTextStyleTableRecord
   2
GMM001
  70
4
  40
0.0
  41
 1.0000000000000
  50
0.0
  71
     0
  42
1.0
   3

   4

1001
ACAD
1000
ＭＳ 明朝
1071
32785
   0
STYLE
   5
3B
 100
AcDbSymbolTableRecord
 100
AcDbTextStyleTableRecord
   2
GMM002
  70
0
  40
0.0
  41
 1.0000000000000
  50
0.0
  71
     0
  42
1.0
   3

   4

1001
ACAD
1000
ＭＳ 明朝
1071
32785
   0
STYLE
   5
3C
 100
AcDbSymbolTableRecord
 100
AcDbTextStyleTableRecord
   2
GMM003
  70
0
  40
0.0
  41
 1.0000000000000
  50
0.0
  71
     0
  42
1.0
   3

   4

1001
ACAD
1000
ＭＳ ゴシック
1071
32817
   0
ENDTAB
  0
TABLE
  2
VIEW
  5
6
100
AcDbSymbolTable
 70
     0
  0
ENDTAB
  0
TABLE
  2
UCS
  5
7
100
AcDbSymbolTable
 70
     0
  0
ENDTAB
  0
TABLE
  2
APPID
  5
9
100
AcDbSymbolTable
 70
     1
  0
APPID
  5
10
100
AcDbSymbolTableRecord
100
AcDbRegAppTableRecord
  2
ACAD
 70
     0
  0
ENDTAB
   0
TABLE
   2
DIMSTYLE
   5
A
 100
AcDbSymbolTable
  70
10
 100
AcDbDimStyleTable
  0
DIMSTYLE
105
1D
100
AcDbSymbolTableRecord
100
AcDbDimStyleTableRecord
  2
STANDARD
 70
     0
  3

  4

  5

  6

  7

 40
1.0
 41
0.18
 42
0.0625
 43
0.38
 44
0.18
 45
0.0
 46
0.0
 47
0.0
 48
0.0
140
0.18
141
0.09
142
0.0
143
25.4
144
1.0
145
0.0
146
1.0
147
0.09
 71
     0
 72
     0
 73
     1
 74
     1
 75
     0
 76
     0
 77
     0
 78
     0
170
     0
171
     2
172
     0
173
     0
174
     0
175
     0
176
     0
177
     0
178
     0
270
     2
271
     4
272
     4
273
     2
274
     2
340
F
275
     0
280
     0
281
     0
282
     0
283
     1
284
     0
285
     0
286
     0
287
     3
288
     0
   0
DIMSTYLE
 105
3D
 100
AcDbSymbolTableRecord
 100
AcDbDimStyleTableRecord
   2
GMM001
  70
0
   3

   4

   5

   6
_OPEN30
   7
_OPEN30
  40
 1.0000000000000
  41
 12.000000000000
  42
 6.0000000000000
  43
 48.000000000000
  44
 9.0000000000000
  45
0.0
  46
0.0
  47
0.0
  48
0.0
 140
 15.000000000000
 141
 6.0000000000000
 142
0.0
 143
 0.39400000000000E-1
 144
 1.0000000000000
 145
0.0
 146
 1.0000000000000
 147
 6.4285714285714
  71
0
  72
0
  73
0
  74
0
  75
0
  76
0
  77
3
  78
8
 170
0
 171
2
 172
1
 173
1
 174
0
 175
0
 176
3
 177
3
 178
7
 270
2
 271
6
 272
0
 273
2
 274
2
 340
3C
 275
0
 280
0
 281
0
 282
0
 283
1
 284
0
 285
0
 286
0
 287
3
 288
0
   0
DIMSTYLE
 105
3E
 100
AcDbSymbolTableRecord
 100
AcDbDimStyleTableRecord
   2
GMM002
  70
0
   3
φ<>
   4

   5

   6
_OPEN30
   7
_OPEN30
  40
 1.0000000000000
  41
 12.000000000000
  42
 6.0000000000000
  43
 48.000000000000
  44
 9.0000000000000
  45
0.0
  46
0.0
  47
0.0
  48
0.0
 140
 15.000000000000
 141
 6.0000000000000
 142
0.0
 143
 0.39400000000000E-1
 144
 1.0000000000000
 145
0.0
 146
 1.0000000000000
 147
 6.4285714285714
  71
0
  72
0
  73
0
  74
0
  75
0
  76
0
  77
3
  78
8
 170
0
 171
2
 172
1
 173
1
 174
0
 175
0
 176
3
 177
3
 178
7
 270
2
 271
6
 272
0
 273
2
 274
2
 340
3C
 275
0
 280
0
 281
0
 282
0
 283
1
 284
0
 285
0
 286
0
 287
3
 288
0
   0
DIMSTYLE
 105
3F
 100
AcDbSymbolTableRecord
 100
AcDbDimStyleTableRecord
   2
GMM003
  70
0
   3
（<>
   4

   5

   6
_OPEN30
   7
_OPEN30
  40
 1.0000000000000
  41
 12.000000000000
  42
 6.0000000000000
  43
 48.000000000000
  44
 9.0000000000000
  45
0.0
  46
0.0
  47
0.0
  48
0.0
 140
 15.000000000000
 141
 6.0000000000000
 142
0.0
 143
 0.39400000000000E-1
 144
 1.0000000000000
 145
0.0
 146
 1.0000000000000
 147
 6.4285714285714
  71
0
  72
0
  73
0
  74
0
  75
0
  76
0
  77
3
  78
0
 170
0
 171
2
 172
1
 173
1
 174
0
 175
0
 176
3
 177
3
 178
7
 270
2
 271
0
 272
0
 273
2
 274
2
 340
3C
 275
0
 280
0
 281
0
 282
0
 283
1
 284
0
 285
0
 286
0
 287
3
 288
0
   0
DIMSTYLE
 105
40
 100
AcDbSymbolTableRecord
 100
AcDbDimStyleTableRecord
   2
GMM004
  70
0
   3

   4

   5

   6
_OPEN30
   7
_OPEN30
  40
 1.0000000000000
  41
 12.000000000000
  42
 6.0000000000000
  43
 48.000000000000
  44
 9.0000000000000
  45
0.0
  46
0.0
  47
0.0
  48
0.0
 140
 15.000000000000
 141
 6.0000000000000
 142
0.0
 143
 0.39400000000000E-1
 144
 1.0000000000000
 145
0.0
 146
 1.0000000000000
 147
 6.9977022876982
  71
0
  72
0
  73
0
  74
0
  75
0
  76
0
  77
3
  78
8
 170
0
 171
2
 172
1
 173
1
 174
0
 175
0
 176
3
 177
3
 178
7
 270
2
 271
6
 272
0
 273
2
 274
2
 340
3C
 275
0
 280
0
 281
0
 282
0
 283
1
 284
0
 285
0
 286
0
 287
3
 288
1
   0
DIMSTYLE
 105
41
 100
AcDbSymbolTableRecord
 100
AcDbDimStyleTableRecord
   2
GMM005
  70
0
   3
（<>
   4

   5

   6
_OPEN30
   7
_OPEN30
  40
 1.0000000000000
  41
 12.000000000000
  42
 6.0000000000000
  43
 48.000000000000
  44
 9.0000000000000
  45
0.0
  46
0.0
  47
0.0
  48
0.0
 140
 15.000000000000
 141
 6.0000000000000
 142
0.0
 143
 0.39400000000000E-1
 144
 1.0000000000000
 145
0.0
 146
 1.0000000000000
 147
 6.4285714285714
  71
0
  72
0
  73
0
  74
0
  75
0
  76
0
  77
3
  78
8
 170
0
 171
2
 172
1
 173
1
 174
0
 175
0
 176
3
 177
3
 178
7
 270
2
 271
6
 272
0
 273
2
 274
2
 340
3C
 275
0
 280
0
 281
0
 282
0
 283
1
 284
0
 285
0
 286
0
 287
3
 288
0
   0
DIMSTYLE
 105
42
 100
AcDbSymbolTableRecord
 100
AcDbDimStyleTableRecord
   2
GMM006
  70
0
   3

   4

   5

   6
_NONE
   7
_OPEN30
  40
 1.0000000000000
  41
 12.000000000000
  42
 6.0000000000000
  43
 48.000000000000
  44
 9.0000000000000
  45
0.0
  46
0.0
  47
0.0
  48
0.0
 140
 15.000000000000
 141
 6.0000000000000
 142
0.0
 143
 0.39400000000000E-1
 144
 1.0000000000000
 145
0.0
 146
 1.0000000000000
 147
 5.8889754317252
  71
0
  72
0
  73
0
  74
0
  75
0
  76
0
  77
3
  78
8
 170
0
 171
2
 172
1
 173
1
 174
0
 175
0
 176
3
 177
3
 178
7
 270
2
 271
6
 272
0
 273
2
 274
2
 340
3C
 275
0
 280
0
 281
0
 282
0
 283
1
 284
0
 285
0
 286
0
 287
3
 288
1
   0
DIMSTYLE
 105
43
 100
AcDbSymbolTableRecord
 100
AcDbDimStyleTableRecord
   2
GMM007
  70
0
   3

   4

   5

   6
_OPEN30
   7
_NONE
  40
 1.0000000000000
  41
 12.000000000000
  42
 6.0000000000000
  43
 48.000000000000
  44
 9.0000000000000
  45
0.0
  46
0.0
  47
0.0
  48
0.0
 140
 15.000000000000
 141
 6.0000000000000
 142
0.0
 143
 0.39400000000000E-1
 144
 1.0000000000000
 145
0.0
 146
 1.0000000000000
 147
 5.3618757788856
  71
0
  72
0
  73
0
  74
0
  75
0
  76
0
  77
3
  78
8
 170
0
 171
2
 172
1
 173
1
 174
0
 175
0
 176
3
 177
3
 178
7
 270
2
 271
6
 272
0
 273
2
 274
2
 340
3C
 275
0
 280
0
 281
0
 282
0
 283
1
 284
0
 285
0
 286
0
 287
3
 288
1
   0
DIMSTYLE
 105
44
 100
AcDbSymbolTableRecord
 100
AcDbDimStyleTableRecord
   2
GMM008
  70
0
   3

   4

   5

   6
_OPEN30
   7
_OPEN30
  40
 1.0000000000000
  41
 12.000000000000
  42
 6.0000000000000
  43
 48.000000000000
  44
 9.0000000000000
  45
0.0
  46
0.0
  47
0.0
  48
0.0
 140
 15.000000000000
 141
 6.0000000000000
 142
0.0
 143
 0.39400000000000E-1
 144
 1.0000000000000
 145
0.0
 146
 1.0000000000000
 147
0.0
  71
0
  72
0
  73
0
  74
0
  75
0
  76
0
  77
1
  78
8
 170
0
 171
2
 172
1
 173
1
 174
0
 175
0
 176
3
 177
3
 178
7
 270
2
 271
6
 272
0
 273
2
 274
2
 340
3C
 275
0
 280
0
 281
0
 282
0
 283
1
 284
0
 285
0
 286
0
 287
3
 288
0
   0
ENDTAB
  0
TABLE
  2
BLOCK_RECORD
  5
1
100
AcDbSymbolTable
 70
     0
  0
BLOCK_RECORD
  5
18
100
AcDbSymbolTableRecord
100
AcDbBlockTableRecord
  2
*MODEL_SPACE
  0
BLOCK_RECORD
  5
15
100
AcDbSymbolTableRecord
100
AcDbBlockTableRecord
  2
*PAPER_SPACE
   0
BLOCK_RECORD
   5
45
 100
AcDbSymbolTableRecord
 100
AcDbBlockTableRecord
   2
BLOCK001
   0
BLOCK_RECORD
   5
46
 100
AcDbSymbolTableRecord
 100
AcDbBlockTableRecord
   2
BLOCK002
   0
BLOCK_RECORD
   5
47
 100
AcDbSymbolTableRecord
 100
AcDbBlockTableRecord
   2
BLOCK003
   0
BLOCK_RECORD
   5
48
 100
AcDbSymbolTableRecord
 100
AcDbBlockTableRecord
   2
BLOCK004
   0
BLOCK_RECORD
   5
49
 100
AcDbSymbolTableRecord
 100
AcDbBlockTableRecord
   2
BLOCK005
   0
BLOCK_RECORD
   5
4A
 100
AcDbSymbolTableRecord
 100
AcDbBlockTableRecord
   2
*D1
   0
BLOCK_RECORD
   5
4B
 100
AcDbSymbolTableRecord
 100
AcDbBlockTableRecord
   2
*D2
   0
BLOCK_RECORD
   5
4C
 100
AcDbSymbolTableRecord
 100
AcDbBlockTableRecord
   2
BLOCK006
   0
BLOCK_RECORD
   5
4D
 100
AcDbSymbolTableRecord
 100
AcDbBlockTableRecord
   2
*D3
   0
BLOCK_RECORD
   5
4E
 100
AcDbSymbolTableRecord
 100
AcDbBlockTableRecord
   2
*D4
   0
BLOCK_RECORD
   5
4F
 100
AcDbSymbolTableRecord
 100
AcDbBlockTableRecord
   2
*D5
   0
BLOCK_RECORD
   5
50
 100
AcDbSymbolTableRecord
 100
AcDbBlockTableRecord
   2
*D6
   0
BLOCK_RECORD
   5
51
 100
AcDbSymbolTableRecord
 100
AcDbBlockTableRecord
   2
BLOCK007
   0
BLOCK_RECORD
   5
52
 100
AcDbSymbolTableRecord
 100
AcDbBlockTableRecord
   2
BLOCK008
   0
BLOCK_RECORD
   5
53
 100
AcDbSymbolTableRecord
 100
AcDbBlockTableRecord
   2
BLOCK009
   0
BLOCK_RECORD
   5
54
 100
AcDbSymbolTableRecord
 100
AcDbBlockTableRecord
   2
BLOCK010
   0
BLOCK_RECORD
   5
55
 100
AcDbSymbolTableRecord
 100
AcDbBlockTableRecord
   2
BLOCK011
   0
BLOCK_RECORD
   5
56
 100
AcDbSymbolTableRecord
 100
AcDbBlockTableRecord
   2
BLOCK012
   0
BLOCK_RECORD
   5
57
 100
AcDbSymbolTableRecord
 100
AcDbBlockTableRecord
   2
BLOCK013
   0
BLOCK_RECORD
   5
58
 100
AcDbSymbolTableRecord
 100
AcDbBlockTableRecord
   2
BLOCK014
   0
BLOCK_RECORD
   5
59
 100
AcDbSymbolTableRecord
 100
AcDbBlockTableRecord
   2
BLOCK015
   0
BLOCK_RECORD
   5
5A
 100
AcDbSymbolTableRecord
 100
AcDbBlockTableRecord
   2
BLOCK016
   0
BLOCK_RECORD
   5
5B
 100
AcDbSymbolTableRecord
 100
AcDbBlockTableRecord
   2
BLOCK017
   0
BLOCK_RECORD
   5
5C
 100
AcDbSymbolTableRecord
 100
AcDbBlockTableRecord
   2
BLOCK018
   0
BLOCK_RECORD
   5
5D
 100
AcDbSymbolTableRecord
 100
AcDbBlockTableRecord
   2
*D7
   0
BLOCK_RECORD
   5
5E
 100
AcDbSymbolTableRecord
 100
AcDbBlockTableRecord
   2
*D8
   0
BLOCK_RECORD
   5
5F
 100
AcDbSymbolTableRecord
 100
AcDbBlockTableRecord
   2
*D9
   0
BLOCK_RECORD
   5
60
 100
AcDbSymbolTableRecord
 100
AcDbBlockTableRecord
   2
*D10
   0
BLOCK_RECORD
   5
61
 100
AcDbSymbolTableRecord
 100
AcDbBlockTableRecord
   2
BLOCK019
   0
BLOCK_RECORD
   5
62
 100
AcDbSymbolTableRecord
 100
AcDbBlockTableRecord
   2
BLOCK020
   0
BLOCK_RECORD
   5
63
 100
AcDbSymbolTableRecord
 100
AcDbBlockTableRecord
   2
BLOCK021
   0
BLOCK_RECORD
   5
64
 100
AcDbSymbolTableRecord
 100
AcDbBlockTableRecord
   2
*D11
   0
BLOCK_RECORD
   5
65
 100
AcDbSymbolTableRecord
 100
AcDbBlockTableRecord
   2
*D12
   0
BLOCK_RECORD
   5
66
 100
AcDbSymbolTableRecord
 100
AcDbBlockTableRecord
   2
*D13
   0
BLOCK_RECORD
   5
67
 100
AcDbSymbolTableRecord
 100
AcDbBlockTableRecord
   2
*D14
   0
BLOCK_RECORD
   5
68
 100
AcDbSymbolTableRecord
 100
AcDbBlockTableRecord
   2
*D15
   0
BLOCK_RECORD
   5
69
 100
AcDbSymbolTableRecord
 100
AcDbBlockTableRecord
   2
BLOCK022
   0
BLOCK_RECORD
   5
6A
 100
AcDbSymbolTableRecord
 100
AcDbBlockTableRecord
   2
BLOCK023
   0
BLOCK_RECORD
   5
6B
 100
AcDbSymbolTableRecord
 100
AcDbBlockTableRecord
   2
BLOCK024
   0
BLOCK_RECORD
   5
6C
 100
AcDbSymbolTableRecord
 100
AcDbBlockTableRecord
   2
BLOCK025
   0
BLOCK_RECORD
   5
6D
 100
AcDbSymbolTableRecord
 100
AcDbBlockTableRecord
   2
BLOCK026
   0
BLOCK_RECORD
   5
6E
 100
AcDbSymbolTableRecord
 100
AcDbBlockTableRecord
   2
BLOCK027
   0
BLOCK_RECORD
   5
6F
 100
AcDbSymbolTableRecord
 100
AcDbBlockTableRecord
   2
_ARCHTICK
   0
BLOCK_RECORD
   5
70
 100
AcDbSymbolTableRecord
 100
AcDbBlockTableRecord
   2
_BOXBLANK
   0
BLOCK_RECORD
   5
71
 100
AcDbSymbolTableRecord
 100
AcDbBlockTableRecord
   2
_BOXFILLED
   0
BLOCK_RECORD
   5
72
 100
AcDbSymbolTableRecord
 100
AcDbBlockTableRecord
   2
_CLOSED
   0
BLOCK_RECORD
   5
73
 100
AcDbSymbolTableRecord
 100
AcDbBlockTableRecord
   2
_CLOSEDBLANK
   0
BLOCK_RECORD
   5
74
 100
AcDbSymbolTableRecord
 100
AcDbBlockTableRecord
   2
_DATUMBLANK
   0
BLOCK_RECORD
   5
75
 100
AcDbSymbolTableRecord
 100
AcDbBlockTableRecord
   2
_DATUMFILLED
   0
BLOCK_RECORD
   5
76
 100
AcDbSymbolTableRecord
 100
AcDbBlockTableRecord
   2
_DOT
   0
BLOCK_RECORD
   5
77
 100
AcDbSymbolTableRecord
 100
AcDbBlockTableRecord
   2
_DOTBLANK
   0
BLOCK_RECORD
   5
78
 100
AcDbSymbolTableRecord
 100
AcDbBlockTableRecord
   2
_DOTSMALL
   0
BLOCK_RECORD
   5
79
 100
AcDbSymbolTableRecord
 100
AcDbBlockTableRecord
   2
_INTEGRAL
   0
BLOCK_RECORD
   5
7A
 100
AcDbSymbolTableRecord
 100
AcDbBlockTableRecord
   2
_NONE
   0
BLOCK_RECORD
   5
7B
 100
AcDbSymbolTableRecord
 100
AcDbBlockTableRecord
   2
_OBLIQUE
   0
BLOCK_RECORD
   5
7C
 100
AcDbSymbolTableRecord
 100
AcDbBlockTableRecord
   2
_OPEN
   0
BLOCK_RECORD
   5
7D
 100
AcDbSymbolTableRecord
 100
AcDbBlockTableRecord
   2
_OPEN30
   0
BLOCK_RECORD
   5
7E
 100
AcDbSymbolTableRecord
 100
AcDbBlockTableRecord
   2
_OPEN90
   0
BLOCK_RECORD
   5
7F
 100
AcDbSymbolTableRecord
 100
AcDbBlockTableRecord
   2
_ORIGIN
   0
ENDTAB
   0
ENDSEC
  0
SECTION
  2
BLOCKS
  0
BLOCK
  5
19
100
AcDbEntity
  8
0
100
AcDbBlockBegin
  2
*MODEL_SPACE
 70
     0
 10
0.0
 20
0.0
 30
0.0
  3
*MODEL_SPACE
  1

  0
ENDBLK
  5
1A
100
AcDbEntity
  8
0
100
AcDbBlockEnd
  0
BLOCK
  5
16
100
AcDbEntity
 67
     1
  8
0
100
AcDbBlockBegin
  2
*PAPER_SPACE
 70
     0
 10
0.0
 20
0.0
 30
0.0
  3
*PAPER_SPACE
  1

  0
ENDBLK
  5
17
100
AcDbEntity
 67
     1
  8
0
100
AcDbBlockEnd
   0
BLOCK
   5
80
 100
AcDbEntity
   8
0
 100
AcDbBlockBegin
   2
_ARCHTICK
  70
0
  10
0.0
  20
0.0
  30
0.0
   3
_ARCHTICK
   0
POLYLINE
   5
81
 100
AcDbEntity
   8
0
 370
-2
   6
BYBLOCK
  62
0
 100
AcDb2dPolyline
  66
1
  10
0.0
  20
0.0
  30
0.0
  70
1
  40
 0.15000000000000
  41
 0.15000000000000
   0
VERTEX
   5
82
 100
AcDbEntity
   8
0
   6
BYBLOCK
  62
0
 100
AcDbVertex
 100
AcDb2dVertex
  10
-0.50000000000000
  20
-0.50000000000000
  30
0.0
  40
 0.15000000000000
  41
 0.15000000000000
   0
VERTEX
   5
83
 100
AcDbEntity
   8
0
   6
BYBLOCK
  62
0
 100
AcDbVertex
 100
AcDb2dVertex
  10
 0.50000000000000
  20
 0.50000000000000
  30
0.0
  40
 0.15000000000000
  41
 0.15000000000000
   0
SEQEND
   5
84
 100
AcDbEntity
   8
0
   6
BYBLOCK
  62
0
   0
ENDBLK
   5
85
 100
AcDbEntity
   8
0
 100
AcDbBlockEnd
   0
BLOCK
   5
86
 100
AcDbEntity
   8
0
 100
AcDbBlockBegin
   2
_OBLIQUE
  70
0
  10
0.0
  20
0.0
  30
0.0
   3
_OBLIQUE
   0
LINE
   5
87
 100
AcDbEntity
   8
0
 370
-2
 100
AcDbLine
   6
BYBLOCK
  62
0
  10
-0.50000000000000
  20
-0.50000000000000
  30
0.0
  11
 0.50000000000000
  21
 0.50000000000000
  31
0.0
   0
ENDBLK
   5
88
 100
AcDbEntity
   8
0
 100
AcDbBlockEnd
   0
BLOCK
   5
89
 100
AcDbEntity
   8
0
 100
AcDbBlockBegin
   2
_BOXBLANK
  70
0
  10
0.0
  20
0.0
  30
0.0
   3
_BOXBLANK
   0
LINE
   5
8A
 100
AcDbEntity
   8
0
 370
-2
 100
AcDbLine
   6
BYBLOCK
  62
0
  10
-0.50000000000000
  20
-0.50000000000000
  30
0.0
  11
 0.50000000000000
  21
-0.50000000000000
  31
0.0
   0
LINE
   5
8B
 100
AcDbEntity
   8
0
 370
-2
 100
AcDbLine
   6
BYBLOCK
  62
0
  10
 0.50000000000000
  20
-0.50000000000000
  30
0.0
  11
 0.50000000000000
  21
 0.50000000000000
  31
0.0
   0
LINE
   5
8C
 100
AcDbEntity
   8
0
 370
-2
 100
AcDbLine
   6
BYBLOCK
  62
0
  10
 0.50000000000000
  20
 0.50000000000000
  30
0.0
  11
-0.50000000000000
  21
 0.50000000000000
  31
0.0
   0
LINE
   5
8D
 100
AcDbEntity
   8
0
 370
-2
 100
AcDbLine
   6
BYBLOCK
  62
0
  10
-0.50000000000000
  20
 0.50000000000000
  30
0.0
  11
-0.50000000000000
  21
-0.50000000000000
  31
0.0
   0
LINE
   5
8E
 100
AcDbEntity
   8
0
 370
-2
 100
AcDbLine
   6
BYBLOCK
  62
0
  10
-0.50000000000000
  20
0.0
  30
0.0
  11
-1.0000000000000
  21
0.0
  31
0.0
   0
ENDBLK
   5
8F
 100
AcDbEntity
   8
0
 100
AcDbBlockEnd
   0
BLOCK
   5
90
 100
AcDbEntity
   8
0
 100
AcDbBlockBegin
   2
_BOXFILLED
  70
0
  10
0.0
  20
0.0
  30
0.0
   3
_BOXFILLED
   0
SOLID
   5
91
 100
AcDbEntity
   8
0
 100
AcDbTrace
   6
BYBLOCK
  62
0
  10
-0.50000000000000
  20
 0.50000000000000
  30
0.0
  11
 0.50000000000000
  21
 0.50000000000000
  31
0.0
  12
-0.50000000000000
  22
-0.50000000000000
  32
0.0
  13
 0.50000000000000
  23
-0.50000000000000
  33
0.0
   0
LINE
   5
92
 100
AcDbEntity
   8
0
 370
-2
 100
AcDbLine
   6
BYBLOCK
  62
0
  10
-0.50000000000000
  20
0.0
  30
0.0
  11
-1.0000000000000
  21
0.0
  31
0.0
   0
ENDBLK
   5
93
 100
AcDbEntity
   8
0
 100
AcDbBlockEnd
   0
BLOCK
   5
94
 100
AcDbEntity
   8
0
 100
AcDbBlockBegin
   2
_CLOSED
  70
0
  10
0.0
  20
0.0
  30
0.0
   3
_CLOSED
   0
LINE
   5
95
 100
AcDbEntity
   8
0
 370
-2
 100
AcDbLine
   6
BYBLOCK
  62
0
  10
-1.0000000000000
  20
 0.16666666666667
  30
0.0
  11
0.0
  21
0.0
  31
0.0
   0
LINE
   5
96
 100
AcDbEntity
   8
0
 370
-2
 100
AcDbLine
   6
BYBLOCK
  62
0
  10
0.0
  20
0.0
  30
0.0
  11
-1.0000000000000
  21
-0.16666666666667
  31
0.0
   0
LINE
   5
97
 100
AcDbEntity
   8
0
 370
-2
 100
AcDbLine
   6
BYBLOCK
  62
0
  10
-1.0000000000000
  20
 0.16666666666667
  30
0.0
  11
-1.0000000000000
  21
-0.16666666666667
  31
0.0
   0
LINE
   5
98
 100
AcDbEntity
   8
0
 370
-2
 100
AcDbLine
   6
BYBLOCK
  62
0
  10
0.0
  20
0.0
  30
0.0
  11
-1.0000000000000
  21
0.0
  31
0.0
   0
ENDBLK
   5
99
 100
AcDbEntity
   8
0
 100
AcDbBlockEnd
   0
BLOCK
   5
9A
 100
AcDbEntity
   8
0
 100
AcDbBlockBegin
   2
_OPEN
  70
0
  10
0.0
  20
0.0
  30
0.0
   3
_OPEN
   0
LINE
   5
9B
 100
AcDbEntity
   8
0
 370
-2
 100
AcDbLine
   6
BYBLOCK
  62
0
  10
-1.0000000000000
  20
 0.16666666666667
  30
0.0
  11
0.0
  21
0.0
  31
0.0
   0
LINE
   5
9C
 100
AcDbEntity
   8
0
 370
-2
 100
AcDbLine
   6
BYBLOCK
  62
0
  10
0.0
  20
0.0
  30
0.0
  11
-1.0000000000000
  21
-0.16666666666667
  31
0.0
   0
LINE
   5
9D
 100
AcDbEntity
   8
0
 370
-2
 100
AcDbLine
   6
BYBLOCK
  62
0
  10
0.0
  20
0.0
  30
0.0
  11
-1.0000000000000
  21
0.0
  31
0.0
   0
ENDBLK
   5
9E
 100
AcDbEntity
   8
0
 100
AcDbBlockEnd
   0
BLOCK
   5
9F
 100
AcDbEntity
   8
0
 100
AcDbBlockBegin
   2
_OPEN30
  70
0
  10
0.0
  20
0.0
  30
0.0
   3
_OPEN30
   0
LINE
   5
A0
 100
AcDbEntity
   8
0
 370
-2
 100
AcDbLine
   6
BYBLOCK
  62
0
  10
-1.0000000000000
  20
 0.26794919243110
  30
0.0
  11
0.0
  21
0.0
  31
0.0
   0
LINE
   5
A1
 100
AcDbEntity
   8
0
 370
-2
 100
AcDbLine
   6
BYBLOCK
  62
0
  10
0.0
  20
0.0
  30
0.0
  11
-1.0000000000000
  21
-0.26794919243110
  31
0.0
   0
LINE
   5
A2
 100
AcDbEntity
   8
0
 370
-2
 100
AcDbLine
   6
BYBLOCK
  62
0
  10
0.0
  20
0.0
  30
0.0
  11
-1.0000000000000
  21
0.0
  31
0.0
   0
ENDBLK
   5
A3
 100
AcDbEntity
   8
0
 100
AcDbBlockEnd
   0
BLOCK
   5
A4
 100
AcDbEntity
   8
0
 100
AcDbBlockBegin
   2
_OPEN90
  70
0
  10
0.0
  20
0.0
  30
0.0
   3
_OPEN90
   0
LINE
   5
A5
 100
AcDbEntity
   8
0
 370
-2
 100
AcDbLine
   6
BYBLOCK
  62
0
  10
-0.50000000000000
  20
 0.50000000000000
  30
0.0
  11
0.0
  21
0.0
  31
0.0
   0
LINE
   5
A6
 100
AcDbEntity
   8
0
 370
-2
 100
AcDbLine
   6
BYBLOCK
  62
0
  10
0.0
  20
0.0
  30
0.0
  11
-0.50000000000000
  21
-0.50000000000000
  31
0.0
   0
LINE
   5
A7
 100
AcDbEntity
   8
0
 370
-2
 100
AcDbLine
   6
BYBLOCK
  62
0
  10
0.0
  20
0.0
  30
0.0
  11
-1.0000000000000
  21
0.0
  31
0.0
   0
ENDBLK
   5
A8
 100
AcDbEntity
   8
0
 100
AcDbBlockEnd
   0
BLOCK
   5
A9
 100
AcDbEntity
   8
0
 100
AcDbBlockBegin
   2
_CLOSEDBLANK
  70
0
  10
0.0
  20
0.0
  30
0.0
   3
_CLOSEDBLANK
   0
LINE
   5
AA
 100
AcDbEntity
   8
0
 370
-2
 100
AcDbLine
   6
BYBLOCK
  62
0
  10
-1.0000000000000
  20
 0.16666666666667
  30
0.0
  11
0.0
  21
0.0
  31
0.0
   0
LINE
   5
AB
 100
AcDbEntity
   8
0
 370
-2
 100
AcDbLine
   6
BYBLOCK
  62
0
  10
0.0
  20
0.0
  30
0.0
  11
-1.0000000000000
  21
-0.16666666666667
  31
0.0
   0
LINE
   5
AC
 100
AcDbEntity
   8
0
 370
-2
 100
AcDbLine
   6
BYBLOCK
  62
0
  10
-1.0000000000000
  20
 0.16666666666667
  30
0.0
  11
-1.0000000000000
  21
-0.16666666666667
  31
0.0
   0
ENDBLK
   5
AD
 100
AcDbEntity
   8
0
 100
AcDbBlockEnd
   0
BLOCK
   5
AE
 100
AcDbEntity
   8
0
 100
AcDbBlockBegin
   2
_DOT
  70
0
  10
0.0
  20
0.0
  30
0.0
   3
_DOT
   0
POLYLINE
   5
AF
 100
AcDbEntity
   8
0
 370
-2
   6
BYBLOCK
  62
0
 100
AcDb2dPolyline
  66
1
  10
0.0
  20
0.0
  30
0.0
  70
1
  40
 0.50000000000000
  41
 0.50000000000000
   0
VERTEX
   5
B0
 100
AcDbEntity
   8
0
   6
BYBLOCK
  62
0
 100
AcDbVertex
 100
AcDb2dVertex
  10
-0.25000000000000
  20
0.0
  30
0.0
  42
 1.0000000000000
  40
 0.50000000000000
  41
 0.50000000000000
   0
VERTEX
   5
B1
 100
AcDbEntity
   8
0
   6
BYBLOCK
  62
0
 100
AcDbVertex
 100
AcDb2dVertex
  10
 0.25000000000000
  20
0.0
  30
0.0
  42
 1.0000000000000
  40
 0.50000000000000
  41
 0.50000000000000
   0
SEQEND
   5
B2
 100
AcDbEntity
   8
0
   6
BYBLOCK
  62
0
   0
LINE
   5
B3
 100
AcDbEntity
   8
0
 370
-2
 100
AcDbLine
   6
BYBLOCK
  62
0
  10
-0.50000000000000
  20
0.0
  30
0.0
  11
-1.0000000000000
  21
0.0
  31
0.0
   0
ENDBLK
   5
B4
 100
AcDbEntity
   8
0
 100
AcDbBlockEnd
   0
BLOCK
   5
B5
 100
AcDbEntity
   8
0
 100
AcDbBlockBegin
   2
_DOTSMALL
  70
0
  10
0.0
  20
0.0
  30
0.0
   3
_DOTSMALL
   0
POLYLINE
   5
B6
 100
AcDbEntity
   8
0
 370
-2
   6
BYBLOCK
  62
0
 100
AcDb2dPolyline
  66
1
  10
0.0
  20
0.0
  30
0.0
  70
1
  40
 0.50000000000000
  41
 0.50000000000000
   0
VERTEX
   5
B7
 100
AcDbEntity
   8
0
   6
BYBLOCK
  62
0
 100
AcDbVertex
 100
AcDb2dVertex
  10
-0.62500000000000E-1
  20
0.0
  30
0.0
  42
 1.0000000000000
  40
 0.50000000000000
  41
 0.50000000000000
   0
VERTEX
   5
B8
 100
AcDbEntity
   8
0
   6
BYBLOCK
  62
0
 100
AcDbVertex
 100
AcDb2dVertex
  10
 0.62500000000000E-1
  20
0.0
  30
0.0
  42
 1.0000000000000
  40
 0.50000000000000
  41
 0.50000000000000
   0
SEQEND
   5
B9
 100
AcDbEntity
   8
0
   6
BYBLOCK
  62
0
   0
ENDBLK
   5
BA
 100
AcDbEntity
   8
0
 100
AcDbBlockEnd
   0
BLOCK
   5
BB
 100
AcDbEntity
   8
0
 100
AcDbBlockBegin
   2
_DATUMBLANK
  70
0
  10
0.0
  20
0.0
  30
0.0
   3
_DATUMBLANK
   0
LINE
   5
BC
 100
AcDbEntity
   8
0
 370
-2
 100
AcDbLine
   6
BYBLOCK
  62
0
  10
0.0
  20
 0.57735027000000
  30
0.0
  11
-1.0000000000000
  21
0.0
  31
0.0
   0
LINE
   5
BD
 100
AcDbEntity
   8
0
 370
-2
 100
AcDbLine
   6
BYBLOCK
  62
0
  10
-1.0000000000000
  20
0.0
  30
0.0
  11
0.0
  21
-0.57735027000000
  31
0.0
   0
LINE
   5
BE
 100
AcDbEntity
   8
0
 370
-2
 100
AcDbLine
   6
BYBLOCK
  62
0
  10
0.0
  20
-0.57735027000000
  30
0.0
  11
0.0
  21
 0.57735027000000
  31
0.0
   0
ENDBLK
   5
BF
 100
AcDbEntity
   8
0
 100
AcDbBlockEnd
   0
BLOCK
   5
C0
 100
AcDbEntity
   8
0
 100
AcDbBlockBegin
   2
_DATUMFILLED
  70
0
  10
0.0
  20
0.0
  30
0.0
   3
_DATUMFILLED
   0
SOLID
   5
C1
 100
AcDbEntity
   8
0
 100
AcDbTrace
   6
BYBLOCK
  62
0
  10
0.0
  20
 0.57735027000000
  30
0.0
  11
-1.0000000000000
  21
0.0
  31
0.0
  12
0.0
  22
-0.57735027000000
  32
0.0
  13
0.0
  23
-0.57735027000000
  33
0.0
   0
ENDBLK
   5
C2
 100
AcDbEntity
   8
0
 100
AcDbBlockEnd
   0
BLOCK
   5
C3
 100
AcDbEntity
   8
0
 100
AcDbBlockBegin
   2
_ORIGIN
  70
0
  10
0.0
  20
0.0
  30
0.0
   3
_ORIGIN
   0
CIRCLE
   5
C4
 100
AcDbEntity
   8
0
 370
-2
 100
AcDbCircle
   6
BYBLOCK
  62
0
  10
0.0
  20
0.0
  30
0.0
  40
 0.50000000000000
   0
LINE
   5
C5
 100
AcDbEntity
   8
0
 370
-2
 100
AcDbLine
   6
BYBLOCK
  62
0
  10
0.0
  20
0.0
  30
0.0
  11
-1.0000000000000
  21
0.0
  31
0.0
   0
ENDBLK
   5
C6
 100
AcDbEntity
   8
0
 100
AcDbBlockEnd
   0
BLOCK
   5
C7
 100
AcDbEntity
   8
0
 100
AcDbBlockBegin
   2
_NONE
  70
0
  10
0.0
  20
0.0
  30
0.0
   3
_NONE
   0
CIRCLE
   5
C8
 100
AcDbEntity
   8
0
 370
-2
 100
AcDbCircle
   6
BYBLOCK
  62
0
  10
0.0
  20
0.0
  30
0.0
  40
 0.25000000000000
   0
ENDBLK
   5
C9
 100
AcDbEntity
   8
0
 100
AcDbBlockEnd
   0
BLOCK
   5
CA
 100
AcDbEntity
   8
0
 100
AcDbBlockBegin
   2
_DOTBLANK
  70
0
  10
0.0
  20
0.0
  30
0.0
   3
_DOTBLANK
   0
CIRCLE
   5
CB
 100
AcDbEntity
   8
0
 370
-2
 100
AcDbCircle
   6
BYBLOCK
  62
0
  10
0.0
  20
0.0
  30
0.0
  40
 0.50000000000000
   0
LINE
   5
CC
 100
AcDbEntity
   8
0
 370
-2
 100
AcDbLine
   6
BYBLOCK
  62
0
  10
-0.50000000000000
  20
0.0
  30
0.0
  11
-1.0000000000000
  21
0.0
  31
0.0
   0
ENDBLK
   5
CD
 100
AcDbEntity
   8
0
 100
AcDbBlockEnd
   0
BLOCK
   5
CE
 100
AcDbEntity
   8
0
 100
AcDbBlockBegin
   2
_INTEGRAL
  70
0
  10
0.0
  20
0.0
  30
0.0
   3
_INTEGRAL
   0
ARC
   5
CF
 100
AcDbEntity
   8
0
 370
-2
   6
BYBLOCK
  62
0
 100
AcDbCircle
  10
 0.44488800000000
  20
-0.91335000000000E-1
  30
0.0
  40
 0.45416700000000
 100
AcDbArc
  50
 102.00000000000
  51
 168.00000000000
   0
ARC
   5
D0
 100
AcDbEntity
   8
0
 370
-2
   6
BYBLOCK
  62
0
 100
AcDbCircle
  10
-0.44488800000000
  20
 0.91335000000000E-1
  30
0.0
  40
 0.45416700000000
 100
AcDbArc
  50
 282.00000000000
  51
 348.00000000000
   0
ENDBLK
   5
D1
 100
AcDbEntity
   8
0
 100
AcDbBlockEnd
   0
BLOCK
   5
D2
 100
AcDbEntity
   8
0
 100
AcDbBlockBegin
   2
BLOCK001
  70
64
  10
0.0
  20
0.0
  30
0.0
   3
BLOCK001
   0
MTEXT
   5
D3
 100
AcDbEntity
   8
LEVEL001
 370
40
  62
7
 100
AcDbMText
  10
 742.62877889065
  20
-134.84912995131
  30
0.0
  40
 24.000000000000
  41
0.0
  71
7
  72
1
   1
シマテック
   7
GMM003
   0
MTEXT
   5
D4
 100
AcDbEntity
   8
LEVEL001
 370
40
  62
7
 100
AcDbMText
  10
 744.19859007320
  20
-134.84912995131
  30
0.0
  40
 24.000000000000
  41
0.0
  71
7
  72
1
   1
シマテック
   7
GMM003
   0
MTEXT
   5
D5
 100
AcDbEntity
   8
LEVEL001
 370
40
  62
7
 100
AcDbMText
  10
 602.31049035414
  20
-132.69891158510
  30
0.0
  40
 18.000000000000
  41
0.0
  71
7
  72
1
   1
株式会社
   7
GMM003
   0
ENDBLK
   5
D6
 100
AcDbEntity
   8
0
 100
AcDbBlockEnd
   0
BLOCK
   5
D7
 100
AcDbEntity
   8
0
 100
AcDbBlockBegin
   2
BLOCK002
  70
64
  10
0.0
  20
0.0
  30
0.0
   3
BLOCK002
   0
LWPOLYLINE
   5
D8
 100
AcDbEntity
   8
LEVEL001
 370
40
   6
CONTINUOUS
  62
7
 100
AcDbPolyline
  90
4
  70
1
  10
 57.813868613139
  20
 219.17826464305
  10
 397.81386861314
  20
 219.17826464305
  10
 397.81386861314
  20
 274.17826464305
  10
 57.813868613139
  20
 274.17826464305
   0
LWPOLYLINE
   5
D9
 100
AcDbEntity
   8
LEVEL001
 370
40
   6
CONTINUOUS
  62
7
 100
AcDbPolyline
  90
4
  70
0
  10
 77.813868613139
  20
 274.17826464305
  10
 77.813868613139
  20
 414.17826464305
  10
 377.81386861314
  20
 414.17826464305
  10
 377.81386861314
  20
 274.17826464305
   0
LWPOLYLINE
   5
DA
 100
AcDbEntity
   8
LEVEL001
 370
40
   6
CONTINUOUS
  62
7
 100
AcDbPolyline
  90
4
  70
0
  10
 107.31386861314
  20
 414.17826464305
  10
 107.31386861314
  20
 419.17826464305
  10
 348.31386861314
  20
 419.17826464305
  10
 348.31386861314
  20
 414.17826464305
   0
LINE
   5
DB
 100
AcDbEntity
   8
LEVEL001
 370
25
 100
AcDbLine
   6
DASHDOT
  62
3
  10
 357.81386861314
  20
 226.39833773715
  30
0.0
  11
 357.81386861314
  21
 191.89257783632
  31
0.0
   0
LWPOLYLINE
   5
DC
 100
AcDbEntity
   8
LEVEL001
 370
40
   6
CONTINUOUS
  62
7
 100
AcDbPolyline
  90
4
  70
0
  10
 337.81386861314
  20
 219.17826464305
  10
 337.81386861314
  20
 199.17826464305
  10
 377.81386861314
  20
 199.17826464305
  10
 377.81386861314
  20
 219.17826464305
   0
LINE
   5
DD
 100
AcDbEntity
   8
LEVEL001
 370
25
 100
AcDbLine
   6
DASHDOT
  62
3
  10
 97.813868613139
  20
 226.39833773715
  30
0.0
  11
 97.813868613139
  21
 191.89257783632
  31
0.0
   0
LWPOLYLINE
   5
DE
 100
AcDbEntity
   8
LEVEL001
 370
40
   6
CONTINUOUS
  62
7
 100
AcDbPolyline
  90
4
  70
0
  10
 117.81386861314
  20
 219.17826464305
  10
 117.81386861314
  20
 199.17826464305
  10
 77.813868613139
  20
 199.17826464305
  10
 77.813868613139
  20
 219.17826464305
   0
ENDBLK
   5
DF
 100
AcDbEntity
   8
0
 100
AcDbBlockEnd
   0
BLOCK
   5
E0
 100
AcDbEntity
   8
0
 100
AcDbBlockBegin
   2
BLOCK003
  70
64
  10
0.0
  20
0.0
  30
0.0
   3
BLOCK003
   0
LINE
   5
E1
 100
AcDbEntity
   8
LEVEL001
 370
25
 100
AcDbLine
   6
DASHDOT
  62
3
  10
 483.81386861314
  20
 228.61220838345
  30
0.0
  11
 483.81386861314
  21
 187.62625588602
  31
0.0
   0
ARC
   5
E2
 100
AcDbEntity
   8
LEVEL001
 370
25
   6
CONTINUOUS
  62
3
 100
AcDbCircle
  10
 490.81386861314
  20
 222.67826464305
  30
0.0
  40
 1.0000000000000
 100
AcDbArc
  50
0.0
  51
 90.000000000000
   0
LINE
   5
E3
 100
AcDbEntity
   8
LEVEL001
 370
25
 100
AcDbLine
   6
CONTINUOUS
  62
3
  10
 490.81386861314
  20
 223.67826464305
  30
0.0
  11
 476.81387624253
  21
 223.67826464305
  31
0.0
   0
ARC
   5
E4
 100
AcDbEntity
   8
LEVEL001
 370
25
   6
CONTINUOUS
  62
3
 100
AcDbCircle
  10
 476.81387624253
  20
 222.67826464305
  30
0.0
  40
 1.0000000000000
 100
AcDbArc
  50
 90.000000000000
  51
 180.00000000000
   0
LINE
   5
E5
 100
AcDbEntity
   8
LEVEL001
 370
25
 100
AcDbLine
   6
CONTINUOUS
  62
3
  10
 475.81387624253
  20
 222.67826464305
  30
0.0
  11
 475.81387624253
  21
 213.67826464305
  31
0.0
   0
LINE
   5
E6
 100
AcDbEntity
   8
LEVEL001
 370
25
 100
AcDbLine
   6
CONTINUOUS
  62
3
  10
 491.81386861314
  20
 213.67826464305
  30
0.0
  11
 491.81386861314
  21
 222.67826464305
  31
0.0
   0
LWPOLYLINE
   5
E7
 100
AcDbEntity
   8
LEVEL001
 370
25
   6
CONTINUOUS
  62
3
 100
AcDbPolyline
  90
4
  70
0
  10
 493.01388082017
  20
 211.17826464305
  10
 493.01388082017
  20
 213.67826464305
  10
 474.61387929429
  20
 213.67826464305
  10
 474.61387929429
  20
 211.17826464305
   0
LINE
   5
E8
 100
AcDbEntity
   8
LEVEL001
 370
25
 100
AcDbLine
   6
CONTINUOUS
  62
3
  10
 483.81386861314
  20
 213.67826464305
  30
0.0
  11
 485.25725850572
  21
 211.17826464305
  31
0.0
   0
LINE
   5
E9
 100
AcDbEntity
   8
LEVEL001
 370
25
 100
AcDbLine
   6
CONTINUOUS
  62
3
  10
 483.81386861314
  20
 211.17826464305
  30
0.0
  11
 482.37050160874
  21
 213.67826464305
  31
0.0
   0
ENDBLK
   5
EA
 100
AcDbEntity
   8
0
 100
AcDbBlockEnd
   0
BLOCK
   5
EB
 100
AcDbEntity
   8
0
 100
AcDbBlockBegin
   2
BLOCK004
  70
64
  10
0.0
  20
0.0
  30
0.0
   3
BLOCK004
   0
LINE
   5
EC
 100
AcDbEntity
   8
LEVEL001
 370
25
 100
AcDbLine
   6
DASHDOT
  62
3
  10
 385.81386861314
  20
 228.61220838345
  30
0.0
  11
 385.81386861314
  21
 187.62625588602
  31
0.0
   0
ARC
   5
ED
 100
AcDbEntity
   8
LEVEL001
 370
25
   6
CONTINUOUS
  62
3
 100
AcDbCircle
  10
 392.81386861314
  20
 222.67826464305
  30
0.0
  40
 1.0000000000000
 100
AcDbArc
  50
0.0
  51
 90.000000000000
   0
LINE
   5
EE
 100
AcDbEntity
   8
LEVEL001
 370
25
 100
AcDbLine
   6
CONTINUOUS
  62
3
  10
 392.81386861314
  20
 223.67826464305
  30
0.0
  11
 378.81387624253
  21
 223.67826464305
  31
0.0
   0
ARC
   5
EF
 100
AcDbEntity
   8
LEVEL001
 370
25
   6
CONTINUOUS
  62
3
 100
AcDbCircle
  10
 378.81387624253
  20
 222.67826464305
  30
0.0
  40
 1.0000000000000
 100
AcDbArc
  50
 90.000000000000
  51
 180.00000000000
   0
LINE
   5
F0
 100
AcDbEntity
   8
LEVEL001
 370
25
 100
AcDbLine
   6
CONTINUOUS
  62
3
  10
 377.81387624253
  20
 222.67826464305
  30
0.0
  11
 377.81387624253
  21
 213.67826464305
  31
0.0
   0
LINE
   5
F1
 100
AcDbEntity
   8
LEVEL001
 370
25
 100
AcDbLine
   6
CONTINUOUS
  62
3
  10
 393.81386861314
  20
 213.67826464305
  30
0.0
  11
 393.81386861314
  21
 222.67826464305
  31
0.0
   0
LWPOLYLINE
   5
F2
 100
AcDbEntity
   8
LEVEL001
 370
25
   6
CONTINUOUS
  62
3
 100
AcDbPolyline
  90
4
  70
0
  10
 395.01388082017
  20
 211.17826464305
  10
 395.01388082017
  20
 213.67826464305
  10
 376.61387929429
  20
 213.67826464305
  10
 376.61387929429
  20
 211.17826464305
   0
LINE
   5
F3
 100
AcDbEntity
   8
LEVEL001
 370
25
 100
AcDbLine
   6
CONTINUOUS
  62
3
  10
 385.81386861314
  20
 213.67826464305
  30
0.0
  11
 387.25725850572
  21
 211.17826464305
  31
0.0
   0
LINE
   5
F4
 100
AcDbEntity
   8
LEVEL001
 370
25
 100
AcDbLine
   6
CONTINUOUS
  62
3
  10
 385.81386861314
  20
 211.17826464305
  30
0.0
  11
 384.37050160874
  21
 213.67826464305
  31
0.0
   0
ENDBLK
   5
F5
 100
AcDbEntity
   8
0
 100
AcDbBlockEnd
   0
BLOCK
   5
F6
 100
AcDbEntity
   8
0
 100
AcDbBlockBegin
   2
BLOCK005
  70
64
  10
0.0
  20
0.0
  30
0.0
   3
BLOCK005
   0
LWPOLYLINE
   5
F7
 100
AcDbEntity
   8
LEVEL001
 370
40
   6
CONTINUOUS
  62
7
 100
AcDbPolyline
  90
4
  70
1
  10
 367.81386861314
  20
 281.17826464305
  10
 501.81386861314
  20
 281.17826464305
  10
 501.81386861314
  20
 293.17826464305
  10
 367.81386861314
  20
 293.17826464305
   0
LINE
   5
F8
 100
AcDbEntity
   8
LEVEL001
 370
25
 100
AcDbLine
   6
DASHDOT
  62
3
  10
 434.81386861314
  20
 301.69267402528
  30
0.0
  11
 434.81386861314
  21
 172.95016245327
  31
0.0
   0
LINE
   5
F9
 100
AcDbEntity
   8
LEVEL001
 370
40
 100
AcDbLine
   6
CONTINUOUS
  62
7
  10
 404.56386861314
  20
 281.17826464305
  30
0.0
  11
 404.56386861314
  21
 211.17826464305
  31
0.0
   0
LINE
   5
FA
 100
AcDbEntity
   8
LEVEL001
 370
25
 100
AcDbLine
   6
DOT
  62
3
  10
 408.36386861314
  20
 281.17826464305
  30
0.0
  11
 408.36386861314
  21
 211.17826464305
  31
0.0
   0
LINE
   5
FB
 100
AcDbEntity
   8
LEVEL001
 370
25
 100
AcDbLine
   6
DOT
  62
3
  10
 461.26386861314
  20
 281.17826464305
  30
0.0
  11
 461.26386861314
  21
 211.17826464305
  31
0.0
   0
LINE
   5
FC
 100
AcDbEntity
   8
LEVEL001
 370
40
 100
AcDbLine
   6
CONTINUOUS
  62
7
  10
 465.06386861314
  20
 281.17826464305
  30
0.0
  11
 465.06386861314
  21
 211.17826464305
  31
0.0
   0
LWPOLYLINE
   5
FD
 100
AcDbEntity
   8
LEVEL001
 370
40
   6
CONTINUOUS
  62
7
 100
AcDbPolyline
  90
4
  70
1
  10
 367.81386861314
  20
 199.17826464305
  10
 501.81386861314
  20
 199.17826464305
  10
 501.81386861314
  20
 211.17826464305
  10
 367.81386861314
  20
 211.17826464305
   0
ENDBLK
   5
FE
 100
AcDbEntity
   8
0
 100
AcDbBlockEnd
   0
BLOCK
   5
FF
 100
AcDbEntity
   8
0
 100
AcDbBlockBegin
   2
*D1
  70
65
  10
0.0
  20
0.0
  30
0.0
   3
*D1
   0
LINE
   5
100
 100
AcDbEntity
   8
LEVEL001
 370
25
 100
AcDbLine
   6
CONTINUOUS
  62
3
  10
 227.81386861314
  20
 594.43818987004
  30
0.0
  11
 227.81386861314
  21
 610.73299804166
  31
0.0
   0
LINE
   5
101
 100
AcDbEntity
   8
LEVEL001
 370
25
 100
AcDbLine
   6
CONTINUOUS
  62
3
  10
 227.81386861314
  20
 601.73299804166
  30
0.0
  11
 262.81386861314
  21
 601.73299804166
  31
0.0
   0
LINE
   5
102
 100
AcDbEntity
   8
LEVEL001
 370
25
 100
AcDbLine
   6
CONTINUOUS
  62
3
  10
 297.81386861314
  20
 601.73299804166
  30
0.0
  11
 262.81386861314
  21
 601.73299804166
  31
0.0
   0
INSERT
   5
103
 100
AcDbEntity
   8
LEVEL001
   6
CONTINUOUS
  62
3
 100
AcDbBlockReference
   2
_OPEN30
  10
 227.81386861314
  20
 601.73299804166
  30
0.0
  41
 12.000000000000
  42
 12.000000000000
  43
 12.000000000000
  50
 180.00000000000
   0
INSERT
   5
104
 100
AcDbEntity
   8
LEVEL001
   6
CONTINUOUS
  62
3
 100
AcDbBlockReference
   2
_OPEN30
  10
 297.81386861314
  20
 601.73299804166
  30
0.0
  41
 12.000000000000
  42
 12.000000000000
  43
 12.000000000000
  50
0.0
   0
MTEXT
   5
105
 100
AcDbEntity
   8
LEVEL001
 370
40
  62
7
 100
AcDbMText
  10
 262.81386861314
  20
 608.16156947023
  30
0.0
  40
 15.000000000000
  41
0.0
  71
8
  72
1
   1
\A1;７０
   7
GMM003
   0
ENDBLK
   5
106
 100
AcDbEntity
   8
0
 100
AcDbBlockEnd
   0
BLOCK
   5
107
 100
AcDbEntity
   8
0
 100
AcDbBlockBegin
   2
*D2
  70
65
  10
0.0
  20
0.0
  30
0.0
   3
*D2
   0
LINE
   5
108
 100
AcDbEntity
   8
LEVEL001
 370
25
 100
AcDbLine
   6
CONTINUOUS
  62
3
  10
 297.81386861314
  20
 507.17826464305
  30
0.0
  11
 297.81386861314
  21
 610.73299804166
  31
0.0
   0
LINE
   5
109
 100
AcDbEntity
   8
LEVEL001
 370
25
 100
AcDbLine
   6
CONTINUOUS
  62
3
  10
 717.81386861314
  20
 507.17826464305
  30
0.0
  11
 717.81386861314
  21
 610.73299804166
  31
0.0
   0
LINE
   5
10A
 100
AcDbEntity
   8
LEVEL001
 370
25
 100
AcDbLine
   6
CONTINUOUS
  62
3
  10
 297.81386861314
  20
 601.73299804166
  30
0.0
  11
 507.81386861314
  21
 601.73299804166
  31
0.0
   0
LINE
   5
10B
 100
AcDbEntity
   8
LEVEL001
 370
25
 100
AcDbLine
   6
CONTINUOUS
  62
3
  10
 717.81386861314
  20
 601.73299804166
  30
0.0
  11
 507.81386861314
  21
 601.73299804166
  31
0.0
   0
INSERT
   5
10C
 100
AcDbEntity
   8
LEVEL001
   6
CONTINUOUS
  62
3
 100
AcDbBlockReference
   2
_OPEN30
  10
 297.81386861314
  20
 601.73299804166
  30
0.0
  41
 12.000000000000
  42
 12.000000000000
  43
 12.000000000000
  50
 180.00000000000
   0
INSERT
   5
10D
 100
AcDbEntity
   8
LEVEL001
   6
CONTINUOUS
  62
3
 100
AcDbBlockReference
   2
_OPEN30
  10
 717.81386861314
  20
 601.73299804166
  30
0.0
  41
 12.000000000000
  42
 12.000000000000
  43
 12.000000000000
  50
0.0
   0
MTEXT
   5
10E
 100
AcDbEntity
   8
LEVEL001
 370
40
  62
7
 100
AcDbMText
  10
 507.81386861314
  20
 608.16156947023
  30
0.0
  40
 15.000000000000
  41
0.0
  71
8
  72
1
   1
\A1;４２０
   7
GMM003
   0
ENDBLK
   5
10F
 100
AcDbEntity
   8
0
 100
AcDbBlockEnd
   0
BLOCK
   5
110
 100
AcDbEntity
   8
0
 100
AcDbBlockBegin
   2
BLOCK006
  70
64
  10
0.0
  20
0.0
  30
0.0
   3
BLOCK006
   0
LWPOLYLINE
   5
111
 100
AcDbEntity
   8
LEVEL001
 370
40
   6
CONTINUOUS
  62
7
 100
AcDbPolyline
  90
4
  70
0
  10
 347.81386861314
  20
 440.55326464305
  10
 347.81386861314
  20
 431.17826464305
  10
 87.813868613139
  20
 431.17826464305
  10
 87.813868613038
  20
 471.30984359041
   0
LWPOLYLINE
   5
112
 100
AcDbEntity
   8
LEVEL001
 370
40
   6
CONTINUOUS
  62
7
 100
AcDbPolyline
  90
3
  70
0
  10
 227.81386861314
  20
 431.17826464305
  10
 387.81386861314
  20
 443.67826464305
  10
 387.81386861314
  20
 491.04668569568
   0
LWPOLYLINE
   5
113
 100
AcDbEntity
   8
LEVEL001
 370
40
   6
CONTINUOUS
  62
7
 100
AcDbPolyline
  90
4
  70
1
  10
 107.31386861314
  20
 419.17826464305
  10
 348.31386861314
  20
 419.17826464305
  10
 348.31386861314
  20
 431.17826464305
  10
 107.31386861314
  20
 431.17826464305
   0
LWPOLYLINE
   5
114
 100
AcDbEntity
   8
LEVEL001
 370
40
   6
CONTINUOUS
  62
7
 100
AcDbPolyline
  90
8
  70
0
  10
 47.813868613139
  20
 506.17826464305
  10
 47.813868613139
  20
 468.67826464305
  10
 427.81386861314
  20
 493.67826464305
  10
 427.81386861314
  20
 543.67826464305
  10
-7.1861313868612
  20
 543.67826464305
  10
-7.1861313868612
  20
 506.17826464305
  10
 294.81386861314
  20
 506.17826464305
  10
 294.81386861314
  20
 543.67826464305
   0
ENDBLK
   5
115
 100
AcDbEntity
   8
0
 100
AcDbBlockEnd
   0
BLOCK
   5
116
 100
AcDbEntity
   8
0
 100
AcDbBlockBegin
   2
*D3
  70
65
  10
0.0
  20
0.0
  30
0.0
   3
*D3
   0
LINE
   5
117
 100
AcDbEntity
   8
LEVEL001
 370
25
 100
AcDbLine
   6
CONTINUOUS
  62
3
  10
 27.813868613139
  20
 549.67826464305
  30
0.0
  11
 27.813868613139
  21
 654.97962658002
  31
0.0
   0
LINE
   5
118
 100
AcDbEntity
   8
LEVEL001
 370
25
 100
AcDbLine
   6
CONTINUOUS
  62
3
  10
 427.81386861314
  20
 549.67826464305
  30
0.0
  11
 427.81386861314
  21
 654.97962658002
  31
0.0
   0
LINE
   5
119
 100
AcDbEntity
   8
LEVEL001
 370
25
 100
AcDbLine
   6
CONTINUOUS
  62
3
  10
 27.813868613139
  20
 645.97962658002
  30
0.0
  11
 227.81386861314
  21
 645.97962658002
  31
0.0
   0
LINE
   5
11A
 100
AcDbEntity
   8
LEVEL001
 370
25
 100
AcDbLine
   6
CONTINUOUS
  62
3
  10
 427.81386861314
  20
 645.97962658002
  30
0.0
  11
 227.81386861314
  21
 645.97962658002
  31
0.0
   0
INSERT
   5
11B
 100
AcDbEntity
   8
LEVEL001
   6
CONTINUOUS
  62
3
 100
AcDbBlockReference
   2
_OPEN30
  10
 27.813868613139
  20
 645.97962658002
  30
0.0
  41
 12.000000000000
  42
 12.000000000000
  43
 12.000000000000
  50
 180.00000000000
   0
INSERT
   5
11C
 100
AcDbEntity
   8
LEVEL001
   6
CONTINUOUS
  62
3
 100
AcDbBlockReference
   2
_OPEN30
  10
 427.81386861314
  20
 645.97962658002
  30
0.0
  41
 12.000000000000
  42
 12.000000000000
  43
 12.000000000000
  50
0.0
   0
MTEXT
   5
11D
 100
AcDbEntity
   8
LEVEL001
 370
40
  62
7
 100
AcDbMText
  10
 227.81386861314
  20
 652.40819800860
  30
0.0
  40
 15.000000000000
  41
0.0
  71
8
  72
1
   1
\A1;φ４００
   7
GMM003
   0
ENDBLK
   5
11E
 100
AcDbEntity
   8
0
 100
AcDbBlockEnd
   0
BLOCK
   5
11F
 100
AcDbEntity
   8
0
 100
AcDbBlockBegin
   2
*D4
  70
65
  10
0.0
  20
0.0
  30
0.0
   3
*D4
   0
LINE
   5
120
 100
AcDbEntity
   8
LEVEL001
 370
25
 100
AcDbLine
   6
CONTINUOUS
  62
3
  10
 31.813868613139
  20
 183.17826464305
  30
0.0
  11
-84.248954068008
  21
 183.17826464305
  31
0.0
   0
LINE
   5
121
 100
AcDbEntity
   8
LEVEL001
 370
25
 100
AcDbLine
   6
CONTINUOUS
  62
3
  10
-13.186131386861
  20
 543.67826464305
  30
0.0
  11
-84.248954068008
  21
 543.67826464305
  31
0.0
   0
LINE
   5
122
 100
AcDbEntity
   8
LEVEL001
 370
25
 100
AcDbLine
   6
CONTINUOUS
  62
3
  10
-75.248954068008
  20
 183.17826464305
  30
0.0
  11
-75.248954068008
  21
 363.42826464305
  31
0.0
   0
LINE
   5
123
 100
AcDbEntity
   8
LEVEL001
 370
25
 100
AcDbLine
   6
CONTINUOUS
  62
3
  10
-75.248954068008
  20
 543.67826464305
  30
0.0
  11
-75.248954068008
  21
 363.42826464305
  31
0.0
   0
INSERT
   5
124
 100
AcDbEntity
   8
LEVEL001
   6
CONTINUOUS
  62
3
 100
AcDbBlockReference
   2
_OPEN30
  10
-75.248954068008
  20
 183.17826464305
  30
0.0
  41
 12.000000000000
  42
 12.000000000000
  43
 12.000000000000
  50
 270.00000000000
   0
INSERT
   5
125
 100
AcDbEntity
   8
LEVEL001
   6
CONTINUOUS
  62
3
 100
AcDbBlockReference
   2
_OPEN30
  10
-75.248954068008
  20
 543.67826464305
  30
0.0
  41
 12.000000000000
  42
 12.000000000000
  43
 12.000000000000
  50
 90.000000000000
   0
MTEXT
   5
126
 100
AcDbEntity
   8
LEVEL001
 370
40
  62
7
 100
AcDbMText
  10
-81.677525496579
  20
 363.42826464305
  30
0.0
  40
 15.000000000000
  41
0.0
  71
8
  72
1
   1
\A1;（３６１）
   7
GMM003
  11
0.0
  21
 1.0000000000000
  31
0.0
   0
ENDBLK
   5
127
 100
AcDbEntity
   8
0
 100
AcDbBlockEnd
   0
BLOCK
   5
128
 100
AcDbEntity
   8
0
 100
AcDbBlockBegin
   2
*D5
  70
65
  10
0.0
  20
0.0
  30
0.0
   3
*D5
   0
LINE
   5
129
 100
AcDbEntity
   8
LEVEL001
 370
25
 100
AcDbLine
   6
CONTINUOUS
  62
3
  10
 543.81386861314
  20
 199.17826464305
  30
0.0
  11
 595.93857374933
  21
 199.17826464305
  31
0.0
   0
LINE
   5
12A
 100
AcDbEntity
   8
LEVEL001
 370
25
 100
AcDbLine
   6
CONTINUOUS
  62
3
  10
 586.93857374933
  20
 168.17826464305
  30
0.0
  11
 586.93857374933
  21
 191.17826464305
  31
0.0
   0
LINE
   5
12B
 100
AcDbEntity
   8
LEVEL001
 370
25
 100
AcDbLine
   6
CONTINUOUS
  62
3
  10
 586.93857374933
  20
 254.58018070144
  30
0.0
  11
 586.93857374933
  21
 191.17826464305
  31
0.0
   0
INSERT
   5
12C
 100
AcDbEntity
   8
LEVEL001
   6
CONTINUOUS
  62
3
 100
AcDbBlockReference
   2
_OPEN30
  10
 586.93857374933
  20
 183.17826464305
  30
0.0
  41
 12.000000000000
  42
 12.000000000000
  43
 12.000000000000
  50
 90.000000000000
   0
INSERT
   5
12D
 100
AcDbEntity
   8
LEVEL001
   6
CONTINUOUS
  62
3
 100
AcDbBlockReference
   2
_OPEN30
  10
 586.93857374933
  20
 199.17826464305
  30
0.0
  41
 12.000000000000
  42
 12.000000000000
  43
 12.000000000000
  50
 270.00000000000
   0
MTEXT
   5
12E
 100
AcDbEntity
   8
LEVEL001
 370
40
  62
7
 100
AcDbMText
  10
 579.94087146163
  20
 212.58018070144
  30
0.0
  40
 15.000000000000
  41
0.0
  71
7
  72
1
   1
\A1;１６
   7
GMM003
  11
0.0
  21
 1.0000000000000
  31
0.0
   0
ENDBLK
   5
12F
 100
AcDbEntity
   8
0
 100
AcDbBlockEnd
   0
BLOCK
   5
130
 100
AcDbEntity
   8
0
 100
AcDbBlockBegin
   2
*D6
  70
65
  10
0.0
  20
0.0
  30
0.0
   3
*D6
   0
LINE
   5
131
 100
AcDbEntity
   8
LEVEL001
 370
25
 100
AcDbLine
   6
CONTINUOUS
  62
3
  10
 543.81386861314
  20
 183.17826464305
  30
0.0
  11
 632.30844979526
  21
 183.17826464305
  31
0.0
   0
LINE
   5
132
 100
AcDbEntity
   8
LEVEL001
 370
25
 100
AcDbLine
   6
CONTINUOUS
  62
3
  10
 623.30844979526
  20
 183.17826464305
  30
0.0
  11
 623.30844979526
  21
 344.67826464305
  31
0.0
   0
LINE
   5
133
 100
AcDbEntity
   8
LEVEL001
 370
25
 100
AcDbLine
   6
CONTINUOUS
  62
3
  10
 623.30844979526
  20
 506.17826464305
  30
0.0
  11
 623.30844979526
  21
 344.67826464305
  31
0.0
   0
INSERT
   5
134
 100
AcDbEntity
   8
LEVEL001
   6
CONTINUOUS
  62
3
 100
AcDbBlockReference
   2
_OPEN30
  10
 623.30844979526
  20
 183.17826464305
  30
0.0
  41
 12.000000000000
  42
 12.000000000000
  43
 12.000000000000
  50
 270.00000000000
   0
INSERT
   5
135
 100
AcDbEntity
   8
LEVEL001
   6
CONTINUOUS
  62
3
 100
AcDbBlockReference
   2
_OPEN30
  10
 623.30844979526
  20
 506.17826464305
  30
0.0
  41
 12.000000000000
  42
 12.000000000000
  43
 12.000000000000
  50
 90.000000000000
   0
MTEXT
   5
136
 100
AcDbEntity
   8
LEVEL001
 370
40
  62
7
 100
AcDbMText
  10
 616.87987836669
  20
 344.67826464305
  30
0.0
  40
 15.000000000000
  41
0.0
  71
8
  72
1
   1
\A1;（３２３）
   7
GMM003
  11
0.0
  21
 1.0000000000000
  31
0.0
   0
ENDBLK
   5
137
 100
AcDbEntity
   8
0
 100
AcDbBlockEnd
   0
BLOCK
   5
138
 100
AcDbEntity
   8
0
 100
AcDbBlockBegin
   2
BLOCK007
  70
64
  10
0.0
  20
0.0
  30
0.0
   3
BLOCK007
   0
LINE
   5
139
 100
AcDbEntity
   8
LEVEL001
 370
25
 100
AcDbLine
   6
DASHDOT
  62
3
  10
 379.81386861314
  20
 254.45388165115
  30
0.0
  11
 379.81386861314
  21
 347.30639418406
  31
0.0
   0
LINE
   5
13A
 100
AcDbEntity
   8
LEVEL001
 370
25
 100
AcDbLine
   6
CONTINUOUS
  62
3
  10
 374.81386861329
  20
 301.17826464305
  30
0.0
  11
 374.81386861329
  21
 323.67826464305
  31
0.0
   0
LINE
   5
13B
 100
AcDbEntity
   8
LEVEL001
 370
25
 100
AcDbLine
   6
CONTINUOUS
  62
3
  10
 375.81386861329
  20
 301.17826464305
  30
0.0
  11
 375.81386861329
  21
 323.67826464305
  31
0.0
   0
LINE
   5
13C
 100
AcDbEntity
   8
LEVEL001
 370
25
 100
AcDbLine
   6
CONTINUOUS
  62
3
  10
 383.81386861329
  20
 301.17826464305
  30
0.0
  11
 383.81386861329
  21
 323.67826464305
  31
0.0
   0
LINE
   5
13D
 100
AcDbEntity
   8
LEVEL001
 370
25
 100
AcDbLine
   6
CONTINUOUS
  62
3
  10
 384.81386861329
  20
 301.17826464305
  30
0.0
  11
 384.81386861329
  21
 323.67826464305
  31
0.0
   0
LINE
   5
13E
 100
AcDbEntity
   8
LEVEL001
 370
25
 100
AcDbLine
   6
CONTINUOUS
  62
3
  10
 374.90639132504
  20
 324.89566443261
  30
0.0
  11
 374.90639132504
  21
 331.67826464305
  31
0.0
   0
LINE
   5
13F
 100
AcDbEntity
   8
LEVEL001
 370
25
 100
AcDbLine
   6
CONTINUOUS
  62
3
  10
 384.72134590124
  20
 324.89566443261
  30
0.0
  11
 384.72134590124
  21
 331.67826464305
  31
0.0
   0
LINE
   5
140
 100
AcDbEntity
   8
LEVEL001
 370
25
 100
AcDbLine
   6
CONTINUOUS
  62
3
  10
 369.99891403694
  20
 324.89566443261
  30
0.0
  11
 369.99891403694
  21
 331.67826464305
  31
0.0
   0
ARC
   5
141
 100
AcDbEntity
   8
LEVEL001
 370
25
   6
CONTINUOUS
  62
3
 100
AcDbCircle
  10
 387.17508454529
  20
 326.75978956413
  30
0.0
  40
 3.0815249210842
 100
AcDbArc
  50
 217.22423129714
  51
 322.77576870286
   0
ARC
   5
142
 100
AcDbEntity
   8
LEVEL001
 370
25
   6
CONTINUOUS
  62
3
 100
AcDbCircle
  10
 379.81386861314
  20
 334.17826464305
  30
0.0
  40
 10.500000000000
 100
AcDbArc
  50
 242.13571783472
  51
 297.86428216527
   0
ARC
   5
143
 100
AcDbEntity
   8
LEVEL001
 370
25
   6
CONTINUOUS
  62
3
 100
AcDbCircle
  10
 372.45265268099
  20
 326.75978956413
  30
0.0
  40
 3.0815249210842
 100
AcDbArc
  50
 217.22423129714
  51
 322.77576870286
   0
LINE
   5
144
 100
AcDbEntity
   8
LEVEL001
 370
25
 100
AcDbLine
   6
CONTINUOUS
  62
3
  10
 387.17508454529
  20
 323.67826464305
  30
0.0
  11
 372.45265268099
  21
 323.67826464305
  31
0.0
   0
LINE
   5
145
 100
AcDbEntity
   8
LEVEL001
 370
25
 100
AcDbLine
   6
CONTINUOUS
  62
3
  10
 389.62882318934
  20
 331.67826464305
  30
0.0
  11
 389.62882318934
  21
 324.89566443261
  31
0.0
   0
LINE
   5
146
 100
AcDbEntity
   8
LEVEL001
 370
25
 100
AcDbLine
   6
CONTINUOUS
  62
3
  10
 389.62882318934
  20
 331.67826464305
  30
0.0
  11
 369.99891403694
  21
 331.67826464305
  31
0.0
   0
LINE
   5
147
 100
AcDbEntity
   8
LEVEL001
 370
25
 100
AcDbLine
   6
CONTINUOUS
  62
3
  10
 389.01388082017
  20
 334.17826464305
  30
0.0
  11
 389.01388082017
  21
 331.67826464305
  31
0.0
   0
LINE
   5
148
 100
AcDbEntity
   8
LEVEL001
 370
25
 100
AcDbLine
   6
CONTINUOUS
  62
3
  10
 379.81386861314
  20
 331.67826464305
  30
0.0
  11
 381.25725850572
  21
 334.17826464305
  31
0.0
   0
LINE
   5
149
 100
AcDbEntity
   8
LEVEL001
 370
25
 100
AcDbLine
   6
CONTINUOUS
  62
3
  10
 379.81386861314
  20
 334.17826464305
  30
0.0
  11
 378.37050160874
  21
 331.67826464305
  31
0.0
   0
LINE
   5
14A
 100
AcDbEntity
   8
LEVEL001
 370
25
 100
AcDbLine
   6
CONTINUOUS
  62
3
  10
 370.61387929429
  20
 331.67826464305
  30
0.0
  11
 370.61387929429
  21
 334.17826464305
  31
0.0
   0
LINE
   5
14B
 100
AcDbEntity
   8
LEVEL001
 370
25
 100
AcDbLine
   6
CONTINUOUS
  62
3
  10
 387.17508454529
  20
 301.17826464305
  30
0.0
  11
 372.45265268099
  21
 301.17826464305
  31
0.0
   0
LINE
   5
14C
 100
AcDbEntity
   8
LEVEL001
 370
25
 100
AcDbLine
   6
CONTINUOUS
  62
3
  10
 374.90639132504
  20
 299.96086485348
  30
0.0
  11
 374.90639132504
  21
 293.17826464305
  31
0.0
   0
LINE
   5
14D
 100
AcDbEntity
   8
LEVEL001
 370
25
 100
AcDbLine
   6
CONTINUOUS
  62
3
  10
 384.72134590124
  20
 299.96086485348
  30
0.0
  11
 384.72134590124
  21
 293.17826464305
  31
0.0
   0
LINE
   5
14E
 100
AcDbEntity
   8
LEVEL001
 370
25
 100
AcDbLine
   6
CONTINUOUS
  62
3
  10
 369.99891403694
  20
 299.96086485348
  30
0.0
  11
 369.99891403694
  21
 293.17826464305
  31
0.0
   0
LINE
   5
14F
 100
AcDbEntity
   8
LEVEL001
 370
25
 100
AcDbLine
   6
CONTINUOUS
  62
3
  10
 389.62882318934
  20
 293.17826464305
  30
0.0
  11
 389.62882318934
  21
 299.96086485348
  31
0.0
   0
ARC
   5
150
 100
AcDbEntity
   8
LEVEL001
 370
25
   6
CONTINUOUS
  62
3
 100
AcDbCircle
  10
 372.45265268099
  20
 298.09673972196
  30
0.0
  40
 3.0815249210842
 100
AcDbArc
  50
 37.224231297144
  51
 142.77576870286
   0
ARC
   5
151
 100
AcDbEntity
   8
LEVEL001
 370
25
   6
CONTINUOUS
  62
3
 100
AcDbCircle
  10
 379.81386861314
  20
 290.67826464305
  30
0.0
  40
 10.500000000000
 100
AcDbArc
  50
 62.135717834725
  51
 117.86428216528
   0
ARC
   5
152
 100
AcDbEntity
   8
LEVEL001
 370
25
   6
CONTINUOUS
  62
3
 100
AcDbCircle
  10
 387.17508454529
  20
 298.09673972196
  30
0.0
  40
 3.0815249210842
 100
AcDbArc
  50
 37.224231297140
  51
 142.77576870286
   0
LWPOLYLINE
   5
153
 100
AcDbEntity
   8
LEVEL001
 370
25
   6
CONTINUOUS
  62
3
 100
AcDbPolyline
  90
6
  70
0
  10
 384.81386861329
  20
 270.67826464305
  10
 384.81386861329
  20
 261.17826464305
  10
 383.81386861329
  20
 260.17826464305
  10
 375.81386861329
  20
 260.17826464305
  10
 374.81386861329
  20
 261.17826464305
  10
 374.81386861329
  20
 270.67826464305
   0
LINE
   5
154
 100
AcDbEntity
   8
LEVEL001
 370
25
 100
AcDbLine
   6
CONTINUOUS
  62
3
  10
 383.81386861329
  20
 260.17826464305
  30
0.0
  11
 383.81386861329
  21
 270.67826464305
  31
0.0
   0
LINE
   5
155
 100
AcDbEntity
   8
LEVEL001
 370
25
 100
AcDbLine
   6
CONTINUOUS
  62
3
  10
 375.81386861329
  20
 260.17826464305
  30
0.0
  11
 375.81386861329
  21
 270.67826464305
  31
0.0
   0
LINE
   5
156
 100
AcDbEntity
   8
LEVEL001
 370
25
 100
AcDbLine
   6
CONTINUOUS
  62
3
  10
 384.81386861329
  20
 261.17826464305
  30
0.0
  11
 374.81386861329
  21
 261.17826464305
  31
0.0
   0
LINE
   5
157
 100
AcDbEntity
   8
LEVEL001
 370
25
 100
AcDbLine
   6
CONTINUOUS
  62
3
  10
 389.62882318934
  20
 278.67826464305
  30
0.0
  11
 369.99891403694
  21
 278.67826464305
  31
0.0
   0
LINE
   5
158
 100
AcDbEntity
   8
LEVEL001
 370
25
 100
AcDbLine
   6
CONTINUOUS
  62
3
  10
 389.01388082017
  20
 281.17826464305
  30
0.0
  11
 389.01388082017
  21
 278.67826464305
  31
0.0
   0
LINE
   5
159
 100
AcDbEntity
   8
LEVEL001
 370
25
 100
AcDbLine
   6
CONTINUOUS
  62
3
  10
 379.81386861314
  20
 278.67826464305
  30
0.0
  11
 381.25725850572
  21
 281.17826464305
  31
0.0
   0
LINE
   5
15A
 100
AcDbEntity
   8
LEVEL001
 370
25
 100
AcDbLine
   6
CONTINUOUS
  62
3
  10
 379.81386861314
  20
 281.17826464305
  30
0.0
  11
 378.37050160874
  21
 278.67826464305
  31
0.0
   0
LINE
   5
15B
 100
AcDbEntity
   8
LEVEL001
 370
25
 100
AcDbLine
   6
CONTINUOUS
  62
3
  10
 370.61387929429
  20
 278.67826464305
  30
0.0
  11
 370.61387929429
  21
 281.17826464305
  31
0.0
   0
LINE
   5
15C
 100
AcDbEntity
   8
LEVEL001
 370
25
 100
AcDbLine
   6
CONTINUOUS
  62
3
  10
 387.17508454529
  20
 270.67826464305
  30
0.0
  11
 372.45265268099
  21
 270.67826464305
  31
0.0
   0
LINE
   5
15D
 100
AcDbEntity
   8
LEVEL001
 370
25
 100
AcDbLine
   6
CONTINUOUS
  62
3
  10
 374.90639132504
  20
 271.89566443261
  30
0.0
  11
 374.90639132504
  21
 278.67826464305
  31
0.0
   0
LINE
   5
15E
 100
AcDbEntity
   8
LEVEL001
 370
25
 100
AcDbLine
   6
CONTINUOUS
  62
3
  10
 384.72134590124
  20
 271.89566443261
  30
0.0
  11
 384.72134590124
  21
 278.67826464305
  31
0.0
   0
LINE
   5
15F
 100
AcDbEntity
   8
LEVEL001
 370
25
 100
AcDbLine
   6
CONTINUOUS
  62
3
  10
 369.99891403694
  20
 271.89566443261
  30
0.0
  11
 369.99891403694
  21
 278.67826464305
  31
0.0
   0
LINE
   5
160
 100
AcDbEntity
   8
LEVEL001
 370
25
 100
AcDbLine
   6
CONTINUOUS
  62
3
  10
 389.62882318934
  20
 278.67826464305
  30
0.0
  11
 389.62882318934
  21
 271.89566443261
  31
0.0
   0
ARC
   5
161
 100
AcDbEntity
   8
LEVEL001
 370
25
   6
CONTINUOUS
  62
3
 100
AcDbCircle
  10
 372.45265268099
  20
 273.75978956413
  30
0.0
  40
 3.0815249210842
 100
AcDbArc
  50
 217.22423129714
  51
 322.77576870286
   0
ARC
   5
162
 100
AcDbEntity
   8
LEVEL001
 370
25
   6
CONTINUOUS
  62
3
 100
AcDbCircle
  10
 379.81386861314
  20
 281.17826464305
  30
0.0
  40
 10.500000000000
 100
AcDbArc
  50
 242.13571783472
  51
 297.86428216528
   0
ARC
   5
163
 100
AcDbEntity
   8
LEVEL001
 370
25
   6
CONTINUOUS
  62
3
 100
AcDbCircle
  10
 387.17508454529
  20
 273.75978956413
  30
0.0
  40
 3.0815249210842
 100
AcDbArc
  50
 217.22423129714
  51
 322.77576870286
   0
ENDBLK
   5
164
 100
AcDbEntity
   8
0
 100
AcDbBlockEnd
   0
BLOCK
   5
165
 100
AcDbEntity
   8
0
 100
AcDbBlockBegin
   2
BLOCK008
  70
64
  10
0.0
  20
0.0
  30
0.0
   3
BLOCK008
   0
LINE
   5
166
 100
AcDbEntity
   8
LEVEL001
 370
25
 100
AcDbLine
   6
DASHDOT
  62
3
  10
 489.81386861314
  20
 254.45388165115
  30
0.0
  11
 489.81386861314
  21
 347.30639418406
  31
0.0
   0
LINE
   5
167
 100
AcDbEntity
   8
LEVEL001
 370
25
 100
AcDbLine
   6
CONTINUOUS
  62
3
  10
 484.81386861329
  20
 301.17826464305
  30
0.0
  11
 484.81386861329
  21
 323.67826464305
  31
0.0
   0
LINE
   5
168
 100
AcDbEntity
   8
LEVEL001
 370
25
 100
AcDbLine
   6
CONTINUOUS
  62
3
  10
 485.81386861329
  20
 301.17826464305
  30
0.0
  11
 485.81386861329
  21
 323.67826464305
  31
0.0
   0
LINE
   5
169
 100
AcDbEntity
   8
LEVEL001
 370
25
 100
AcDbLine
   6
CONTINUOUS
  62
3
  10
 493.81386861329
  20
 301.17826464305
  30
0.0
  11
 493.81386861329
  21
 323.67826464305
  31
0.0
   0
LINE
   5
16A
 100
AcDbEntity
   8
LEVEL001
 370
25
 100
AcDbLine
   6
CONTINUOUS
  62
3
  10
 494.81386861329
  20
 301.17826464305
  30
0.0
  11
 494.81386861329
  21
 323.67826464305
  31
0.0
   0
LINE
   5
16B
 100
AcDbEntity
   8
LEVEL001
 370
25
 100
AcDbLine
   6
CONTINUOUS
  62
3
  10
 484.90639132504
  20
 324.89566443261
  30
0.0
  11
 484.90639132504
  21
 331.67826464305
  31
0.0
   0
LINE
   5
16C
 100
AcDbEntity
   8
LEVEL001
 370
25
 100
AcDbLine
   6
CONTINUOUS
  62
3
  10
 494.72134590124
  20
 324.89566443261
  30
0.0
  11
 494.72134590124
  21
 331.67826464305
  31
0.0
   0
LINE
   5
16D
 100
AcDbEntity
   8
LEVEL001
 370
25
 100
AcDbLine
   6
CONTINUOUS
  62
3
  10
 479.99891403694
  20
 324.89566443261
  30
0.0
  11
 479.99891403694
  21
 331.67826464305
  31
0.0
   0
ARC
   5
16E
 100
AcDbEntity
   8
LEVEL001
 370
25
   6
CONTINUOUS
  62
3
 100
AcDbCircle
  10
 497.17508454529
  20
 326.75978956413
  30
0.0
  40
 3.0815249210842
 100
AcDbArc
  50
 217.22423129714
  51
 322.77576870286
   0
ARC
   5
16F
 100
AcDbEntity
   8
LEVEL001
 370
25
   6
CONTINUOUS
  62
3
 100
AcDbCircle
  10
 489.81386861314
  20
 334.17826464305
  30
0.0
  40
 10.500000000000
 100
AcDbArc
  50
 242.13571783472
  51
 297.86428216527
   0
ARC
   5
170
 100
AcDbEntity
   8
LEVEL001
 370
25
   6
CONTINUOUS
  62
3
 100
AcDbCircle
  10
 482.45265268099
  20
 326.75978956413
  30
0.0
  40
 3.0815249210842
 100
AcDbArc
  50
 217.22423129714
  51
 322.77576870286
   0
LINE
   5
171
 100
AcDbEntity
   8
LEVEL001
 370
25
 100
AcDbLine
   6
CONTINUOUS
  62
3
  10
 497.17508454529
  20
 323.67826464305
  30
0.0
  11
 482.45265268099
  21
 323.67826464305
  31
0.0
   0
LINE
   5
172
 100
AcDbEntity
   8
LEVEL001
 370
25
 100
AcDbLine
   6
CONTINUOUS
  62
3
  10
 499.62882318934
  20
 331.67826464305
  30
0.0
  11
 499.62882318934
  21
 324.89566443261
  31
0.0
   0
LINE
   5
173
 100
AcDbEntity
   8
LEVEL001
 370
25
 100
AcDbLine
   6
CONTINUOUS
  62
3
  10
 499.62882318934
  20
 331.67826464305
  30
0.0
  11
 479.99891403694
  21
 331.67826464305
  31
0.0
   0
LINE
   5
174
 100
AcDbEntity
   8
LEVEL001
 370
25
 100
AcDbLine
   6
CONTINUOUS
  62
3
  10
 499.01388082017
  20
 334.17826464305
  30
0.0
  11
 499.01388082017
  21
 331.67826464305
  31
0.0
   0
LINE
   5
175
 100
AcDbEntity
   8
LEVEL001
 370
25
 100
AcDbLine
   6
CONTINUOUS
  62
3
  10
 489.81386861314
  20
 331.67826464305
  30
0.0
  11
 491.25725850572
  21
 334.17826464305
  31
0.0
   0
LINE
   5
176
 100
AcDbEntity
   8
LEVEL001
 370
25
 100
AcDbLine
   6
CONTINUOUS
  62
3
  10
 489.81386861314
  20
 334.17826464305
  30
0.0
  11
 488.37050160874
  21
 331.67826464305
  31
0.0
   0
LINE
   5
177
 100
AcDbEntity
   8
LEVEL001
 370
25
 100
AcDbLine
   6
CONTINUOUS
  62
3
  10
 480.61387929429
  20
 331.67826464305
  30
0.0
  11
 480.61387929429
  21
 334.17826464305
  31
0.0
   0
LINE
   5
178
 100
AcDbEntity
   8
LEVEL001
 370
25
 100
AcDbLine
   6
CONTINUOUS
  62
3
  10
 497.17508454529
  20
 301.17826464305
  30
0.0
  11
 482.45265268099
  21
 301.17826464305
  31
0.0
   0
LINE
   5
179
 100
AcDbEntity
   8
LEVEL001
 370
25
 100
AcDbLine
   6
CONTINUOUS
  62
3
  10
 484.90639132504
  20
 299.96086485348
  30
0.0
  11
 484.90639132504
  21
 293.17826464305
  31
0.0
   0
LINE
   5
17A
 100
AcDbEntity
   8
LEVEL001
 370
25
 100
AcDbLine
   6
CONTINUOUS
  62
3
  10
 494.72134590124
  20
 299.96086485348
  30
0.0
  11
 494.72134590124
  21
 293.17826464305
  31
0.0
   0
LINE
   5
17B
 100
AcDbEntity
   8
LEVEL001
 370
25
 100
AcDbLine
   6
CONTINUOUS
  62
3
  10
 479.99891403694
  20
 299.96086485348
  30
0.0
  11
 479.99891403694
  21
 293.17826464305
  31
0.0
   0
LINE
   5
17C
 100
AcDbEntity
   8
LEVEL001
 370
25
 100
AcDbLine
   6
CONTINUOUS
  62
3
  10
 499.62882318934
  20
 293.17826464305
  30
0.0
  11
 499.62882318934
  21
 299.96086485348
  31
0.0
   0
ARC
   5
17D
 100
AcDbEntity
   8
LEVEL001
 370
25
   6
CONTINUOUS
  62
3
 100
AcDbCircle
  10
 482.45265268099
  20
 298.09673972196
  30
0.0
  40
 3.0815249210842
 100
AcDbArc
  50
 37.224231297144
  51
 142.77576870286
   0
ARC
   5
17E
 100
AcDbEntity
   8
LEVEL001
 370
25
   6
CONTINUOUS
  62
3
 100
AcDbCircle
  10
 489.81386861314
  20
 290.67826464305
  30
0.0
  40
 10.500000000000
 100
AcDbArc
  50
 62.135717834725
  51
 117.86428216528
   0
ARC
   5
17F
 100
AcDbEntity
   8
LEVEL001
 370
25
   6
CONTINUOUS
  62
3
 100
AcDbCircle
  10
 497.17508454529
  20
 298.09673972196
  30
0.0
  40
 3.0815249210842
 100
AcDbArc
  50
 37.224231297140
  51
 142.77576870286
   0
LWPOLYLINE
   5
180
 100
AcDbEntity
   8
LEVEL001
 370
25
   6
CONTINUOUS
  62
3
 100
AcDbPolyline
  90
6
  70
0
  10
 494.81386861329
  20
 270.67826464305
  10
 494.81386861329
  20
 261.17826464305
  10
 493.81386861329
  20
 260.17826464305
  10
 485.81386861329
  20
 260.17826464305
  10
 484.81386861329
  20
 261.17826464305
  10
 484.81386861329
  20
 270.67826464305
   0
LINE
   5
181
 100
AcDbEntity
   8
LEVEL001
 370
25
 100
AcDbLine
   6
CONTINUOUS
  62
3
  10
 493.81386861329
  20
 260.17826464305
  30
0.0
  11
 493.81386861329
  21
 270.67826464305
  31
0.0
   0
LINE
   5
182
 100
AcDbEntity
   8
LEVEL001
 370
25
 100
AcDbLine
   6
CONTINUOUS
  62
3
  10
 485.81386861329
  20
 260.17826464305
  30
0.0
  11
 485.81386861329
  21
 270.67826464305
  31
0.0
   0
LINE
   5
183
 100
AcDbEntity
   8
LEVEL001
 370
25
 100
AcDbLine
   6
CONTINUOUS
  62
3
  10
 494.81386861329
  20
 261.17826464305
  30
0.0
  11
 484.81386861329
  21
 261.17826464305
  31
0.0
   0
LINE
   5
184
 100
AcDbEntity
   8
LEVEL001
 370
25
 100
AcDbLine
   6
CONTINUOUS
  62
3
  10
 499.62882318934
  20
 278.67826464305
  30
0.0
  11
 479.99891403694
  21
 278.67826464305
  31
0.0
   0
LINE
   5
185
 100
AcDbEntity
   8
LEVEL001
 370
25
 100
AcDbLine
   6
CONTINUOUS
  62
3
  10
 499.01388082017
  20
 281.17826464305
  30
0.0
  11
 499.01388082017
  21
 278.67826464305
  31
0.0
   0
LINE
   5
186
 100
AcDbEntity
   8
LEVEL001
 370
25
 100
AcDbLine
   6
CONTINUOUS
  62
3
  10
 489.81386861314
  20
 278.67826464305
  30
0.0
  11
 491.25725850572
  21
 281.17826464305
  31
0.0
   0
LINE
   5
187
 100
AcDbEntity
   8
LEVEL001
 370
25
 100
AcDbLine
   6
CONTINUOUS
  62
3
  10
 489.81386861314
  20
 281.17826464305
  30
0.0
  11
 488.37050160874
  21
 278.67826464305
  31
0.0
   0
LINE
   5
188
 100
AcDbEntity
   8
LEVEL001
 370
25
 100
AcDbLine
   6
CONTINUOUS
  62
3
  10
 480.61387929429
  20
 278.67826464305
  30
0.0
  11
 480.61387929429
  21
 281.17826464305
  31
0.0
   0
LINE
   5
189
 100
AcDbEntity
   8
LEVEL001
 370
25
 100
AcDbLine
   6
CONTINUOUS
  62
3
  10
 497.17508454529
  20
 270.67826464305
  30
0.0
  11
 482.45265268099
  21
 270.67826464305
  31
0.0
   0
LINE
   5
18A
 100
AcDbEntity
   8
LEVEL001
 370
25
 100
AcDbLine
   6
CONTINUOUS
  62
3
  10
 484.90639132504
  20
 271.89566443261
  30
0.0
  11
 484.90639132504
  21
 278.67826464305
  31
0.0
   0
LINE
   5
18B
 100
AcDbEntity
   8
LEVEL001
 370
25
 100
AcDbLine
   6
CONTINUOUS
  62
3
  10
 494.72134590124
  20
 271.89566443261
  30
0.0
  11
 494.72134590124
  21
 278.67826464305
  31
0.0
   0
LINE
   5
18C
 100
AcDbEntity
   8
LEVEL001
 370
25
 100
AcDbLine
   6
CONTINUOUS
  62
3
  10
 479.99891403694
  20
 271.89566443261
  30
0.0
  11
 479.99891403694
  21
 278.67826464305
  31
0.0
   0
LINE
   5
18D
 100
AcDbEntity
   8
LEVEL001
 370
25
 100
AcDbLine
   6
CONTINUOUS
  62
3
  10
 499.62882318934
  20
 278.67826464305
  30
0.0
  11
 499.62882318934
  21
 271.89566443261
  31
0.0
   0
ARC
   5
18E
 100
AcDbEntity
   8
LEVEL001
 370
25
   6
CONTINUOUS
  62
3
 100
AcDbCircle
  10
 482.45265268099
  20
 273.75978956413
  30
0.0
  40
 3.0815249210842
 100
AcDbArc
  50
 217.22423129714
  51
 322.77576870286
   0
ARC
   5
18F
 100
AcDbEntity
   8
LEVEL001
 370
25
   6
CONTINUOUS
  62
3
 100
AcDbCircle
  10
 489.81386861314
  20
 281.17826464305
  30
0.0
  40
 10.500000000000
 100
AcDbArc
  50
 242.13571783472
  51
 297.86428216528
   0
ARC
   5
190
 100
AcDbEntity
   8
LEVEL001
 370
25
   6
CONTINUOUS
  62
3
 100
AcDbCircle
  10
 497.17508454529
  20
 273.75978956413
  30
0.0
  40
 3.0815249210842
 100
AcDbArc
  50
 217.22423129714
  51
 322.77576870286
   0
ENDBLK
   5
191
 100
AcDbEntity
   8
0
 100
AcDbBlockEnd
   0
BLOCK
   5
192
 100
AcDbEntity
   8
0
 100
AcDbBlockBegin
   2
BLOCK009
  70
64
  10
0.0
  20
0.0
  30
0.0
   3
BLOCK009
   0
LWPOLYLINE
   5
193
 100
AcDbEntity
   8
LEVEL001
 370
40
   6
CONTINUOUS
  62
7
 100
AcDbPolyline
  90
4
  70
1
  10
 357.81386861314
  20
 441.17826464305
  10
 542.81386861314
  20
 441.17826464305
  10
 542.81386861314
  20
 479.17826464305
  10
 357.81386861314
  20
 479.17826464305
   0
LINE
   5
194
 100
AcDbEntity
   8
LEVEL001
 370
25
 100
AcDbLine
   6
DOT
  62
3
  10
 357.81386861314
  20
 475.67826464305
  30
0.0
  11
 542.81386861314
  21
 475.67826464305
  31
0.0
   0
LWPOLYLINE
   5
195
 100
AcDbEntity
   8
LEVEL001
 370
40
   6
CONTINUOUS
  62
7
 100
AcDbPolyline
  90
8
  70
0
  10
 357.81386861314
  20
 375.17826464305
  10
 281.81386861314
  20
 375.17826464305
  10
 281.81386861314
  20
 359.17826464305
  10
 557.81386861314
  20
 359.17826464305
  10
 557.81386861314
  20
 375.17826464305
  10
 542.81386861314
  20
 435.17826464305
  10
 357.81386861314
  20
 435.17826464305
  10
 357.81386861314
  20
 359.17826464305
   0
LWPOLYLINE
   5
196
 100
AcDbEntity
   8
LEVEL001
 370
40
   6
CONTINUOUS
  62
7
 100
AcDbPolyline
  90
4
  70
1
  10
 231.81386861314
  20
 375.17826464305
  10
 331.81386861314
  20
 375.17826464305
  10
 331.81386861314
  20
 435.17826464305
  10
 231.81386861314
  20
 435.17826464305
   0
LINE
   5
197
 100
AcDbEntity
   8
LEVEL001
 370
25
 100
AcDbLine
   6
CONTINUOUS
  62
3
  10
 357.81386861314
  20
 325.77825548777
  30
0.0
  11
 351.81386861314
  21
 325.77825548777
  31
0.0
   0
LINE
   5
198
 100
AcDbEntity
   8
LEVEL001
 370
25
 100
AcDbLine
   6
CONTINUOUS
  62
3
  10
 351.81386861314
  20
 341.17826464305
  30
0.0
  11
 357.81386861314
  21
 341.17826464305
  31
0.0
   0
LWPOLYLINE
   5
199
 100
AcDbEntity
   8
LEVEL001
 370
25
   6
CONTINUOUS
  62
3
 100
AcDbPolyline
  90
4
  70
0
  10
 360.91386861314
  20
 334.17826464305
  10
 360.91386861314
  20
 332.67826464305
  10
 348.71386861314
  20
 332.67826464305
  10
 348.71386861314
  20
 334.17826464305
   0
LINE
   5
19A
 100
AcDbEntity
   8
LEVEL001
 370
25
 100
AcDbLine
   6
CONTINUOUS
  62
3
  10
 355.67989401693
  20
 332.67826464305
  30
0.0
  11
 354.81386861314
  21
 334.17826464305
  31
0.0
   0
LINE
   5
19B
 100
AcDbEntity
   8
LEVEL001
 370
25
 100
AcDbLine
   6
CONTINUOUS
  62
3
  10
 354.81386861314
  20
 332.67826464305
  30
0.0
  11
 353.94784320942
  21
 334.17826464305
  31
0.0
   0
LINE
   5
19C
 100
AcDbEntity
   8
LEVEL001
 370
25
 100
AcDbLine
   6
CONTINUOUS
  62
3
  10
 350.48374159436
  20
 327.67826464305
  30
0.0
  11
 359.14399563216
  21
 327.67826464305
  31
0.0
   0
LINE
   5
19D
 100
AcDbEntity
   8
LEVEL001
 370
25
 100
AcDbLine
   6
CONTINUOUS
  62
3
  10
 357.70061995921
  20
 328.35446290656
  30
0.0
  11
 357.70061995921
  21
 332.67826464305
  31
0.0
   0
LINE
   5
19E
 100
AcDbEntity
   8
LEVEL001
 370
25
 100
AcDbLine
   6
CONTINUOUS
  62
3
  10
 351.92711726731
  20
 328.35446290656
  30
0.0
  11
 351.92711726731
  21
 332.67826464305
  31
0.0
   0
LINE
   5
19F
 100
AcDbEntity
   8
LEVEL001
 370
25
 100
AcDbLine
   6
CONTINUOUS
  62
3
  10
 360.58737130512
  20
 328.35446290656
  30
0.0
  11
 360.58737130512
  21
 332.67826464305
  31
0.0
   0
LINE
   5
1A0
 100
AcDbEntity
   8
LEVEL001
 370
25
 100
AcDbLine
   6
CONTINUOUS
  62
3
  10
 349.04036592140
  20
 332.67826464305
  30
0.0
  11
 349.04036592140
  21
 328.35446290656
  31
0.0
   0
ARC
   5
1A1
 100
AcDbEntity
   8
LEVEL001
 370
25
   6
CONTINUOUS
  62
3
 100
AcDbCircle
  10
 359.14399563216
  20
 329.55683899169
  30
0.0
  40
 1.8785743486438
 100
AcDbArc
  50
 219.79533255711
  51
 320.20466744289
   0
ARC
   5
1A2
 100
AcDbEntity
   8
LEVEL001
 370
25
   6
CONTINUOUS
  62
3
 100
AcDbCircle
  10
 354.81386861314
  20
 334.17826464305
  30
0.0
  40
 6.5000000000000
 100
AcDbArc
  50
 243.63323154779
  51
 296.36676845411
   0
ARC
   5
1A3
 100
AcDbEntity
   8
LEVEL001
 370
25
   6
CONTINUOUS
  62
3
 100
AcDbCircle
  10
 350.48374159436
  20
 329.55683899169
  30
0.0
  40
 1.8785743486438
 100
AcDbArc
  50
 219.79533255711
  51
 320.20466744289
   0
LINE
   5
1A4
 100
AcDbEntity
   8
LEVEL001
 370
25
 100
AcDbLine
   6
CONTINUOUS
  62
3
  10
 352.41386708726
  20
 341.17826464305
  30
0.0
  11
 352.41386708726
  21
 334.17826464305
  31
0.0
   0
LINE
   5
1A5
 100
AcDbEntity
   8
LEVEL001
 370
25
 100
AcDbLine
   6
CONTINUOUS
  62
3
  10
 352.41386708726
  20
 327.67826464305
  30
0.0
  11
 352.41386708726
  21
 325.17826464305
  31
0.0
   0
LINE
   5
1A6
 100
AcDbEntity
   8
LEVEL001
 370
25
 100
AcDbLine
   6
CONTINUOUS
  62
3
  10
 351.81386861314
  20
 343.17826464305
  30
0.0
  11
 351.81386861314
  21
 334.17826464305
  31
0.0
   0
LINE
   5
1A7
 100
AcDbEntity
   8
LEVEL001
 370
25
 100
AcDbLine
   6
CONTINUOUS
  62
3
  10
 357.21387013902
  20
 325.17826464305
  30
0.0
  11
 357.21387013902
  21
 327.67826464305
  31
0.0
   0
LINE
   5
1A8
 100
AcDbEntity
   8
LEVEL001
 370
25
 100
AcDbLine
   6
CONTINUOUS
  62
3
  10
 357.21387013902
  20
 334.17826464305
  30
0.0
  11
 357.21387013902
  21
 341.17826464305
  31
0.0
   0
LWPOLYLINE
   5
1A9
 100
AcDbEntity
   8
LEVEL001
 370
25
   6
CONTINUOUS
  62
3
 100
AcDbPolyline
  90
6
  70
0
  10
 351.81386861314
  20
 327.67826464305
  10
 351.81386861314
  20
 325.77825548777
  10
 352.41386708726
  20
 325.17826464305
  10
 357.21387013902
  20
 325.17826464305
  10
 357.81386861314
  20
 325.77825548777
  10
 357.81386861314
  20
 327.67826464305
   0
LINE
   5
1AA
 100
AcDbEntity
   8
LEVEL001
 370
25
 100
AcDbLine
   6
CONTINUOUS
  62
3
  10
 357.81386861314
  20
 334.17826464305
  30
0.0
  11
 357.81386861314
  21
 343.17826464305
  31
0.0
   0
LWPOLYLINE
   5
1AB
 100
AcDbEntity
   8
LEVEL001
 370
25
   6
CONTINUOUS
  62
3
 100
AcDbPolyline
  90
4
  70
1
  10
 346.81386861314
  20
 343.17826464305
  10
 362.81386861314
  20
 343.17826464305
  10
 362.81386861314
  20
 344.77826464305
  10
 346.81386861314
  20
 344.77826464305
   0
LWPOLYLINE
   5
1AC
 100
AcDbEntity
   8
LEVEL001
 370
25
   6
CONTINUOUS
  62
3
 100
AcDbPolyline
  90
4
  70
0
  10
 346.81386861314
  20
 359.17826464305
  10
 346.81386861314
  20
 357.57826464305
  10
 362.81386861314
  20
 357.57826464305
  10
 362.81386861314
  20
 359.17826464305
   0
LINE
   5
1AD
 100
AcDbEntity
   8
LEVEL001
 370
25
 100
AcDbLine
   6
CONTINUOUS
  62
3
  10
 348.31386861314
  20
 356.07826464305
  30
0.0
  11
 348.31386861314
  21
 346.27826464305
  31
0.0
   0
LINE
   5
1AE
 100
AcDbEntity
   8
LEVEL001
 370
25
 100
AcDbLine
   6
CONTINUOUS
  62
3
  10
 361.31386861314
  20
 356.07826464305
  30
0.0
  11
 361.31386861314
  21
 346.27826464305
  31
0.0
   0
ARC
   5
1AF
 100
AcDbEntity
   8
LEVEL001
 370
25
   6
CONTINUOUS
  62
3
 100
AcDbCircle
  10
 362.81386861314
  20
 356.07826464305
  30
0.0
  40
 1.5000000000000
 100
AcDbArc
  50
 90.000000000000
  51
 180.00000000000
   0
ARC
   5
1B0
 100
AcDbEntity
   8
LEVEL001
 370
25
   6
CONTINUOUS
  62
3
 100
AcDbCircle
  10
 346.81386861314
  20
 356.07826464305
  30
0.0
  40
 1.5000000000000
 100
AcDbArc
  50
0.0
  51
 90.000000000000
   0
ARC
   5
1B1
 100
AcDbEntity
   8
LEVEL001
 370
25
   6
CONTINUOUS
  62
3
 100
AcDbCircle
  10
 346.81386861314
  20
 346.27826464305
  30
0.0
  40
 1.5000000000000
 100
AcDbArc
  50
 270.00000000000
  51
0.0
   0
ARC
   5
1B2
 100
AcDbEntity
   8
LEVEL001
 370
25
   6
CONTINUOUS
  62
3
 100
AcDbCircle
  10
 362.81386861314
  20
 346.27826464305
  30
0.0
  40
 1.5000000000000
 100
AcDbArc
  50
 180.00000000000
  51
 270.00000000000
   0
LINE
   5
1B3
 100
AcDbEntity
   8
LEVEL001
 370
25
 100
AcDbLine
   6
DASHDOT
  62
3
  10
 354.81386861314
  20
 366.20172742622
  30
0.0
  11
 354.81386861314
  21
 318.68413033884
  31
0.0
   0
LWPOLYLINE
   5
1B4
 100
AcDbEntity
   8
LEVEL001
 370
25
   6
CONTINUOUS
  62
3
 100
AcDbPolyline
  90
4
  70
1
  10
 506.81386861314
  20
 343.17826464305
  10
 522.81386861314
  20
 343.17826464305
  10
 522.81386861314
  20
 344.77826464305
  10
 506.81386861314
  20
 344.77826464305
   0
LWPOLYLINE
   5
1B5
 100
AcDbEntity
   8
LEVEL001
 370
25
   6
CONTINUOUS
  62
3
 100
AcDbPolyline
  90
4
  70
0
  10
 506.81386861314
  20
 359.17826464305
  10
 506.81386861314
  20
 357.57826464305
  10
 522.81386861314
  20
 357.57826464305
  10
 522.81386861314
  20
 359.17826464305
   0
LINE
   5
1B6
 100
AcDbEntity
   8
LEVEL001
 370
25
 100
AcDbLine
   6
CONTINUOUS
  62
3
  10
 508.31386861314
  20
 356.07826464305
  30
0.0
  11
 508.31386861314
  21
 346.27826464305
  31
0.0
   0
LINE
   5
1B7
 100
AcDbEntity
   8
LEVEL001
 370
25
 100
AcDbLine
   6
CONTINUOUS
  62
3
  10
 521.31386861314
  20
 356.07826464305
  30
0.0
  11
 521.31386861314
  21
 346.27826464305
  31
0.0
   0
ARC
   5
1B8
 100
AcDbEntity
   8
LEVEL001
 370
25
   6
CONTINUOUS
  62
3
 100
AcDbCircle
  10
 522.81386861314
  20
 356.07826464305
  30
0.0
  40
 1.5000000000000
 100
AcDbArc
  50
 90.000000000000
  51
 180.00000000000
   0
ARC
   5
1B9
 100
AcDbEntity
   8
LEVEL001
 370
25
   6
CONTINUOUS
  62
3
 100
AcDbCircle
  10
 506.81386861314
  20
 356.07826464305
  30
0.0
  40
 1.5000000000000
 100
AcDbArc
  50
0.0
  51
 90.000000000000
   0
ARC
   5
1BA
 100
AcDbEntity
   8
LEVEL001
 370
25
   6
CONTINUOUS
  62
3
 100
AcDbCircle
  10
 506.81386861314
  20
 346.27826464305
  30
0.0
  40
 1.5000000000000
 100
AcDbArc
  50
 270.00000000000
  51
0.0
   0
ARC
   5
1BB
 100
AcDbEntity
   8
LEVEL001
 370
25
   6
CONTINUOUS
  62
3
 100
AcDbCircle
  10
 522.81386861314
  20
 346.27826464305
  30
0.0
  40
 1.5000000000000
 100
AcDbArc
  50
 180.00000000000
  51
 270.00000000000
   0
LINE
   5
1BC
 100
AcDbEntity
   8
LEVEL001
 370
25
 100
AcDbLine
   6
CONTINUOUS
  62
3
  10
 517.81386861314
  20
 325.77825548777
  30
0.0
  11
 511.81386861314
  21
 325.77825548777
  31
0.0
   0
LINE
   5
1BD
 100
AcDbEntity
   8
LEVEL001
 370
25
 100
AcDbLine
   6
CONTINUOUS
  62
3
  10
 511.81386861314
  20
 341.17826464305
  30
0.0
  11
 517.81386861314
  21
 341.17826464305
  31
0.0
   0
LWPOLYLINE
   5
1BE
 100
AcDbEntity
   8
LEVEL001
 370
25
   6
CONTINUOUS
  62
3
 100
AcDbPolyline
  90
4
  70
0
  10
 520.91386861314
  20
 334.17826464305
  10
 520.91386861314
  20
 332.67826464305
  10
 508.71386861314
  20
 332.67826464305
  10
 508.71386861314
  20
 334.17826464305
   0
LINE
   5
1BF
 100
AcDbEntity
   8
LEVEL001
 370
25
 100
AcDbLine
   6
CONTINUOUS
  62
3
  10
 515.67989401693
  20
 332.67826464305
  30
0.0
  11
 514.81386861314
  21
 334.17826464305
  31
0.0
   0
LINE
   5
1C0
 100
AcDbEntity
   8
LEVEL001
 370
25
 100
AcDbLine
   6
CONTINUOUS
  62
3
  10
 514.81386861314
  20
 332.67826464305
  30
0.0
  11
 513.94784320942
  21
 334.17826464305
  31
0.0
   0
LINE
   5
1C1
 100
AcDbEntity
   8
LEVEL001
 370
25
 100
AcDbLine
   6
CONTINUOUS
  62
3
  10
 510.48374159436
  20
 327.67826464305
  30
0.0
  11
 519.14399563216
  21
 327.67826464305
  31
0.0
   0
LINE
   5
1C2
 100
AcDbEntity
   8
LEVEL001
 370
25
 100
AcDbLine
   6
CONTINUOUS
  62
3
  10
 517.70061995921
  20
 328.35446290656
  30
0.0
  11
 517.70061995921
  21
 332.67826464305
  31
0.0
   0
LINE
   5
1C3
 100
AcDbEntity
   8
LEVEL001
 370
25
 100
AcDbLine
   6
CONTINUOUS
  62
3
  10
 511.92711726731
  20
 328.35446290656
  30
0.0
  11
 511.92711726731
  21
 332.67826464305
  31
0.0
   0
LINE
   5
1C4
 100
AcDbEntity
   8
LEVEL001
 370
25
 100
AcDbLine
   6
CONTINUOUS
  62
3
  10
 520.58737130512
  20
 328.35446290656
  30
0.0
  11
 520.58737130512
  21
 332.67826464305
  31
0.0
   0
LINE
   5
1C5
 100
AcDbEntity
   8
LEVEL001
 370
25
 100
AcDbLine
   6
CONTINUOUS
  62
3
  10
 509.04036592140
  20
 332.67826464305
  30
0.0
  11
 509.04036592140
  21
 328.35446290656
  31
0.0
   0
ARC
   5
1C6
 100
AcDbEntity
   8
LEVEL001
 370
25
   6
CONTINUOUS
  62
3
 100
AcDbCircle
  10
 519.14399563216
  20
 329.55683899169
  30
0.0
  40
 1.8785743486438
 100
AcDbArc
  50
 219.79533255711
  51
 320.20466744289
   0
ARC
   5
1C7
 100
AcDbEntity
   8
LEVEL001
 370
25
   6
CONTINUOUS
  62
3
 100
AcDbCircle
  10
 514.81386861314
  20
 334.17826464305
  30
0.0
  40
 6.5000000000000
 100
AcDbArc
  50
 243.63323154779
  51
 296.36676845411
   0
ARC
   5
1C8
 100
AcDbEntity
   8
LEVEL001
 370
25
   6
CONTINUOUS
  62
3
 100
AcDbCircle
  10
 510.48374159436
  20
 329.55683899169
  30
0.0
  40
 1.8785743486438
 100
AcDbArc
  50
 219.79533255711
  51
 320.20466744289
   0
LINE
   5
1C9
 100
AcDbEntity
   8
LEVEL001
 370
25
 100
AcDbLine
   6
CONTINUOUS
  62
3
  10
 512.41386708726
  20
 341.17826464305
  30
0.0
  11
 512.41386708726
  21
 334.17826464305
  31
0.0
   0
LINE
   5
1CA
 100
AcDbEntity
   8
LEVEL001
 370
25
 100
AcDbLine
   6
CONTINUOUS
  62
3
  10
 512.41386708726
  20
 327.67826464305
  30
0.0
  11
 512.41386708726
  21
 325.17826464305
  31
0.0
   0
LINE
   5
1CB
 100
AcDbEntity
   8
LEVEL001
 370
25
 100
AcDbLine
   6
CONTINUOUS
  62
3
  10
 511.81386861314
  20
 343.17826464305
  30
0.0
  11
 511.81386861314
  21
 334.17826464305
  31
0.0
   0
LINE
   5
1CC
 100
AcDbEntity
   8
LEVEL001
 370
25
 100
AcDbLine
   6
CONTINUOUS
  62
3
  10
 517.21387013902
  20
 325.17826464305
  30
0.0
  11
 517.21387013902
  21
 327.67826464305
  31
0.0
   0
LINE
   5
1CD
 100
AcDbEntity
   8
LEVEL001
 370
25
 100
AcDbLine
   6
CONTINUOUS
  62
3
  10
 517.21387013902
  20
 334.17826464305
  30
0.0
  11
 517.21387013902
  21
 341.17826464305
  31
0.0
   0
LWPOLYLINE
   5
1CE
 100
AcDbEntity
   8
LEVEL001
 370
25
   6
CONTINUOUS
  62
3
 100
AcDbPolyline
  90
6
  70
0
  10
 511.81386861314
  20
 327.67826464305
  10
 511.81386861314
  20
 325.77825548777
  10
 512.41386708726
  20
 325.17826464305
  10
 517.21387013902
  20
 325.17826464305
  10
 517.81386861314
  20
 325.77825548777
  10
 517.81386861314
  20
 327.67826464305
   0
LINE
   5
1CF
 100
AcDbEntity
   8
LEVEL001
 370
25
 100
AcDbLine
   6
CONTINUOUS
  62
3
  10
 517.81386861314
  20
 334.17826464305
  30
0.0
  11
 517.81386861314
  21
 343.17826464305
  31
0.0
   0
LINE
   5
1D0
 100
AcDbEntity
   8
LEVEL001
 370
25
 100
AcDbLine
   6
DASHDOT
  62
3
  10
 514.81386861314
  20
 366.20172742622
  30
0.0
  11
 514.81386861314
  21
 318.68413033884
  31
0.0
   0
LWPOLYLINE
   5
1D1
 100
AcDbEntity
   8
LEVEL001
 370
40
   6
CONTINUOUS
  62
7
 100
AcDbPolyline
  90
4
  70
1
  10
 344.81386861314
  20
 334.17826464305
  10
 524.81386861314
  20
 334.17826464305
  10
 524.81386861314
  20
 343.17826464305
  10
 344.81386861314
  20
 343.17826464305
   0
ENDBLK
   5
1D2
 100
AcDbEntity
   8
0
 100
AcDbBlockEnd
   0
BLOCK
   5
1D3
 100
AcDbEntity
   8
0
 100
AcDbBlockBegin
   2
BLOCK010
  70
64
  10
0.0
  20
0.0
  30
0.0
   3
BLOCK010
   0
CIRCLE
   5
1D4
 100
AcDbEntity
   8
LEVEL001
 370
9
 100
AcDbCircle
   6
CONTINUOUS
  62
11
  10
 354.81386861314
  20
 1174.6678832117
  30
0.0
  40
 3.0000000000000
   0
LINE
   5
1D5
 100
AcDbEntity
   8
LEVEL001
 370
9
 100
AcDbLine
   6
DASHDOT
  62
11
  10
 360.81386861314
  20
 1174.6678832117
  30
0.0
  11
 348.81386861314
  21
 1174.6678832117
  31
0.0
   0
LINE
   5
1D6
 100
AcDbEntity
   8
LEVEL001
 370
9
 100
AcDbLine
   6
DASHDOT
  62
11
  10
 354.81386861314
  20
 1168.6678832117
  30
0.0
  11
 354.81386861314
  21
 1180.6678832117
  31
0.0
   0
CIRCLE
   5
1D7
 100
AcDbEntity
   8
LEVEL001
 370
9
 100
AcDbCircle
   6
CONTINUOUS
  62
11
  10
 354.81386861314
  20
 1174.6678832117
  30
0.0
  40
 2.0000000000000
   0
CIRCLE
   5
1D8
 100
AcDbEntity
   8
LEVEL001
 370
9
 100
AcDbCircle
   6
DOT
  62
11
  10
 354.81386861314
  20
 1174.6678832117
  30
0.0
  40
 8.0000000000000
   0
ENDBLK
   5
1D9
 100
AcDbEntity
   8
0
 100
AcDbBlockEnd
   0
BLOCK
   5
1DA
 100
AcDbEntity
   8
0
 100
AcDbBlockBegin
   2
BLOCK011
  70
64
  10
0.0
  20
0.0
  30
0.0
   3
BLOCK011
   0
CIRCLE
   5
1DB
 100
AcDbEntity
   8
LEVEL001
 370
9
 100
AcDbCircle
   6
CONTINUOUS
  62
11
  10
 354.81386861314
  20
 1214.6678832117
  30
0.0
  40
 3.0000000000000
   0
LINE
   5
1DC
 100
AcDbEntity
   8
LEVEL001
 370
9
 100
AcDbLine
   6
DASHDOT
  62
11
  10
 360.81386861314
  20
 1214.6678832117
  30
0.0
  11
 348.81386861314
  21
 1214.6678832117
  31
0.0
   0
LINE
   5
1DD
 100
AcDbEntity
   8
LEVEL001
 370
9
 100
AcDbLine
   6
DASHDOT
  62
11
  10
 354.81386861314
  20
 1208.6678832117
  30
0.0
  11
 354.81386861314
  21
 1220.6678832117
  31
0.0
   0
CIRCLE
   5
1DE
 100
AcDbEntity
   8
LEVEL001
 370
9
 100
AcDbCircle
   6
CONTINUOUS
  62
11
  10
 354.81386861314
  20
 1214.6678832117
  30
0.0
  40
 2.0000000000000
   0
CIRCLE
   5
1DF
 100
AcDbEntity
   8
LEVEL001
 370
9
 100
AcDbCircle
   6
DOT
  62
11
  10
 354.81386861314
  20
 1214.6678832117
  30
0.0
  40
 8.0000000000000
   0
ENDBLK
   5
1E0
 100
AcDbEntity
   8
0
 100
AcDbBlockEnd
   0
BLOCK
   5
1E1
 100
AcDbEntity
   8
0
 100
AcDbBlockBegin
   2
BLOCK012
  70
64
  10
0.0
  20
0.0
  30
0.0
   3
BLOCK012
   0
CIRCLE
   5
1E2
 100
AcDbEntity
   8
LEVEL001
 370
9
 100
AcDbCircle
   6
CONTINUOUS
  62
11
  10
 514.81386861314
  20
 1174.6678832117
  30
0.0
  40
 3.0000000000000
   0
LINE
   5
1E3
 100
AcDbEntity
   8
LEVEL001
 370
9
 100
AcDbLine
   6
DASHDOT
  62
11
  10
 520.81386861314
  20
 1174.6678832117
  30
0.0
  11
 508.81386861314
  21
 1174.6678832117
  31
0.0
   0
LINE
   5
1E4
 100
AcDbEntity
   8
LEVEL001
 370
9
 100
AcDbLine
   6
DASHDOT
  62
11
  10
 514.81386861314
  20
 1168.6678832117
  30
0.0
  11
 514.81386861314
  21
 1180.6678832117
  31
0.0
   0
CIRCLE
   5
1E5
 100
AcDbEntity
   8
LEVEL001
 370
9
 100
AcDbCircle
   6
CONTINUOUS
  62
11
  10
 514.81386861314
  20
 1174.6678832117
  30
0.0
  40
 2.0000000000000
   0
CIRCLE
   5
1E6
 100
AcDbEntity
   8
LEVEL001
 370
9
 100
AcDbCircle
   6
DOT
  62
11
  10
 514.81386861314
  20
 1174.6678832117
  30
0.0
  40
 8.0000000000000
   0
ENDBLK
   5
1E7
 100
AcDbEntity
   8
0
 100
AcDbBlockEnd
   0
BLOCK
   5
1E8
 100
AcDbEntity
   8
0
 100
AcDbBlockBegin
   2
BLOCK013
  70
64
  10
0.0
  20
0.0
  30
0.0
   3
BLOCK013
   0
CIRCLE
   5
1E9
 100
AcDbEntity
   8
LEVEL001
 370
9
 100
AcDbCircle
   6
CONTINUOUS
  62
11
  10
 514.81386861314
  20
 1214.6678832117
  30
0.0
  40
 3.0000000000000
   0
LINE
   5
1EA
 100
AcDbEntity
   8
LEVEL001
 370
9
 100
AcDbLine
   6
DASHDOT
  62
11
  10
 520.81386861314
  20
 1214.6678832117
  30
0.0
  11
 508.81386861314
  21
 1214.6678832117
  31
0.0
   0
LINE
   5
1EB
 100
AcDbEntity
   8
LEVEL001
 370
9
 100
AcDbLine
   6
DASHDOT
  62
11
  10
 514.81386861314
  20
 1208.6678832117
  30
0.0
  11
 514.81386861314
  21
 1220.6678832117
  31
0.0
   0
CIRCLE
   5
1EC
 100
AcDbEntity
   8
LEVEL001
 370
9
 100
AcDbCircle
   6
CONTINUOUS
  62
11
  10
 514.81386861314
  20
 1214.6678832117
  30
0.0
  40
 2.0000000000000
   0
CIRCLE
   5
1ED
 100
AcDbEntity
   8
LEVEL001
 370
9
 100
AcDbCircle
   6
DOT
  62
11
  10
 514.81386861314
  20
 1214.6678832117
  30
0.0
  40
 8.0000000000000
   0
ENDBLK
   5
1EE
 100
AcDbEntity
   8
0
 100
AcDbBlockEnd
   0
BLOCK
   5
1EF
 100
AcDbEntity
   8
0
 100
AcDbBlockBegin
   2
BLOCK014
  70
64
  10
0.0
  20
0.0
  30
0.0
   3
BLOCK014
   0
LINE
   5
1F0
 100
AcDbEntity
   8
LEVEL001
 370
9
 100
AcDbLine
   6
DASHDOT
  62
11
  10
 434.81386861314
  20
 1153.3862048246
  30
0.0
  11
 434.81386861314
  21
 1237.3685463771
  31
0.0
   0
CIRCLE
   5
1F1
 100
AcDbEntity
   8
LEVEL001
 370
9
 100
AcDbCircle
   6
DOT
  62
11
  10
 434.81386861314
  20
 1194.6678832117
  30
0.0
  40
 30.250000000000
   0
CIRCLE
   5
1F2
 100
AcDbEntity
   8
LEVEL001
 370
9
 100
AcDbCircle
   6
DOT
  62
11
  10
 434.81386861314
  20
 1194.6678832117
  30
0.0
  40
 26.450000000000
   0
ENDBLK
   5
1F3
 100
AcDbEntity
   8
0
 100
AcDbBlockEnd
   0
BLOCK
   5
1F4
 100
AcDbEntity
   8
0
 100
AcDbBlockBegin
   2
BLOCK015
  70
64
  10
0.0
  20
0.0
  30
0.0
   3
BLOCK015
   0
ARC
   5
1F5
 100
AcDbEntity
   8
LEVEL001
 370
9
   6
DOT
  62
11
 100
AcDbCircle
  10
 381.31386861314
  20
 1174.6678832117
  30
0.0
  40
 5.5000000000000
 100
AcDbArc
  50
 90.000000000000
  51
 270.00000000000
   0
ARC
   5
1F6
 100
AcDbEntity
   8
LEVEL001
 370
9
   6
DOT
  62
11
 100
AcDbCircle
  10
 390.31386861314
  20
 1174.6678832117
  30
0.0
  40
 5.5000000000000
 100
AcDbArc
  50
 270.00000000000
  51
 90.000000000000
   0
LINE
   5
1F7
 100
AcDbEntity
   8
LEVEL001
 370
9
 100
AcDbLine
   6
DOT
  62
11
  10
 381.31386861314
  20
 1169.1678832117
  30
0.0
  11
 390.31386861314
  21
 1169.1678832117
  31
0.0
   0
LINE
   5
1F8
 100
AcDbEntity
   8
LEVEL001
 370
9
 100
AcDbLine
   6
DOT
  62
11
  10
 381.31386861314
  20
 1180.1678832117
  30
0.0
  11
 390.31386861314
  21
 1180.1678832117
  31
0.0
   0
LINE
   5
1F9
 100
AcDbEntity
   8
LEVEL001
 370
9
 100
AcDbLine
   6
DASHDOT
  62
11
  10
 385.81386861314
  20
 1166.3307147944
  30
0.0
  11
 385.81386861314
  21
 1184.0835632900
  31
0.0
   0
LINE
   5
1FA
 100
AcDbEntity
   8
LEVEL001
 370
9
 100
AcDbLine
   6
DASHDOT
  62
11
  10
 372.33201664590
  20
 1174.6678832117
  30
0.0
  11
 398.84892958875
  21
 1174.6678832117
  31
0.0
   0
ENDBLK
   5
1FB
 100
AcDbEntity
   8
0
 100
AcDbBlockEnd
   0
BLOCK
   5
1FC
 100
AcDbEntity
   8
0
 100
AcDbBlockBegin
   2
BLOCK016
  70
64
  10
0.0
  20
0.0
  30
0.0
   3
BLOCK016
   0
ARC
   5
1FD
 100
AcDbEntity
   8
LEVEL001
 370
9
   6
DOT
  62
11
 100
AcDbCircle
  10
 488.31386861314
  20
 1174.6678832117
  30
0.0
  40
 5.5000000000000
 100
AcDbArc
  50
 270.00000000000
  51
 90.000000000000
   0
ARC
   5
1FE
 100
AcDbEntity
   8
LEVEL001
 370
9
   6
DOT
  62
11
 100
AcDbCircle
  10
 479.31386861314
  20
 1174.6678832117
  30
0.0
  40
 5.5000000000000
 100
AcDbArc
  50
 90.000000000000
  51
 270.00000000000
   0
LINE
   5
1FF
 100
AcDbEntity
   8
LEVEL001
 370
9
 100
AcDbLine
   6
DOT
  62
11
  10
 488.31386861314
  20
 1169.1678832117
  30
0.0
  11
 479.31386861314
  21
 1169.1678832117
  31
0.0
   0
LINE
   5
200
 100
AcDbEntity
   8
LEVEL001
 370
9
 100
AcDbLine
   6
DOT
  62
11
  10
 488.31386861314
  20
 1180.1678832117
  30
0.0
  11
 479.31386861314
  21
 1180.1678832117
  31
0.0
   0
LINE
   5
201
 100
AcDbEntity
   8
LEVEL001
 370
9
 100
AcDbLine
   6
DASHDOT
  62
11
  10
 483.81386861314
  20
 1166.3307147944
  30
0.0
  11
 483.81386861314
  21
 1184.0835632900
  31
0.0
   0
LINE
   5
202
 100
AcDbEntity
   8
LEVEL001
 370
9
 100
AcDbLine
   6
DASHDOT
  62
11
  10
 497.29572058038
  20
 1174.6678832117
  30
0.0
  11
 470.77880763753
  21
 1174.6678832117
  31
0.0
   0
ENDBLK
   5
203
 100
AcDbEntity
   8
0
 100
AcDbBlockEnd
   0
BLOCK
   5
204
 100
AcDbEntity
   8
0
 100
AcDbBlockBegin
   2
BLOCK017
  70
64
  10
0.0
  20
0.0
  30
0.0
   3
BLOCK017
   0
ARC
   5
205
 100
AcDbEntity
   8
LEVEL001
 370
9
   6
DOT
  62
11
 100
AcDbCircle
  10
 381.31386861314
  20
 1214.6678832117
  30
0.0
  40
 5.5000000000000
 100
AcDbArc
  50
 90.000000000000
  51
 270.00000000000
   0
ARC
   5
206
 100
AcDbEntity
   8
LEVEL001
 370
9
   6
DOT
  62
11
 100
AcDbCircle
  10
 390.31386861314
  20
 1214.6678832117
  30
0.0
  40
 5.5000000000000
 100
AcDbArc
  50
 270.00000000000
  51
 90.000000000000
   0
LINE
   5
207
 100
AcDbEntity
   8
LEVEL001
 370
9
 100
AcDbLine
   6
DOT
  62
11
  10
 381.31386861314
  20
 1220.1678832117
  30
0.0
  11
 390.31386861314
  21
 1220.1678832117
  31
0.0
   0
LINE
   5
208
 100
AcDbEntity
   8
LEVEL001
 370
9
 100
AcDbLine
   6
DOT
  62
11
  10
 381.31386861314
  20
 1209.1678832117
  30
0.0
  11
 390.31386861314
  21
 1209.1678832117
  31
0.0
   0
LINE
   5
209
 100
AcDbEntity
   8
LEVEL001
 370
9
 100
AcDbLine
   6
DASHDOT
  62
11
  10
 385.81386861314
  20
 1223.0050516290
  30
0.0
  11
 385.81386861314
  21
 1205.2522031333
  31
0.0
   0
LINE
   5
20A
 100
AcDbEntity
   8
LEVEL001
 370
9
 100
AcDbLine
   6
DASHDOT
  62
11
  10
 372.33201664590
  20
 1214.6678832117
  30
0.0
  11
 398.84892958875
  21
 1214.6678832117
  31
0.0
   0
ENDBLK
   5
20B
 100
AcDbEntity
   8
0
 100
AcDbBlockEnd
   0
BLOCK
   5
20C
 100
AcDbEntity
   8
0
 100
AcDbBlockBegin
   2
BLOCK018
  70
64
  10
0.0
  20
0.0
  30
0.0
   3
BLOCK018
   0
ARC
   5
20D
 100
AcDbEntity
   8
LEVEL001
 370
9
   6
DOT
  62
11
 100
AcDbCircle
  10
 488.31386861314
  20
 1214.6678832117
  30
0.0
  40
 5.5000000000000
 100
AcDbArc
  50
 270.00000000000
  51
 90.000000000000
   0
ARC
   5
20E
 100
AcDbEntity
   8
LEVEL001
 370
9
   6
DOT
  62
11
 100
AcDbCircle
  10
 479.31386861314
  20
 1214.6678832117
  30
0.0
  40
 5.5000000000000
 100
AcDbArc
  50
 90.000000000000
  51
 270.00000000000
   0
LINE
   5
20F
 100
AcDbEntity
   8
LEVEL001
 370
9
 100
AcDbLine
   6
DOT
  62
11
  10
 488.31386861314
  20
 1220.1678832117
  30
0.0
  11
 479.31386861314
  21
 1220.1678832117
  31
0.0
   0
LINE
   5
210
 100
AcDbEntity
   8
LEVEL001
 370
9
 100
AcDbLine
   6
DOT
  62
11
  10
 488.31386861314
  20
 1209.1678832117
  30
0.0
  11
 479.31386861314
  21
 1209.1678832117
  31
0.0
   0
LINE
   5
211
 100
AcDbEntity
   8
LEVEL001
 370
9
 100
AcDbLine
   6
DASHDOT
  62
11
  10
 483.81386861314
  20
 1223.0050516290
  30
0.0
  11
 483.81386861314
  21
 1205.2522031333
  31
0.0
   0
LINE
   5
212
 100
AcDbEntity
   8
LEVEL001
 370
9
 100
AcDbLine
   6
DASHDOT
  62
11
  10
 497.29572058038
  20
 1214.6678832117
  30
0.0
  11
 470.77880763753
  21
 1214.6678832117
  31
0.0
   0
ENDBLK
   5
213
 100
AcDbEntity
   8
0
 100
AcDbBlockEnd
   0
BLOCK
   5
214
 100
AcDbEntity
   8
0
 100
AcDbBlockBegin
   2
*D7
  70
65
  10
0.0
  20
0.0
  30
0.0
   3
*D7
   0
LINE
   5
215
 100
AcDbEntity
   8
LEVEL001
 370
25
 100
AcDbLine
   6
CONTINUOUS
  62
3
  10
 32.813868613139
  20
 1265.6678832117
  30
0.0
  11
 32.813868613139
  21
 1339.7064714260
  31
0.0
   0
LINE
   5
216
 100
AcDbEntity
   8
LEVEL001
 370
25
 100
AcDbLine
   6
CONTINUOUS
  62
3
  10
 32.813868613139
  20
 1330.7064714260
  30
0.0
  11
 272.81386861314
  21
 1330.7064714260
  31
0.0
   0
LINE
   5
217
 100
AcDbEntity
   8
LEVEL001
 370
25
 100
AcDbLine
   6
CONTINUOUS
  62
3
  10
 512.81386861314
  20
 1330.7064714260
  30
0.0
  11
 272.81386861314
  21
 1330.7064714260
  31
0.0
   0
INSERT
   5
218
 100
AcDbEntity
   8
LEVEL001
   6
CONTINUOUS
  62
3
 100
AcDbBlockReference
   2
_OPEN30
  10
 32.813868613139
  20
 1330.7064714260
  30
0.0
  41
 12.000000000000
  42
 12.000000000000
  43
 12.000000000000
  50
 180.00000000000
   0
INSERT
   5
219
 100
AcDbEntity
   8
LEVEL001
   6
CONTINUOUS
  62
3
 100
AcDbBlockReference
   2
_OPEN30
  10
 512.81386861314
  20
 1330.7064714260
  30
0.0
  41
 12.000000000000
  42
 12.000000000000
  43
 12.000000000000
  50
0.0
   0
MTEXT
   5
21A
 100
AcDbEntity
   8
LEVEL001
 370
40
  62
7
 100
AcDbMText
  10
 272.81386861314
  20
 1337.1350428546
  30
0.0
  40
 15.000000000000
  41
0.0
  71
8
  72
1
   1
\A1;４８０
   7
GMM003
   0
ENDBLK
   5
21B
 100
AcDbEntity
   8
0
 100
AcDbBlockEnd
   0
BLOCK
   5
21C
 100
AcDbEntity
   8
0
 100
AcDbBlockBegin
   2
*D8
  70
65
  10
0.0
  20
0.0
  30
0.0
   3
*D8
   0
LINE
   5
21D
 100
AcDbEntity
   8
LEVEL001
 370
25
 100
AcDbLine
   6
CONTINUOUS
  62
3
  10
 512.81386861314
  20
 1265.6678832117
  30
0.0
  11
 512.81386861314
  21
 1339.7064714260
  31
0.0
   0
LINE
   5
21E
 100
AcDbEntity
   8
LEVEL001
 370
25
 100
AcDbLine
   6
CONTINUOUS
  62
3
  10
 537.81386861314
  20
 1280.6678832117
  30
0.0
  11
 537.81386861314
  21
 1339.7064714260
  31
0.0
   0
LINE
   5
21F
 100
AcDbEntity
   8
LEVEL001
 370
25
 100
AcDbLine
   6
CONTINUOUS
  62
3
  10
 512.81386861314
  20
 1330.7064714260
  30
0.0
  11
 525.31386861314
  21
 1330.7064714260
  31
0.0
   0
LINE
   5
220
 100
AcDbEntity
   8
LEVEL001
 370
25
 100
AcDbLine
   6
CONTINUOUS
  62
3
  10
 597.05482797757
  20
 1330.7064714260
  30
0.0
  11
 525.31386861314
  21
 1330.7064714260
  31
0.0
   0
INSERT
   5
221
 100
AcDbEntity
   8
LEVEL001
   6
CONTINUOUS
  62
3
 100
AcDbBlockReference
   2
_OPEN30
  10
 537.81386861314
  20
 1330.7064714260
  30
0.0
  41
 12.000000000000
  42
 12.000000000000
  43
 12.000000000000
  50
 180.00000000000
   0
MTEXT
   5
222
 100
AcDbEntity
   8
LEVEL001
 370
40
  62
7
 100
AcDbMText
  10
 555.05482797757
  20
 1336.5954468578
  30
0.0
  40
 15.000000000000
  41
0.0
  71
7
  72
1
   1
\A1;２５
   7
GMM003
   0
ENDBLK
   5
223
 100
AcDbEntity
   8
0
 100
AcDbBlockEnd
   0
BLOCK
   5
224
 100
AcDbEntity
   8
0
 100
AcDbBlockBegin
   2
*D9
  70
65
  10
0.0
  20
0.0
  30
0.0
   3
*D9
   0
LINE
   5
225
 100
AcDbEntity
   8
LEVEL001
 370
25
 100
AcDbLine
   6
CONTINUOUS
  62
3
  10
 7.8138686131388
  20
 1280.6678832117
  30
0.0
  11
 7.8138686131388
  21
 1380.9491276482
  31
0.0
   0
LINE
   5
226
 100
AcDbEntity
   8
LEVEL001
 370
25
 100
AcDbLine
   6
CONTINUOUS
  62
3
  10
 7.8138686131388
  20
 1371.9491276482
  30
0.0
  11
 272.81386861314
  21
 1371.9491276482
  31
0.0
   0
LINE
   5
227
 100
AcDbEntity
   8
LEVEL001
 370
25
 100
AcDbLine
   6
CONTINUOUS
  62
3
  10
 537.81386861314
  20
 1371.9491276482
  30
0.0
  11
 272.81386861314
  21
 1371.9491276482
  31
0.0
   0
INSERT
   5
228
 100
AcDbEntity
   8
LEVEL001
   6
CONTINUOUS
  62
3
 100
AcDbBlockReference
   2
_OPEN30
  10
 7.8138686131388
  20
 1371.9491276482
  30
0.0
  41
 12.000000000000
  42
 12.000000000000
  43
 12.000000000000
  50
 180.00000000000
   0
INSERT
   5
229
 100
AcDbEntity
   8
LEVEL001
   6
CONTINUOUS
  62
3
 100
AcDbBlockReference
   2
_OPEN30
  10
 537.81386861314
  20
 1371.9491276482
  30
0.0
  41
 12.000000000000
  42
 12.000000000000
  43
 12.000000000000
  50
0.0
   0
MTEXT
   5
22A
 100
AcDbEntity
   8
LEVEL001
 370
40
  62
7
 100
AcDbMText
  10
 272.81386861314
  20
 1378.3776990768
  30
0.0
  40
 15.000000000000
  41
0.0
  71
8
  72
1
   1
\A1;５３０
   7
GMM003
   0
ENDBLK
   5
22B
 100
AcDbEntity
   8
0
 100
AcDbBlockEnd
   0
BLOCK
   5
22C
 100
AcDbEntity
   8
0
 100
AcDbBlockBegin
   2
*D10
  70
65
  10
0.0
  20
0.0
  30
0.0
   3
*D10
   0
LINE
   5
22D
 100
AcDbEntity
   8
LEVEL001
 370
25
 100
AcDbLine
   6
CONTINUOUS
  62
3
  10
 537.81386861314
  20
 1280.6678832117
  30
0.0
  11
 537.81386861314
  21
 1380.9491276482
  31
0.0
   0
LINE
   5
22E
 100
AcDbEntity
   8
LEVEL001
 370
25
 100
AcDbLine
   6
CONTINUOUS
  62
3
  10
 717.81386861314
  20
 1214.6678832117
  30
0.0
  11
 717.81386861314
  21
 1380.9491276482
  31
0.0
   0
LINE
   5
22F
 100
AcDbEntity
   8
LEVEL001
 370
25
 100
AcDbLine
   6
CONTINUOUS
  62
3
  10
 537.81386861314
  20
 1371.9491276482
  30
0.0
  11
 627.81386861314
  21
 1371.9491276482
  31
0.0
   0
LINE
   5
230
 100
AcDbEntity
   8
LEVEL001
 370
25
 100
AcDbLine
   6
CONTINUOUS
  62
3
  10
 717.81386861314
  20
 1371.9491276482
  30
0.0
  11
 627.81386861314
  21
 1371.9491276482
  31
0.0
   0
INSERT
   5
231
 100
AcDbEntity
   8
LEVEL001
   6
CONTINUOUS
  62
3
 100
AcDbBlockReference
   2
_OPEN30
  10
 537.81386861314
  20
 1371.9491276482
  30
0.0
  41
 12.000000000000
  42
 12.000000000000
  43
 12.000000000000
  50
 180.00000000000
   0
INSERT
   5
232
 100
AcDbEntity
   8
LEVEL001
   6
CONTINUOUS
  62
3
 100
AcDbBlockReference
   2
_OPEN30
  10
 717.81386861314
  20
 1371.9491276482
  30
0.0
  41
 12.000000000000
  42
 12.000000000000
  43
 12.000000000000
  50
0.0
   0
MTEXT
   5
233
 100
AcDbEntity
   8
LEVEL001
 370
40
  62
7
 100
AcDbMText
  10
 627.81386861314
  20
 1378.3776990768
  30
0.0
  40
 15.000000000000
  41
0.0
  71
8
  72
1
   1
\A1;１８０
   7
GMM003
   0
ENDBLK
   5
234
 100
AcDbEntity
   8
0
 100
AcDbBlockEnd
   0
BLOCK
   5
235
 100
AcDbEntity
   8
0
 100
AcDbBlockBegin
   2
BLOCK019
  70
64
  10
0.0
  20
0.0
  30
0.0
   3
BLOCK019
   0
LINE
   5
236
 100
AcDbEntity
   8
LEVEL001
 370
40
 100
AcDbLine
   6
CONTINUOUS
  62
7
  10
 542.81386861314
  20
 1164.6678832117
  30
0.0
  11
 557.81386861314
  21
 1164.6678832117
  31
0.0
   0
LWPOLYLINE
   5
237
 100
AcDbEntity
   8
LEVEL001
 370
40
   6
CONTINUOUS
  62
7
 100
AcDbPolyline
  90
4
  70
0
  10
 542.81386861314
  20
 1180.6678832117
  10
 542.81386861314
  20
 1161.1678832117
  10
 357.81386861314
  20
 1161.1678832117
  10
 357.81386861314
  20
 1180.6678832117
   0
LWPOLYLINE
   5
238
 100
AcDbEntity
   8
LEVEL001
 370
40
   6
CONTINUOUS
  62
7
 100
AcDbPolyline
  90
3
  70
0
  10
 542.81386861314
  20
 1161.1678832117
  10
 557.81386861314
  20
 1161.1678832117
  10
 557.81386861314
  20
 1180.6678832117
   0
LINE
   5
239
 100
AcDbEntity
   8
LEVEL001
 370
40
 100
AcDbLine
   6
CONTINUOUS
  62
7
  10
 542.81386861314
  20
 1224.6678832117
  30
0.0
  11
 557.81386861314
  21
 1224.6678832117
  31
0.0
   0
LWPOLYLINE
   5
23A
 100
AcDbEntity
   8
LEVEL001
 370
40
   6
CONTINUOUS
  62
7
 100
AcDbPolyline
  90
3
  70
0
  10
 557.81386861314
  20
 1208.6678832117
  10
 557.81386861314
  20
 1228.1678832117
  10
 542.81386861314
  20
 1228.1678832117
   0
LWPOLYLINE
   5
23B
 100
AcDbEntity
   8
LEVEL001
 370
40
   6
CONTINUOUS
  62
7
 100
AcDbPolyline
  90
4
  70
0
  10
 357.81386861314
  20
 1208.6678832117
  10
 357.81386861314
  20
 1228.1678832117
  10
 542.81386861314
  20
 1228.1678832117
  10
 542.81386861314
  20
 1208.6678832117
   0
LWPOLYLINE
   5
23C
 100
AcDbEntity
   8
LEVEL001
 370
40
   6
CONTINUOUS
  62
7
 100
AcDbPolyline
  90
3
  70
0
  10
 231.81386861314
  20
 1208.6678832117
  10
 231.81386861314
  20
 1224.6678832117
  10
 357.81386861314
  20
 1224.6678832117
   0
LINE
   5
23D
 100
AcDbEntity
   8
LEVEL001
 370
40
 100
AcDbLine
   6
CONTINUOUS
  62
7
  10
 331.81386861314
  20
 1208.6678832117
  30
0.0
  11
 331.81386861314
  21
 1224.6678832117
  31
0.0
   0
LWPOLYLINE
   5
23E
 100
AcDbEntity
   8
LEVEL001
 370
40
   6
CONTINUOUS
  62
7
 100
AcDbPolyline
  90
3
  70
0
  10
 357.81386861314
  20
 1164.6678832117
  10
 231.81386861314
  20
 1164.6678832117
  10
 231.81386861314
  20
 1180.6678832117
   0
LINE
   5
23F
 100
AcDbEntity
   8
LEVEL001
 370
40
 100
AcDbLine
   6
CONTINUOUS
  62
7
  10
 331.81386861314
  20
 1164.6678832117
  30
0.0
  11
 331.81386861314
  21
 1180.6678832117
  31
0.0
   0
ENDBLK
   5
240
 100
AcDbEntity
   8
0
 100
AcDbBlockEnd
   0
BLOCK
   5
241
 100
AcDbEntity
   8
0
 100
AcDbBlockBegin
   2
BLOCK020
  70
64
  10
0.0
  20
0.0
  30
0.0
   3
BLOCK020
   0
ARC
   5
242
 100
AcDbEntity
   8
LEVEL001
 370
40
   6
CONTINUOUS
  62
7
 100
AcDbCircle
  10
 227.81386861314
  20
 944.66788321168
  30
0.0
  40
 120.00000000000
 100
AcDbArc
  50
 270.00000000000
  51
 90.000000000000
   0
ARC
   5
243
 100
AcDbEntity
   8
LEVEL001
 370
40
   6
CONTINUOUS
  62
7
 100
AcDbCircle
  10
 227.81386861314
  20
 944.66788321168
  30
0.0
  40
 200.00000000000
 100
AcDbArc
  50
 270.00000000000
  51
 90.000000000000
   0
ARC
   5
244
 100
AcDbEntity
   8
LEVEL001
 370
40
   6
CONTINUOUS
  62
7
 100
AcDbCircle
  10
 227.81386861314
  20
 964.66788321168
  30
0.0
  40
 180.00000000000
 100
AcDbArc
  50
 90.000000000000
  51
 270.00000000000
   0
ARC
   5
245
 100
AcDbEntity
   8
LEVEL001
 370
40
   6
CONTINUOUS
  62
7
 100
AcDbCircle
  10
 227.81386861314
  20
 944.66788321168
  30
0.0
  40
 160.00000000000
 100
AcDbArc
  50
 270.00000000000
  51
 90.000000000000
   0
ARC
   5
246
 100
AcDbEntity
   8
LEVEL001
 370
40
   6
CONTINUOUS
  62
7
 100
AcDbCircle
  10
 227.81386861314
  20
 964.66788321168
  30
0.0
  40
 140.00000000000
 100
AcDbArc
  50
 90.000000000000
  51
 270.00000000000
   0
ARC
   5
247
 100
AcDbEntity
   8
LEVEL001
 370
40
   6
CONTINUOUS
  62
7
 100
AcDbCircle
  10
 227.81386861314
  20
 979.66788321168
  30
0.0
  40
 235.00000000000
 100
AcDbArc
  50
 90.000000000000
  51
 270.00000000000
   0
ARC
   5
248
 100
AcDbEntity
   8
LEVEL001
 370
40
   6
CONTINUOUS
  62
7
 100
AcDbCircle
  10
 227.81386861314
  20
 979.66788321168
  30
0.0
  40
 195.00000000000
 100
AcDbArc
  50
 90.000000000000
  51
 122.69944263635
   0
ARC
   5
249
 100
AcDbEntity
   8
LEVEL001
 370
25
   6
DASHDOT
  62
3
 100
AcDbCircle
  10
 227.81386861314
  20
 979.66788321168
  30
0.0
  40
 215.00000000000
 100
AcDbArc
  50
 90.000000000000
  51
 133.17219404156
   0
LINE
   5
24A
 100
AcDbEntity
   8
LEVEL001
 370
40
 100
AcDbLine
   6
CONTINUOUS
  62
7
  10
 227.81386861314
  20
 1174.6678832117
  30
0.0
  11
 294.81386861314
  21
 1174.6678832117
  31
0.0
   0
LWPOLYLINE
   5
24B
 100
AcDbEntity
   8
LEVEL001
 370
40
   6
CONTINUOUS
  62
7
 100
AcDbPolyline
  90
3
  70
0
  10
 294.81386861314
  20
 1133.1115087340
  10
 294.81386861314
  20
 1214.6678832117
  10
 227.81386861314
  20
 1214.6678832117
   0
ENDBLK
   5
24C
 100
AcDbEntity
   8
0
 100
AcDbBlockEnd
   0
BLOCK
   5
24D
 100
AcDbEntity
   8
0
 100
AcDbBlockBegin
   2
BLOCK021
  70
64
  10
0.0
  20
0.0
  30
0.0
   3
BLOCK021
   0
CIRCLE
   5
24E
 100
AcDbEntity
   8
LEVEL001
 370
9
 100
AcDbCircle
   6
DASHDOT
  62
11
  10
 227.81386861314
  20
 954.66788321168
  30
0.0
  40
 130.00000000000
   0
CIRCLE
   5
24F
 100
AcDbEntity
   8
LEVEL001
 370
9
 100
AcDbCircle
   6
CONTINUOUS
  62
11
  10
 162.81386861314
  20
 842.08458071970
  30
0.0
  40
 20.000000000000
   0
LINE
   5
250
 100
AcDbEntity
   8
LEVEL001
 370
9
 100
AcDbLine
   6
DASHDOT
  62
11
  10
 148.95029036724
  20
 818.07215882310
  30
0.0
  11
 177.87223658985
  21
 868.16643913443
  31
0.0
   0
CIRCLE
   5
251
 100
AcDbEntity
   8
LEVEL001
 370
9
 100
AcDbCircle
   6
CONTINUOUS
  62
11
  10
 162.81386861314
  20
 1067.2511857037
  30
0.0
  40
 20.000000000000
   0
LINE
   5
252
 100
AcDbEntity
   8
LEVEL001
 370
9
 100
AcDbLine
   6
DASHDOT
  62
11
  10
 147.96937370137
  20
 1092.9626051035
  30
0.0
  11
 177.49105198688
  21
 1041.8295583883
  31
0.0
   0
CIRCLE
   5
253
 100
AcDbEntity
   8
LEVEL001
 370
9
 100
AcDbCircle
   6
CONTINUOUS
  62
11
  10
 357.81386861314
  20
 954.66788321168
  30
0.0
  40
 20.000000000000
   0
ENDBLK
   5
254
 100
AcDbEntity
   8
0
 100
AcDbBlockEnd
   0
BLOCK
   5
255
 100
AcDbEntity
   8
0
 100
AcDbBlockBegin
   2
*D11
  70
65
  10
0.0
  20
0.0
  30
0.0
   3
*D11
   0
LINE
   5
256
 100
AcDbEntity
   8
LEVEL001
 370
25
 100
AcDbLine
   6
CONTINUOUS
  62
3
  10
 543.81386861314
  20
 1274.6678832117
  30
0.0
  11
 630.59826753605
  21
 1274.6678832117
  31
0.0
   0
LINE
   5
257
 100
AcDbEntity
   8
LEVEL001
 370
25
 100
AcDbLine
   6
CONTINUOUS
  62
3
  10
 621.59826753605
  20
 1274.6678832117
  30
0.0
  11
 621.59826753605
  21
 1234.6678832117
  31
0.0
   0
LINE
   5
258
 100
AcDbEntity
   8
LEVEL001
 370
25
 100
AcDbLine
   6
CONTINUOUS
  62
3
  10
 621.59826753605
  20
 1194.6678832117
  30
0.0
  11
 621.59826753605
  21
 1234.6678832117
  31
0.0
   0
INSERT
   5
259
 100
AcDbEntity
   8
LEVEL001
   6
CONTINUOUS
  62
3
 100
AcDbBlockReference
   2
_OPEN30
  10
 621.59826753605
  20
 1274.6678832117
  30
0.0
  41
 12.000000000000
  42
 12.000000000000
  43
 12.000000000000
  50
 90.000000000000
   0
INSERT
   5
25A
 100
AcDbEntity
   8
LEVEL001
   6
CONTINUOUS
  62
3
 100
AcDbBlockReference
   2
_OPEN30
  10
 621.59826753605
  20
 1194.6678832117
  30
0.0
  41
 12.000000000000
  42
 12.000000000000
  43
 12.000000000000
  50
 270.00000000000
   0
MTEXT
   5
25B
 100
AcDbEntity
   8
LEVEL001
 370
40
  62
7
 100
AcDbMText
  10
 615.16969610748
  20
 1234.6678832117
  30
0.0
  40
 15.000000000000
  41
0.0
  71
8
  72
1
   1
\A1;８０
   7
GMM003
  11
0.0
  21
 1.0000000000000
  31
0.0
   0
ENDBLK
   5
25C
 100
AcDbEntity
   8
0
 100
AcDbBlockEnd
   0
BLOCK
   5
25D
 100
AcDbEntity
   8
0
 100
AcDbBlockBegin
   2
*D12
  70
65
  10
0.0
  20
0.0
  30
0.0
   3
*D12
   0
LINE
   5
25E
 100
AcDbEntity
   8
LEVEL001
 370
25
 100
AcDbLine
   6
CONTINUOUS
  62
3
  10
 568.63911451843
  20
 954.66788321168
  30
0.0
  11
 630.59826753605
  21
 954.66788321168
  31
0.0
   0
LINE
   5
25F
 100
AcDbEntity
   8
LEVEL001
 370
25
 100
AcDbLine
   6
CONTINUOUS
  62
3
  10
 621.59826753605
  20
 1194.6678832117
  30
0.0
  11
 621.59826753605
  21
 1074.6678832117
  31
0.0
   0
LINE
   5
260
 100
AcDbEntity
   8
LEVEL001
 370
25
 100
AcDbLine
   6
CONTINUOUS
  62
3
  10
 621.59826753605
  20
 954.66788321168
  30
0.0
  11
 621.59826753605
  21
 1074.6678832117
  31
0.0
   0
INSERT
   5
261
 100
AcDbEntity
   8
LEVEL001
   6
CONTINUOUS
  62
3
 100
AcDbBlockReference
   2
_OPEN30
  10
 621.59826753605
  20
 1194.6678832117
  30
0.0
  41
 12.000000000000
  42
 12.000000000000
  43
 12.000000000000
  50
 90.000000000000
   0
INSERT
   5
262
 100
AcDbEntity
   8
LEVEL001
   6
CONTINUOUS
  62
3
 100
AcDbBlockReference
   2
_OPEN30
  10
 621.59826753605
  20
 954.66788321168
  30
0.0
  41
 12.000000000000
  42
 12.000000000000
  43
 12.000000000000
  50
 270.00000000000
   0
MTEXT
   5
263
 100
AcDbEntity
   8
LEVEL001
 370
40
  62
7
 100
AcDbMText
  10
 615.16969610748
  20
 1074.6678832117
  30
0.0
  40
 15.000000000000
  41
0.0
  71
8
  72
1
   1
\A1;（２４０）
   7
GMM003
  11
0.0
  21
 1.0000000000000
  31
0.0
   0
ENDBLK
   5
264
 100
AcDbEntity
   8
0
 100
AcDbBlockEnd
   0
BLOCK
   5
265
 100
AcDbEntity
   8
0
 100
AcDbBlockBegin
   2
*D13
  70
65
  10
0.0
  20
0.0
  30
0.0
   3
*D13
   0
LINE
   5
266
 100
AcDbEntity
   8
LEVEL001
 370
25
 100
AcDbLine
   6
CONTINUOUS
  62
3
  10
 1.8138686131388
  20
 1274.6678832117
  30
0.0
  11
-127.91726010326
  21
 1274.6678832117
  31
0.0
   0
LINE
   5
267
 100
AcDbEntity
   8
LEVEL001
 370
25
 100
AcDbLine
   6
CONTINUOUS
  62
3
  10
 1.8138686131388
  20
 774.66788321168
  30
0.0
  11
-127.91726010326
  21
 774.66788321168
  31
0.0
   0
LINE
   5
268
 100
AcDbEntity
   8
LEVEL001
 370
25
 100
AcDbLine
   6
CONTINUOUS
  62
3
  10
-118.91726010326
  20
 1274.6678832117
  30
0.0
  11
-118.91726010326
  21
 1024.6678832117
  31
0.0
   0
LINE
   5
269
 100
AcDbEntity
   8
LEVEL001
 370
25
 100
AcDbLine
   6
CONTINUOUS
  62
3
  10
-118.91726010326
  20
 774.66788321168
  30
0.0
  11
-118.91726010326
  21
 1024.6678832117
  31
0.0
   0
INSERT
   5
26A
 100
AcDbEntity
   8
LEVEL001
   6
CONTINUOUS
  62
3
 100
AcDbBlockReference
   2
_OPEN30
  10
-118.91726010326
  20
 1274.6678832117
  30
0.0
  41
 12.000000000000
  42
 12.000000000000
  43
 12.000000000000
  50
 90.000000000000
   0
INSERT
   5
26B
 100
AcDbEntity
   8
LEVEL001
   6
CONTINUOUS
  62
3
 100
AcDbBlockReference
   2
_OPEN30
  10
-118.91726010326
  20
 774.66788321168
  30
0.0
  41
 12.000000000000
  42
 12.000000000000
  43
 12.000000000000
  50
 270.00000000000
   0
MTEXT
   5
26C
 100
AcDbEntity
   8
LEVEL001
 370
40
  62
7
 100
AcDbMText
  10
-125.34583153183
  20
 1024.6678832117
  30
0.0
  40
 15.000000000000
  41
0.0
  71
8
  72
1
   1
\A1;５００
   7
GMM003
  11
0.0
  21
 1.0000000000000
  31
0.0
   0
ENDBLK
   5
26D
 100
AcDbEntity
   8
0
 100
AcDbBlockEnd
   0
BLOCK
   5
26E
 100
AcDbEntity
   8
0
 100
AcDbBlockBegin
   2
*D14
  70
65
  10
0.0
  20
0.0
  30
0.0
   3
*D14
   0
LINE
   5
26F
 100
AcDbEntity
   8
LEVEL001
 370
25
 100
AcDbLine
   6
CONTINUOUS
  62
3
  10
 1.8138686131388
  20
 1274.6678832117
  30
0.0
  11
-84.248954068008
  21
 1274.6678832117
  31
0.0
   0
LINE
   5
270
 100
AcDbEntity
   8
LEVEL001
 370
25
 100
AcDbLine
   6
CONTINUOUS
  62
3
  10
-75.248954068008
  20
 1332.4618346092
  30
0.0
  11
-75.248954068008
  21
 1262.1678832117
  31
0.0
   0
LINE
   5
271
 100
AcDbEntity
   8
LEVEL001
 370
25
 100
AcDbLine
   6
CONTINUOUS
  62
3
  10
-75.248954068008
  20
 1249.6678832117
  30
0.0
  11
-75.248954068008
  21
 1262.1678832117
  31
0.0
   0
INSERT
   5
272
 100
AcDbEntity
   8
LEVEL001
   6
CONTINUOUS
  62
3
 100
AcDbBlockReference
   2
_OPEN30
  10
-75.248954068008
  20
 1274.6678832117
  30
0.0
  41
 12.000000000000
  42
 12.000000000000
  43
 12.000000000000
  50
 270.00000000000
   0
MTEXT
   5
273
 100
AcDbEntity
   8
LEVEL001
 370
40
  62
7
 100
AcDbMText
  10
-80.610829846893
  20
 1290.4618346092
  30
0.0
  40
 15.000000000000
  41
0.0
  71
7
  72
1
   1
\A1;２５
   7
GMM003
  11
0.0
  21
 1.0000000000000
  31
0.0
   0
ENDBLK
   5
274
 100
AcDbEntity
   8
0
 100
AcDbBlockEnd
   0
BLOCK
   5
275
 100
AcDbEntity
   8
0
 100
AcDbBlockBegin
   2
*D15
  70
65
  10
0.0
  20
0.0
  30
0.0
   3
*D15
   0
LINE
   5
276
 100
AcDbEntity
   8
LEVEL001
 370
25
 100
AcDbLine
   6
CONTINUOUS
  62
3
  10
 16.813868613139
  20
 1249.6678832117
  30
0.0
  11
-84.248954068008
  21
 1249.6678832117
  31
0.0
   0
LINE
   5
277
 100
AcDbEntity
   8
LEVEL001
 370
25
 100
AcDbLine
   6
CONTINUOUS
  62
3
  10
 16.813868613139
  20
 799.66788321168
  30
0.0
  11
-84.248954068008
  21
 799.66788321168
  31
0.0
   0
LINE
   5
278
 100
AcDbEntity
   8
LEVEL001
 370
25
 100
AcDbLine
   6
CONTINUOUS
  62
3
  10
-75.248954068008
  20
 1249.6678832117
  30
0.0
  11
-75.248954068008
  21
 1024.6678832117
  31
0.0
   0
LINE
   5
279
 100
AcDbEntity
   8
LEVEL001
 370
25
 100
AcDbLine
   6
CONTINUOUS
  62
3
  10
-75.248954068008
  20
 799.66788321168
  30
0.0
  11
-75.248954068008
  21
 1024.6678832117
  31
0.0
   0
INSERT
   5
27A
 100
AcDbEntity
   8
LEVEL001
   6
CONTINUOUS
  62
3
 100
AcDbBlockReference
   2
_OPEN30
  10
-75.248954068008
  20
 1249.6678832117
  30
0.0
  41
 12.000000000000
  42
 12.000000000000
  43
 12.000000000000
  50
 90.000000000000
   0
INSERT
   5
27B
 100
AcDbEntity
   8
LEVEL001
   6
CONTINUOUS
  62
3
 100
AcDbBlockReference
   2
_OPEN30
  10
-75.248954068008
  20
 799.66788321168
  30
0.0
  41
 12.000000000000
  42
 12.000000000000
  43
 12.000000000000
  50
 270.00000000000
   0
MTEXT
   5
27C
 100
AcDbEntity
   8
LEVEL001
 370
40
  62
7
 100
AcDbMText
  10
-81.677525496579
  20
 1024.6678832117
  30
0.0
  40
 15.000000000000
  41
0.0
  71
8
  72
1
   1
\A1;４５０
   7
GMM003
  11
0.0
  21
 1.0000000000000
  31
0.0
   0
ENDBLK
   5
27D
 100
AcDbEntity
   8
0
 100
AcDbBlockEnd
   0
BLOCK
   5
27E
 100
AcDbEntity
   8
0
 100
AcDbBlockBegin
   2
BLOCK022
  70
64
  10
0.0
  20
0.0
  30
0.0
   3
BLOCK022
   0
LINE
   5
27F
 100
AcDbEntity
   8
LEVEL001
 370
25
 100
AcDbLine
   6
DASHDOT
  62
3
  10
 849.72992700730
  20
 228.61220838345
  30
0.0
  11
 849.72992700730
  21
 187.62625588602
  31
0.0
   0
ARC
   5
280
 100
AcDbEntity
   8
LEVEL001
 370
25
   6
CONTINUOUS
  62
3
 100
AcDbCircle
  10
 842.72992700730
  20
 222.67826464305
  30
0.0
  40
 1.0000000000000
 100
AcDbArc
  50
 90.000000000000
  51
 180.00000000000
   0
LINE
   5
281
 100
AcDbEntity
   8
LEVEL001
 370
25
 100
AcDbLine
   6
CONTINUOUS
  62
3
  10
 842.72992700730
  20
 223.67826464305
  30
0.0
  11
 856.72991937790
  21
 223.67826464305
  31
0.0
   0
ARC
   5
282
 100
AcDbEntity
   8
LEVEL001
 370
25
   6
CONTINUOUS
  62
3
 100
AcDbCircle
  10
 856.72991937790
  20
 222.67826464305
  30
0.0
  40
 1.0000000000000
 100
AcDbArc
  50
0.0
  51
 90.000000000000
   0
LINE
   5
283
 100
AcDbEntity
   8
LEVEL001
 370
25
 100
AcDbLine
   6
CONTINUOUS
  62
3
  10
 857.72991937790
  20
 222.67826464305
  30
0.0
  11
 857.72991937790
  21
 213.67826464305
  31
0.0
   0
LINE
   5
284
 100
AcDbEntity
   8
LEVEL001
 370
25
 100
AcDbLine
   6
CONTINUOUS
  62
3
  10
 841.72992700730
  20
 213.67826464305
  30
0.0
  11
 841.72992700730
  21
 222.67826464305
  31
0.0
   0
LWPOLYLINE
   5
285
 100
AcDbEntity
   8
LEVEL001
 370
25
   6
CONTINUOUS
  62
3
 100
AcDbPolyline
  90
4
  70
0
  10
 840.52991480027
  20
 211.17826464305
  10
 840.52991480027
  20
 213.67826464305
  10
 858.92991632615
  20
 213.67826464305
  10
 858.92991632615
  20
 211.17826464305
   0
LINE
   5
286
 100
AcDbEntity
   8
LEVEL001
 370
25
 100
AcDbLine
   6
CONTINUOUS
  62
3
  10
 849.72992700730
  20
 213.67826464305
  30
0.0
  11
 848.28653711472
  21
 211.17826464305
  31
0.0
   0
LINE
   5
287
 100
AcDbEntity
   8
LEVEL001
 370
25
 100
AcDbLine
   6
CONTINUOUS
  62
3
  10
 849.72992700730
  20
 211.17826464305
  30
0.0
  11
 851.17329401169
  21
 213.67826464305
  31
0.0
   0
ENDBLK
   5
288
 100
AcDbEntity
   8
0
 100
AcDbBlockEnd
   0
BLOCK
   5
289
 100
AcDbEntity
   8
0
 100
AcDbBlockBegin
   2
BLOCK023
  70
64
  10
0.0
  20
0.0
  30
0.0
   3
BLOCK023
   0
LINE
   5
28A
 100
AcDbEntity
   8
LEVEL001
 370
25
 100
AcDbLine
   6
DASHDOT
  62
3
  10
 809.72992700730
  20
 228.61220838345
  30
0.0
  11
 809.72992700730
  21
 187.62625588602
  31
0.0
   0
ARC
   5
28B
 100
AcDbEntity
   8
LEVEL001
 370
25
   6
CONTINUOUS
  62
3
 100
AcDbCircle
  10
 802.72992700730
  20
 222.67826464305
  30
0.0
  40
 1.0000000000000
 100
AcDbArc
  50
 90.000000000000
  51
 180.00000000000
   0
LINE
   5
28C
 100
AcDbEntity
   8
LEVEL001
 370
25
 100
AcDbLine
   6
CONTINUOUS
  62
3
  10
 802.72992700730
  20
 223.67826464305
  30
0.0
  11
 816.72991937790
  21
 223.67826464305
  31
0.0
   0
ARC
   5
28D
 100
AcDbEntity
   8
LEVEL001
 370
25
   6
CONTINUOUS
  62
3
 100
AcDbCircle
  10
 816.72991937790
  20
 222.67826464305
  30
0.0
  40
 1.0000000000000
 100
AcDbArc
  50
0.0
  51
 90.000000000000
   0
LINE
   5
28E
 100
AcDbEntity
   8
LEVEL001
 370
25
 100
AcDbLine
   6
CONTINUOUS
  62
3
  10
 817.72991937790
  20
 222.67826464305
  30
0.0
  11
 817.72991937790
  21
 213.67826464305
  31
0.0
   0
LINE
   5
28F
 100
AcDbEntity
   8
LEVEL001
 370
25
 100
AcDbLine
   6
CONTINUOUS
  62
3
  10
 801.72992700730
  20
 213.67826464305
  30
0.0
  11
 801.72992700730
  21
 222.67826464305
  31
0.0
   0
LWPOLYLINE
   5
290
 100
AcDbEntity
   8
LEVEL001
 370
25
   6
CONTINUOUS
  62
3
 100
AcDbPolyline
  90
4
  70
0
  10
 800.52991480027
  20
 211.17826464305
  10
 800.52991480027
  20
 213.67826464305
  10
 818.92991632615
  20
 213.67826464305
  10
 818.92991632615
  20
 211.17826464305
   0
LINE
   5
291
 100
AcDbEntity
   8
LEVEL001
 370
25
 100
AcDbLine
   6
CONTINUOUS
  62
3
  10
 809.72992700730
  20
 213.67826464305
  30
0.0
  11
 808.28653711472
  21
 211.17826464305
  31
0.0
   0
LINE
   5
292
 100
AcDbEntity
   8
LEVEL001
 370
25
 100
AcDbLine
   6
CONTINUOUS
  62
3
  10
 809.72992700730
  20
 211.17826464305
  30
0.0
  11
 811.17329401169
  21
 213.67826464305
  31
0.0
   0
ENDBLK
   5
293
 100
AcDbEntity
   8
0
 100
AcDbBlockEnd
   0
BLOCK
   5
294
 100
AcDbEntity
   8
0
 100
AcDbBlockBegin
   2
BLOCK024
  70
64
  10
0.0
  20
0.0
  30
0.0
   3
BLOCK024
   0
LINE
   5
295
 100
AcDbEntity
   8
LEVEL001
 370
25
 100
AcDbLine
   6
DASHDOT
  62
3
  10
 849.72992700730
  20
 366.20172742622
  30
0.0
  11
 849.72992700730
  21
 318.68413033884
  31
0.0
   0
LINE
   5
296
 100
AcDbEntity
   8
LEVEL001
 370
25
 100
AcDbLine
   6
CONTINUOUS
  62
3
  10
 846.72992700730
  20
 325.77825548777
  30
0.0
  11
 852.72992700730
  21
 325.77825548777
  31
0.0
   0
LINE
   5
297
 100
AcDbEntity
   8
LEVEL001
 370
25
 100
AcDbLine
   6
CONTINUOUS
  62
3
  10
 852.72992700730
  20
 341.17826464305
  30
0.0
  11
 846.72992700730
  21
 341.17826464305
  31
0.0
   0
LWPOLYLINE
   5
298
 100
AcDbEntity
   8
LEVEL001
 370
25
   6
CONTINUOUS
  62
3
 100
AcDbPolyline
  90
4
  70
0
  10
 843.62992700730
  20
 334.17826464305
  10
 843.62992700730
  20
 332.67826464305
  10
 855.82992700730
  20
 332.67826464305
  10
 855.82992700730
  20
 334.17826464305
   0
LINE
   5
299
 100
AcDbEntity
   8
LEVEL001
 370
25
 100
AcDbLine
   6
CONTINUOUS
  62
3
  10
 848.86390160351
  20
 332.67826464305
  30
0.0
  11
 849.72992700730
  21
 334.17826464305
  31
0.0
   0
LINE
   5
29A
 100
AcDbEntity
   8
LEVEL001
 370
25
 100
AcDbLine
   6
CONTINUOUS
  62
3
  10
 849.72992700730
  20
 332.67826464305
  30
0.0
  11
 850.59595241102
  21
 334.17826464305
  31
0.0
   0
LINE
   5
29B
 100
AcDbEntity
   8
LEVEL001
 370
25
 100
AcDbLine
   6
CONTINUOUS
  62
3
  10
 854.06005402608
  20
 327.67826464305
  30
0.0
  11
 845.39979998828
  21
 327.67826464305
  31
0.0
   0
LINE
   5
29C
 100
AcDbEntity
   8
LEVEL001
 370
25
 100
AcDbLine
   6
CONTINUOUS
  62
3
  10
 846.84317566123
  20
 328.35446290656
  30
0.0
  11
 846.84317566123
  21
 332.67826464305
  31
0.0
   0
LINE
   5
29D
 100
AcDbEntity
   8
LEVEL001
 370
25
 100
AcDbLine
   6
CONTINUOUS
  62
3
  10
 852.61667835313
  20
 328.35446290656
  30
0.0
  11
 852.61667835313
  21
 332.67826464305
  31
0.0
   0
LINE
   5
29E
 100
AcDbEntity
   8
LEVEL001
 370
25
 100
AcDbLine
   6
CONTINUOUS
  62
3
  10
 843.95642431532
  20
 328.35446290656
  30
0.0
  11
 843.95642431532
  21
 332.67826464305
  31
0.0
   0
LINE
   5
29F
 100
AcDbEntity
   8
LEVEL001
 370
25
 100
AcDbLine
   6
CONTINUOUS
  62
3
  10
 855.50342969903
  20
 332.67826464305
  30
0.0
  11
 855.50342969903
  21
 328.35446290656
  31
0.0
   0
ARC
   5
2A0
 100
AcDbEntity
   8
LEVEL001
 370
25
   6
CONTINUOUS
  62
3
 100
AcDbCircle
  10
 845.39979998828
  20
 329.55683899169
  30
0.0
  40
 1.8785743486438
 100
AcDbArc
  50
 219.79533255711
  51
 320.20466744289
   0
ARC
   5
2A1
 100
AcDbEntity
   8
LEVEL001
 370
25
   6
CONTINUOUS
  62
3
 100
AcDbCircle
  10
 849.72992700730
  20
 334.17826464305
  30
0.0
  40
 6.5000000000000
 100
AcDbArc
  50
 243.63323154589
  51
 296.36676845221
   0
ARC
   5
2A2
 100
AcDbEntity
   8
LEVEL001
 370
25
   6
CONTINUOUS
  62
3
 100
AcDbCircle
  10
 854.06005402608
  20
 329.55683899169
  30
0.0
  40
 1.8785743486438
 100
AcDbArc
  50
 219.79533255711
  51
 320.20466744289
   0
LINE
   5
2A3
 100
AcDbEntity
   8
LEVEL001
 370
25
 100
AcDbLine
   6
CONTINUOUS
  62
3
  10
 852.12992853318
  20
 341.17826464305
  30
0.0
  11
 852.12992853318
  21
 334.17826464305
  31
0.0
   0
LINE
   5
2A4
 100
AcDbEntity
   8
LEVEL001
 370
25
 100
AcDbLine
   6
CONTINUOUS
  62
3
  10
 852.12992853318
  20
 327.67826464305
  30
0.0
  11
 852.12992853318
  21
 325.17826464305
  31
0.0
   0
LINE
   5
2A5
 100
AcDbEntity
   8
LEVEL001
 370
25
 100
AcDbLine
   6
CONTINUOUS
  62
3
  10
 852.72992700730
  20
 343.17826464305
  30
0.0
  11
 852.72992700730
  21
 334.17826464305
  31
0.0
   0
LINE
   5
2A6
 100
AcDbEntity
   8
LEVEL001
 370
25
 100
AcDbLine
   6
CONTINUOUS
  62
3
  10
 847.32992548142
  20
 325.17826464305
  30
0.0
  11
 847.32992548142
  21
 327.67826464305
  31
0.0
   0
LINE
   5
2A7
 100
AcDbEntity
   8
LEVEL001
 370
25
 100
AcDbLine
   6
CONTINUOUS
  62
3
  10
 847.32992548142
  20
 334.17826464305
  30
0.0
  11
 847.32992548142
  21
 341.17826464305
  31
0.0
   0
LWPOLYLINE
   5
2A8
 100
AcDbEntity
   8
LEVEL001
 370
25
   6
CONTINUOUS
  62
3
 100
AcDbPolyline
  90
6
  70
0
  10
 852.72992700730
  20
 327.67826464305
  10
 852.72992700730
  20
 325.77825548777
  10
 852.12992853318
  20
 325.17826464305
  10
 847.32992548142
  20
 325.17826464305
  10
 846.72992700730
  20
 325.77825548777
  10
 846.72992700730
  20
 327.67826464305
   0
LINE
   5
2A9
 100
AcDbEntity
   8
LEVEL001
 370
25
 100
AcDbLine
   6
CONTINUOUS
  62
3
  10
 846.72992700730
  20
 334.17826464305
  30
0.0
  11
 846.72992700730
  21
 343.17826464305
  31
0.0
   0
LWPOLYLINE
   5
2AA
 100
AcDbEntity
   8
LEVEL001
 370
25
   6
CONTINUOUS
  62
3
 100
AcDbPolyline
  90
4
  70
1
  10
 857.72992700730
  20
 343.17826464305
  10
 841.72992700730
  20
 343.17826464305
  10
 841.72992700730
  20
 344.77826464305
  10
 857.72992700730
  20
 344.77826464305
   0
LWPOLYLINE
   5
2AB
 100
AcDbEntity
   8
LEVEL001
 370
25
   6
CONTINUOUS
  62
3
 100
AcDbPolyline
  90
4
  70
0
  10
 857.72992700730
  20
 359.17826464305
  10
 857.72992700730
  20
 357.57826464305
  10
 841.72992700730
  20
 357.57826464305
  10
 841.72992700730
  20
 359.17826464305
   0
LINE
   5
2AC
 100
AcDbEntity
   8
LEVEL001
 370
25
 100
AcDbLine
   6
CONTINUOUS
  62
3
  10
 856.22992700730
  20
 356.07826464305
  30
0.0
  11
 856.22992700730
  21
 346.27826464305
  31
0.0
   0
LINE
   5
2AD
 100
AcDbEntity
   8
LEVEL001
 370
25
 100
AcDbLine
   6
CONTINUOUS
  62
3
  10
 843.22992700730
  20
 356.07826464305
  30
0.0
  11
 843.22992700730
  21
 346.27826464305
  31
0.0
   0
ARC
   5
2AE
 100
AcDbEntity
   8
LEVEL001
 370
25
   6
CONTINUOUS
  62
3
 100
AcDbCircle
  10
 841.72992700730
  20
 356.07826464305
  30
0.0
  40
 1.5000000000000
 100
AcDbArc
  50
0.0
  51
 90.000000000000
   0
ARC
   5
2AF
 100
AcDbEntity
   8
LEVEL001
 370
25
   6
CONTINUOUS
  62
3
 100
AcDbCircle
  10
 857.72992700730
  20
 356.07826464305
  30
0.0
  40
 1.5000000000000
 100
AcDbArc
  50
 90.000000000000
  51
 180.00000000000
   0
ARC
   5
2B0
 100
AcDbEntity
   8
LEVEL001
 370
25
   6
CONTINUOUS
  62
3
 100
AcDbCircle
  10
 857.72992700730
  20
 346.27826464305
  30
0.0
  40
 1.5000000000000
 100
AcDbArc
  50
 180.00000000000
  51
 270.00000000000
   0
ARC
   5
2B1
 100
AcDbEntity
   8
LEVEL001
 370
25
   6
CONTINUOUS
  62
3
 100
AcDbCircle
  10
 841.72992700730
  20
 346.27826464305
  30
0.0
  40
 1.5000000000000
 100
AcDbArc
  50
 270.00000000000
  51
0.0
   0
ENDBLK
   5
2B2
 100
AcDbEntity
   8
0
 100
AcDbBlockEnd
   0
BLOCK
   5
2B3
 100
AcDbEntity
   8
0
 100
AcDbBlockBegin
   2
BLOCK025
  70
64
  10
0.0
  20
0.0
  30
0.0
   3
BLOCK025
   0
LWPOLYLINE
   5
2B4
 100
AcDbEntity
   8
LEVEL001
 370
25
   6
CONTINUOUS
  62
3
 100
AcDbPolyline
  90
4
  70
1
  10
 817.72992700730
  20
 343.17826464305
  10
 801.72992700730
  20
 343.17826464305
  10
 801.72992700730
  20
 344.77826464305
  10
 817.72992700730
  20
 344.77826464305
   0
LWPOLYLINE
   5
2B5
 100
AcDbEntity
   8
LEVEL001
 370
25
   6
CONTINUOUS
  62
3
 100
AcDbPolyline
  90
4
  70
0
  10
 817.72992700730
  20
 359.17826464305
  10
 817.72992700730
  20
 357.57826464305
  10
 801.72992700730
  20
 357.57826464305
  10
 801.72992700730
  20
 359.17826464305
   0
LINE
   5
2B6
 100
AcDbEntity
   8
LEVEL001
 370
25
 100
AcDbLine
   6
CONTINUOUS
  62
3
  10
 816.22992700730
  20
 356.07826464305
  30
0.0
  11
 816.22992700730
  21
 346.27826464305
  31
0.0
   0
LINE
   5
2B7
 100
AcDbEntity
   8
LEVEL001
 370
25
 100
AcDbLine
   6
CONTINUOUS
  62
3
  10
 803.22992700730
  20
 356.07826464305
  30
0.0
  11
 803.22992700730
  21
 346.27826464305
  31
0.0
   0
ARC
   5
2B8
 100
AcDbEntity
   8
LEVEL001
 370
25
   6
CONTINUOUS
  62
3
 100
AcDbCircle
  10
 801.72992700730
  20
 356.07826464305
  30
0.0
  40
 1.5000000000000
 100
AcDbArc
  50
0.0
  51
 90.000000000000
   0
ARC
   5
2B9
 100
AcDbEntity
   8
LEVEL001
 370
25
   6
CONTINUOUS
  62
3
 100
AcDbCircle
  10
 817.72992700730
  20
 356.07826464305
  30
0.0
  40
 1.5000000000000
 100
AcDbArc
  50
 90.000000000000
  51
 180.00000000000
   0
ARC
   5
2BA
 100
AcDbEntity
   8
LEVEL001
 370
25
   6
CONTINUOUS
  62
3
 100
AcDbCircle
  10
 817.72992700730
  20
 346.27826464305
  30
0.0
  40
 1.5000000000000
 100
AcDbArc
  50
 180.00000000000
  51
 270.00000000000
   0
ARC
   5
2BB
 100
AcDbEntity
   8
LEVEL001
 370
25
   6
CONTINUOUS
  62
3
 100
AcDbCircle
  10
 801.72992700730
  20
 346.27826464305
  30
0.0
  40
 1.5000000000000
 100
AcDbArc
  50
 270.00000000000
  51
0.0
   0
LINE
   5
2BC
 100
AcDbEntity
   8
LEVEL001
 370
25
 100
AcDbLine
   6
DASHDOT
  62
3
  10
 809.72992700730
  20
 366.20172742622
  30
0.0
  11
 809.72992700730
  21
 318.68413033884
  31
0.0
   0
LINE
   5
2BD
 100
AcDbEntity
   8
LEVEL001
 370
25
 100
AcDbLine
   6
CONTINUOUS
  62
3
  10
 806.72992700730
  20
 325.77825548777
  30
0.0
  11
 812.72992700730
  21
 325.77825548777
  31
0.0
   0
LINE
   5
2BE
 100
AcDbEntity
   8
LEVEL001
 370
25
 100
AcDbLine
   6
CONTINUOUS
  62
3
  10
 812.72992700730
  20
 341.17826464305
  30
0.0
  11
 806.72992700730
  21
 341.17826464305
  31
0.0
   0
LWPOLYLINE
   5
2BF
 100
AcDbEntity
   8
LEVEL001
 370
25
   6
CONTINUOUS
  62
3
 100
AcDbPolyline
  90
4
  70
0
  10
 803.62992700730
  20
 334.17826464305
  10
 803.62992700730
  20
 332.67826464305
  10
 815.82992700730
  20
 332.67826464305
  10
 815.82992700730
  20
 334.17826464305
   0
LINE
   5
2C0
 100
AcDbEntity
   8
LEVEL001
 370
25
 100
AcDbLine
   6
CONTINUOUS
  62
3
  10
 808.86390160351
  20
 332.67826464305
  30
0.0
  11
 809.72992700730
  21
 334.17826464305
  31
0.0
   0
LINE
   5
2C1
 100
AcDbEntity
   8
LEVEL001
 370
25
 100
AcDbLine
   6
CONTINUOUS
  62
3
  10
 809.72992700730
  20
 332.67826464305
  30
0.0
  11
 810.59595241102
  21
 334.17826464305
  31
0.0
   0
LINE
   5
2C2
 100
AcDbEntity
   8
LEVEL001
 370
25
 100
AcDbLine
   6
CONTINUOUS
  62
3
  10
 814.06005402608
  20
 327.67826464305
  30
0.0
  11
 805.39979998828
  21
 327.67826464305
  31
0.0
   0
LINE
   5
2C3
 100
AcDbEntity
   8
LEVEL001
 370
25
 100
AcDbLine
   6
CONTINUOUS
  62
3
  10
 806.84317566123
  20
 328.35446290656
  30
0.0
  11
 806.84317566123
  21
 332.67826464305
  31
0.0
   0
LINE
   5
2C4
 100
AcDbEntity
   8
LEVEL001
 370
25
 100
AcDbLine
   6
CONTINUOUS
  62
3
  10
 812.61667835313
  20
 328.35446290656
  30
0.0
  11
 812.61667835313
  21
 332.67826464305
  31
0.0
   0
LINE
   5
2C5
 100
AcDbEntity
   8
LEVEL001
 370
25
 100
AcDbLine
   6
CONTINUOUS
  62
3
  10
 803.95642431532
  20
 328.35446290656
  30
0.0
  11
 803.95642431532
  21
 332.67826464305
  31
0.0
   0
LINE
   5
2C6
 100
AcDbEntity
   8
LEVEL001
 370
25
 100
AcDbLine
   6
CONTINUOUS
  62
3
  10
 815.50342969903
  20
 332.67826464305
  30
0.0
  11
 815.50342969903
  21
 328.35446290656
  31
0.0
   0
ARC
   5
2C7
 100
AcDbEntity
   8
LEVEL001
 370
25
   6
CONTINUOUS
  62
3
 100
AcDbCircle
  10
 805.39979998828
  20
 329.55683899169
  30
0.0
  40
 1.8785743486438
 100
AcDbArc
  50
 219.79533255711
  51
 320.20466744289
   0
ARC
   5
2C8
 100
AcDbEntity
   8
LEVEL001
 370
25
   6
CONTINUOUS
  62
3
 100
AcDbCircle
  10
 809.72992700730
  20
 334.17826464305
  30
0.0
  40
 6.5000000000000
 100
AcDbArc
  50
 243.63323154589
  51
 296.36676845221
   0
ARC
   5
2C9
 100
AcDbEntity
   8
LEVEL001
 370
25
   6
CONTINUOUS
  62
3
 100
AcDbCircle
  10
 814.06005402608
  20
 329.55683899169
  30
0.0
  40
 1.8785743486438
 100
AcDbArc
  50
 219.79533255711
  51
 320.20466744289
   0
LINE
   5
2CA
 100
AcDbEntity
   8
LEVEL001
 370
25
 100
AcDbLine
   6
CONTINUOUS
  62
3
  10
 812.12992853318
  20
 341.17826464305
  30
0.0
  11
 812.12992853318
  21
 334.17826464305
  31
0.0
   0
LINE
   5
2CB
 100
AcDbEntity
   8
LEVEL001
 370
25
 100
AcDbLine
   6
CONTINUOUS
  62
3
  10
 812.12992853318
  20
 327.67826464305
  30
0.0
  11
 812.12992853318
  21
 325.17826464305
  31
0.0
   0
LINE
   5
2CC
 100
AcDbEntity
   8
LEVEL001
 370
25
 100
AcDbLine
   6
CONTINUOUS
  62
3
  10
 812.72992700730
  20
 343.17826464305
  30
0.0
  11
 812.72992700730
  21
 334.17826464305
  31
0.0
   0
LINE
   5
2CD
 100
AcDbEntity
   8
LEVEL001
 370
25
 100
AcDbLine
   6
CONTINUOUS
  62
3
  10
 807.32992548142
  20
 325.17826464305
  30
0.0
  11
 807.32992548142
  21
 327.67826464305
  31
0.0
   0
LINE
   5
2CE
 100
AcDbEntity
   8
LEVEL001
 370
25
 100
AcDbLine
   6
CONTINUOUS
  62
3
  10
 807.32992548142
  20
 334.17826464305
  30
0.0
  11
 807.32992548142
  21
 341.17826464305
  31
0.0
   0
LWPOLYLINE
   5
2CF
 100
AcDbEntity
   8
LEVEL001
 370
25
   6
CONTINUOUS
  62
3
 100
AcDbPolyline
  90
6
  70
0
  10
 812.72992700730
  20
 327.67826464305
  10
 812.72992700730
  20
 325.77825548777
  10
 812.12992853318
  20
 325.17826464305
  10
 807.32992548142
  20
 325.17826464305
  10
 806.72992700730
  20
 325.77825548777
  10
 806.72992700730
  20
 327.67826464305
   0
LINE
   5
2D0
 100
AcDbEntity
   8
LEVEL001
 370
25
 100
AcDbLine
   6
CONTINUOUS
  62
3
  10
 806.72992700730
  20
 334.17826464305
  30
0.0
  11
 806.72992700730
  21
 343.17826464305
  31
0.0
   0
ENDBLK
   5
2D1
 100
AcDbEntity
   8
0
 100
AcDbBlockEnd
   0
BLOCK
   5
2D2
 100
AcDbEntity
   8
0
 100
AcDbBlockBegin
   2
BLOCK026
  70
64
  10
0.0
  20
0.0
  30
0.0
   3
BLOCK026
   0
LINE
   5
2D3
 100
AcDbEntity
   8
LEVEL001
 370
25
 100
AcDbLine
   6
DASHDOT
  62
3
  10
 849.72992700730
  20
 254.45388165115
  30
0.0
  11
 849.72992700730
  21
 347.30639418406
  31
0.0
   0
LINE
   5
2D4
 100
AcDbEntity
   8
LEVEL001
 370
25
 100
AcDbLine
   6
CONTINUOUS
  62
3
  10
 854.72992700715
  20
 301.17826464305
  30
0.0
  11
 854.72992700715
  21
 323.67826464305
  31
0.0
   0
LINE
   5
2D5
 100
AcDbEntity
   8
LEVEL001
 370
25
 100
AcDbLine
   6
CONTINUOUS
  62
3
  10
 853.72992700715
  20
 301.17826464305
  30
0.0
  11
 853.72992700715
  21
 323.67826464305
  31
0.0
   0
LINE
   5
2D6
 100
AcDbEntity
   8
LEVEL001
 370
25
 100
AcDbLine
   6
CONTINUOUS
  62
3
  10
 845.72992700715
  20
 301.17826464305
  30
0.0
  11
 845.72992700715
  21
 323.67826464305
  31
0.0
   0
LINE
   5
2D7
 100
AcDbEntity
   8
LEVEL001
 370
25
 100
AcDbLine
   6
CONTINUOUS
  62
3
  10
 844.72992700715
  20
 301.17826464305
  30
0.0
  11
 844.72992700715
  21
 323.67826464305
  31
0.0
   0
LINE
   5
2D8
 100
AcDbEntity
   8
LEVEL001
 370
25
 100
AcDbLine
   6
CONTINUOUS
  62
3
  10
 854.63740429540
  20
 324.89566443261
  30
0.0
  11
 854.63740429540
  21
 331.67826464305
  31
0.0
   0
LINE
   5
2D9
 100
AcDbEntity
   8
LEVEL001
 370
25
 100
AcDbLine
   6
CONTINUOUS
  62
3
  10
 844.82244971920
  20
 324.89566443261
  30
0.0
  11
 844.82244971920
  21
 331.67826464305
  31
0.0
   0
LINE
   5
2DA
 100
AcDbEntity
   8
LEVEL001
 370
25
 100
AcDbLine
   6
CONTINUOUS
  62
3
  10
 859.54488158350
  20
 324.89566443261
  30
0.0
  11
 859.54488158350
  21
 331.67826464305
  31
0.0
   0
ARC
   5
2DB
 100
AcDbEntity
   8
LEVEL001
 370
25
   6
CONTINUOUS
  62
3
 100
AcDbCircle
  10
 842.36871107515
  20
 326.75978956413
  30
0.0
  40
 3.0815249210842
 100
AcDbArc
  50
 217.22423129714
  51
 322.77576870286
   0
ARC
   5
2DC
 100
AcDbEntity
   8
LEVEL001
 370
25
   6
CONTINUOUS
  62
3
 100
AcDbCircle
  10
 849.72992700730
  20
 334.17826464305
  30
0.0
  40
 10.500000000000
 100
AcDbArc
  50
 242.13571783473
  51
 297.86428216528
   0
ARC
   5
2DD
 100
AcDbEntity
   8
LEVEL001
 370
25
   6
CONTINUOUS
  62
3
 100
AcDbCircle
  10
 857.09114293945
  20
 326.75978956413
  30
0.0
  40
 3.0815249210842
 100
AcDbArc
  50
 217.22423129714
  51
 322.77576870286
   0
LINE
   5
2DE
 100
AcDbEntity
   8
LEVEL001
 370
25
 100
AcDbLine
   6
CONTINUOUS
  62
3
  10
 842.36871107515
  20
 323.67826464305
  30
0.0
  11
 857.09114293945
  21
 323.67826464305
  31
0.0
   0
LINE
   5
2DF
 100
AcDbEntity
   8
LEVEL001
 370
25
 100
AcDbLine
   6
CONTINUOUS
  62
3
  10
 839.91497243110
  20
 331.67826464305
  30
0.0
  11
 839.91497243110
  21
 324.89566443261
  31
0.0
   0
LINE
   5
2E0
 100
AcDbEntity
   8
LEVEL001
 370
25
 100
AcDbLine
   6
CONTINUOUS
  62
3
  10
 839.91497243110
  20
 331.67826464305
  30
0.0
  11
 859.54488158350
  21
 331.67826464305
  31
0.0
   0
LINE
   5
2E1
 100
AcDbEntity
   8
LEVEL001
 370
25
 100
AcDbLine
   6
CONTINUOUS
  62
3
  10
 840.52991480027
  20
 334.17826464305
  30
0.0
  11
 840.52991480027
  21
 331.67826464305
  31
0.0
   0
LINE
   5
2E2
 100
AcDbEntity
   8
LEVEL001
 370
25
 100
AcDbLine
   6
CONTINUOUS
  62
3
  10
 849.72992700730
  20
 331.67826464305
  30
0.0
  11
 848.28653711472
  21
 334.17826464305
  31
0.0
   0
LINE
   5
2E3
 100
AcDbEntity
   8
LEVEL001
 370
25
 100
AcDbLine
   6
CONTINUOUS
  62
3
  10
 849.72992700730
  20
 334.17826464305
  30
0.0
  11
 851.17329401169
  21
 331.67826464305
  31
0.0
   0
LINE
   5
2E4
 100
AcDbEntity
   8
LEVEL001
 370
25
 100
AcDbLine
   6
CONTINUOUS
  62
3
  10
 858.92991632615
  20
 331.67826464305
  30
0.0
  11
 858.92991632615
  21
 334.17826464305
  31
0.0
   0
LINE
   5
2E5
 100
AcDbEntity
   8
LEVEL001
 370
25
 100
AcDbLine
   6
CONTINUOUS
  62
3
  10
 842.36871107515
  20
 301.17826464305
  30
0.0
  11
 857.09114293945
  21
 301.17826464305
  31
0.0
   0
LINE
   5
2E6
 100
AcDbEntity
   8
LEVEL001
 370
25
 100
AcDbLine
   6
CONTINUOUS
  62
3
  10
 854.63740429540
  20
 299.96086485348
  30
0.0
  11
 854.63740429540
  21
 293.17826464305
  31
0.0
   0
LINE
   5
2E7
 100
AcDbEntity
   8
LEVEL001
 370
25
 100
AcDbLine
   6
CONTINUOUS
  62
3
  10
 844.82244971920
  20
 299.96086485348
  30
0.0
  11
 844.82244971920
  21
 293.17826464305
  31
0.0
   0
LINE
   5
2E8
 100
AcDbEntity
   8
LEVEL001
 370
25
 100
AcDbLine
   6
CONTINUOUS
  62
3
  10
 859.54488158350
  20
 299.96086485348
  30
0.0
  11
 859.54488158350
  21
 293.17826464305
  31
0.0
   0
LINE
   5
2E9
 100
AcDbEntity
   8
LEVEL001
 370
25
 100
AcDbLine
   6
CONTINUOUS
  62
3
  10
 839.91497243110
  20
 293.17826464305
  30
0.0
  11
 839.91497243110
  21
 299.96086485348
  31
0.0
   0
ARC
   5
2EA
 100
AcDbEntity
   8
LEVEL001
 370
25
   6
CONTINUOUS
  62
3
 100
AcDbCircle
  10
 857.09114293945
  20
 298.09673972196
  30
0.0
  40
 3.0815249210842
 100
AcDbArc
  50
 37.224231297144
  51
 142.77576870286
   0
ARC
   5
2EB
 100
AcDbEntity
   8
LEVEL001
 370
25
   6
CONTINUOUS
  62
3
 100
AcDbCircle
  10
 849.72992700730
  20
 290.67826464305
  30
0.0
  40
 10.500000000000
 100
AcDbArc
  50
 62.135717834722
  51
 117.86428216528
   0
ARC
   5
2EC
 100
AcDbEntity
   8
LEVEL001
 370
25
   6
CONTINUOUS
  62
3
 100
AcDbCircle
  10
 842.36871107515
  20
 298.09673972196
  30
0.0
  40
 3.0815249210842
 100
AcDbArc
  50
 37.224231297140
  51
 142.77576870286
   0
LWPOLYLINE
   5
2ED
 100
AcDbEntity
   8
LEVEL001
 370
25
   6
CONTINUOUS
  62
3
 100
AcDbPolyline
  90
6
  70
0
  10
 844.72992700715
  20
 270.67826464305
  10
 844.72992700715
  20
 261.17826464305
  10
 845.72992700715
  20
 260.17826464305
  10
 853.72992700715
  20
 260.17826464305
  10
 854.72992700715
  20
 261.17826464305
  10
 854.72992700715
  20
 270.67826464305
   0
LINE
   5
2EE
 100
AcDbEntity
   8
LEVEL001
 370
25
 100
AcDbLine
   6
CONTINUOUS
  62
3
  10
 845.72992700715
  20
 260.17826464305
  30
0.0
  11
 845.72992700715
  21
 270.67826464305
  31
0.0
   0
LINE
   5
2EF
 100
AcDbEntity
   8
LEVEL001
 370
25
 100
AcDbLine
   6
CONTINUOUS
  62
3
  10
 853.72992700715
  20
 260.17826464305
  30
0.0
  11
 853.72992700715
  21
 270.67826464305
  31
0.0
   0
LINE
   5
2F0
 100
AcDbEntity
   8
LEVEL001
 370
25
 100
AcDbLine
   6
CONTINUOUS
  62
3
  10
 844.72992700715
  20
 261.17826464305
  30
0.0
  11
 854.72992700715
  21
 261.17826464305
  31
0.0
   0
LINE
   5
2F1
 100
AcDbEntity
   8
LEVEL001
 370
25
 100
AcDbLine
   6
CONTINUOUS
  62
3
  10
 839.91497243110
  20
 278.67826464305
  30
0.0
  11
 859.54488158350
  21
 278.67826464305
  31
0.0
   0
LINE
   5
2F2
 100
AcDbEntity
   8
LEVEL001
 370
25
 100
AcDbLine
   6
CONTINUOUS
  62
3
  10
 840.52991480027
  20
 281.17826464305
  30
0.0
  11
 840.52991480027
  21
 278.67826464305
  31
0.0
   0
LINE
   5
2F3
 100
AcDbEntity
   8
LEVEL001
 370
25
 100
AcDbLine
   6
CONTINUOUS
  62
3
  10
 849.72992700730
  20
 278.67826464305
  30
0.0
  11
 848.28653711472
  21
 281.17826464305
  31
0.0
   0
LINE
   5
2F4
 100
AcDbEntity
   8
LEVEL001
 370
25
 100
AcDbLine
   6
CONTINUOUS
  62
3
  10
 849.72992700730
  20
 281.17826464305
  30
0.0
  11
 851.17329401169
  21
 278.67826464305
  31
0.0
   0
LINE
   5
2F5
 100
AcDbEntity
   8
LEVEL001
 370
25
 100
AcDbLine
   6
CONTINUOUS
  62
3
  10
 858.92991632615
  20
 278.67826464305
  30
0.0
  11
 858.92991632615
  21
 281.17826464305
  31
0.0
   0
LINE
   5
2F6
 100
AcDbEntity
   8
LEVEL001
 370
25
 100
AcDbLine
   6
CONTINUOUS
  62
3
  10
 842.36871107515
  20
 270.67826464305
  30
0.0
  11
 857.09114293945
  21
 270.67826464305
  31
0.0
   0
LINE
   5
2F7
 100
AcDbEntity
   8
LEVEL001
 370
25
 100
AcDbLine
   6
CONTINUOUS
  62
3
  10
 854.63740429540
  20
 271.89566443261
  30
0.0
  11
 854.63740429540
  21
 278.67826464305
  31
0.0
   0
LINE
   5
2F8
 100
AcDbEntity
   8
LEVEL001
 370
25
 100
AcDbLine
   6
CONTINUOUS
  62
3
  10
 844.82244971920
  20
 271.89566443261
  30
0.0
  11
 844.82244971920
  21
 278.67826464305
  31
0.0
   0
LINE
   5
2F9
 100
AcDbEntity
   8
LEVEL001
 370
25
 100
AcDbLine
   6
CONTINUOUS
  62
3
  10
 859.54488158350
  20
 271.89566443261
  30
0.0
  11
 859.54488158350
  21
 278.67826464305
  31
0.0
   0
LINE
   5
2FA
 100
AcDbEntity
   8
LEVEL001
 370
25
 100
AcDbLine
   6
CONTINUOUS
  62
3
  10
 839.91497243110
  20
 278.67826464305
  30
0.0
  11
 839.91497243110
  21
 271.89566443261
  31
0.0
   0
ARC
   5
2FB
 100
AcDbEntity
   8
LEVEL001
 370
25
   6
CONTINUOUS
  62
3
 100
AcDbCircle
  10
 857.09114293945
  20
 273.75978956413
  30
0.0
  40
 3.0815249210842
 100
AcDbArc
  50
 217.22423129714
  51
 322.77576870286
   0
ARC
   5
2FC
 100
AcDbEntity
   8
LEVEL001
 370
25
   6
CONTINUOUS
  62
3
 100
AcDbCircle
  10
 849.72992700730
  20
 281.17826464305
  30
0.0
  40
 10.500000000000
 100
AcDbArc
  50
 242.13571783472
  51
 297.86428216528
   0
ARC
   5
2FD
 100
AcDbEntity
   8
LEVEL001
 370
25
   6
CONTINUOUS
  62
3
 100
AcDbCircle
  10
 842.36871107515
  20
 273.75978956413
  30
0.0
  40
 3.0815249210842
 100
AcDbArc
  50
 217.22423129714
  51
 322.77576870286
   0
ENDBLK
   5
2FE
 100
AcDbEntity
   8
0
 100
AcDbBlockEnd
   0
BLOCK
   5
2FF
 100
AcDbEntity
   8
0
 100
AcDbBlockBegin
   2
BLOCK027
  70
64
  10
0.0
  20
0.0
  30
0.0
   3
BLOCK027
   0
LINE
   5
300
 100
AcDbEntity
   8
LEVEL001
 370
25
 100
AcDbLine
   6
DASHDOT
  62
3
  10
 809.72992700730
  20
 254.45388165115
  30
0.0
  11
 809.72992700730
  21
 347.30639418406
  31
0.0
   0
LINE
   5
301
 100
AcDbEntity
   8
LEVEL001
 370
25
 100
AcDbLine
   6
CONTINUOUS
  62
3
  10
 814.72992700715
  20
 301.17826464305
  30
0.0
  11
 814.72992700715
  21
 323.67826464305
  31
0.0
   0
LINE
   5
302
 100
AcDbEntity
   8
LEVEL001
 370
25
 100
AcDbLine
   6
CONTINUOUS
  62
3
  10
 813.72992700715
  20
 301.17826464305
  30
0.0
  11
 813.72992700715
  21
 323.67826464305
  31
0.0
   0
LINE
   5
303
 100
AcDbEntity
   8
LEVEL001
 370
25
 100
AcDbLine
   6
CONTINUOUS
  62
3
  10
 805.72992700715
  20
 301.17826464305
  30
0.0
  11
 805.72992700715
  21
 323.67826464305
  31
0.0
   0
LINE
   5
304
 100
AcDbEntity
   8
LEVEL001
 370
25
 100
AcDbLine
   6
CONTINUOUS
  62
3
  10
 804.72992700715
  20
 301.17826464305
  30
0.0
  11
 804.72992700715
  21
 323.67826464305
  31
0.0
   0
LINE
   5
305
 100
AcDbEntity
   8
LEVEL001
 370
25
 100
AcDbLine
   6
CONTINUOUS
  62
3
  10
 814.63740429540
  20
 324.89566443261
  30
0.0
  11
 814.63740429540
  21
 331.67826464305
  31
0.0
   0
LINE
   5
306
 100
AcDbEntity
   8
LEVEL001
 370
25
 100
AcDbLine
   6
CONTINUOUS
  62
3
  10
 804.82244971920
  20
 324.89566443261
  30
0.0
  11
 804.82244971920
  21
 331.67826464305
  31
0.0
   0
LINE
   5
307
 100
AcDbEntity
   8
LEVEL001
 370
25
 100
AcDbLine
   6
CONTINUOUS
  62
3
  10
 819.54488158350
  20
 324.89566443261
  30
0.0
  11
 819.54488158350
  21
 331.67826464305
  31
0.0
   0
ARC
   5
308
 100
AcDbEntity
   8
LEVEL001
 370
25
   6
CONTINUOUS
  62
3
 100
AcDbCircle
  10
 802.36871107515
  20
 326.75978956413
  30
0.0
  40
 3.0815249210842
 100
AcDbArc
  50
 217.22423129714
  51
 322.77576870286
   0
ARC
   5
309
 100
AcDbEntity
   8
LEVEL001
 370
25
   6
CONTINUOUS
  62
3
 100
AcDbCircle
  10
 809.72992700730
  20
 334.17826464305
  30
0.0
  40
 10.500000000000
 100
AcDbArc
  50
 242.13571783473
  51
 297.86428216528
   0
ARC
   5
30A
 100
AcDbEntity
   8
LEVEL001
 370
25
   6
CONTINUOUS
  62
3
 100
AcDbCircle
  10
 817.09114293945
  20
 326.75978956413
  30
0.0
  40
 3.0815249210842
 100
AcDbArc
  50
 217.22423129714
  51
 322.77576870286
   0
LINE
   5
30B
 100
AcDbEntity
   8
LEVEL001
 370
25
 100
AcDbLine
   6
CONTINUOUS
  62
3
  10
 802.36871107515
  20
 323.67826464305
  30
0.0
  11
 817.09114293945
  21
 323.67826464305
  31
0.0
   0
LINE
   5
30C
 100
AcDbEntity
   8
LEVEL001
 370
25
 100
AcDbLine
   6
CONTINUOUS
  62
3
  10
 799.91497243110
  20
 331.67826464305
  30
0.0
  11
 799.91497243110
  21
 324.89566443261
  31
0.0
   0
LINE
   5
30D
 100
AcDbEntity
   8
LEVEL001
 370
25
 100
AcDbLine
   6
CONTINUOUS
  62
3
  10
 799.91497243110
  20
 331.67826464305
  30
0.0
  11
 819.54488158350
  21
 331.67826464305
  31
0.0
   0
LINE
   5
30E
 100
AcDbEntity
   8
LEVEL001
 370
25
 100
AcDbLine
   6
CONTINUOUS
  62
3
  10
 800.52991480027
  20
 334.17826464305
  30
0.0
  11
 800.52991480027
  21
 331.67826464305
  31
0.0
   0
LINE
   5
30F
 100
AcDbEntity
   8
LEVEL001
 370
25
 100
AcDbLine
   6
CONTINUOUS
  62
3
  10
 809.72992700730
  20
 331.67826464305
  30
0.0
  11
 808.28653711472
  21
 334.17826464305
  31
0.0
   0
LINE
   5
310
 100
AcDbEntity
   8
LEVEL001
 370
25
 100
AcDbLine
   6
CONTINUOUS
  62
3
  10
 809.72992700730
  20
 334.17826464305
  30
0.0
  11
 811.17329401169
  21
 331.67826464305
  31
0.0
   0
LINE
   5
311
 100
AcDbEntity
   8
LEVEL001
 370
25
 100
AcDbLine
   6
CONTINUOUS
  62
3
  10
 818.92991632615
  20
 331.67826464305
  30
0.0
  11
 818.92991632615
  21
 334.17826464305
  31
0.0
   0
LINE
   5
312
 100
AcDbEntity
   8
LEVEL001
 370
25
 100
AcDbLine
   6
CONTINUOUS
  62
3
  10
 802.36871107515
  20
 301.17826464305
  30
0.0
  11
 817.09114293945
  21
 301.17826464305
  31
0.0
   0
LINE
   5
313
 100
AcDbEntity
   8
LEVEL001
 370
25
 100
AcDbLine
   6
CONTINUOUS
  62
3
  10
 814.63740429540
  20
 299.96086485348
  30
0.0
  11
 814.63740429540
  21
 293.17826464305
  31
0.0
   0
LINE
   5
314
 100
AcDbEntity
   8
LEVEL001
 370
25
 100
AcDbLine
   6
CONTINUOUS
  62
3
  10
 804.82244971920
  20
 299.96086485348
  30
0.0
  11
 804.82244971920
  21
 293.17826464305
  31
0.0
   0
LINE
   5
315
 100
AcDbEntity
   8
LEVEL001
 370
25
 100
AcDbLine
   6
CONTINUOUS
  62
3
  10
 819.54488158350
  20
 299.96086485348
  30
0.0
  11
 819.54488158350
  21
 293.17826464305
  31
0.0
   0
LINE
   5
316
 100
AcDbEntity
   8
LEVEL001
 370
25
 100
AcDbLine
   6
CONTINUOUS
  62
3
  10
 799.91497243110
  20
 293.17826464305
  30
0.0
  11
 799.91497243110
  21
 299.96086485348
  31
0.0
   0
ARC
   5
317
 100
AcDbEntity
   8
LEVEL001
 370
25
   6
CONTINUOUS
  62
3
 100
AcDbCircle
  10
 817.09114293945
  20
 298.09673972196
  30
0.0
  40
 3.0815249210842
 100
AcDbArc
  50
 37.224231297144
  51
 142.77576870286
   0
ARC
   5
318
 100
AcDbEntity
   8
LEVEL001
 370
25
   6
CONTINUOUS
  62
3
 100
AcDbCircle
  10
 809.72992700730
  20
 290.67826464305
  30
0.0
  40
 10.500000000000
 100
AcDbArc
  50
 62.135717834722
  51
 117.86428216528
   0
ARC
   5
319
 100
AcDbEntity
   8
LEVEL001
 370
25
   6
CONTINUOUS
  62
3
 100
AcDbCircle
  10
 802.36871107515
  20
 298.09673972196
  30
0.0
  40
 3.0815249210842
 100
AcDbArc
  50
 37.224231297140
  51
 142.77576870286
   0
LWPOLYLINE
   5
31A
 100
AcDbEntity
   8
LEVEL001
 370
25
   6
CONTINUOUS
  62
3
 100
AcDbPolyline
  90
6
  70
0
  10
 804.72992700715
  20
 270.67826464305
  10
 804.72992700715
  20
 261.17826464305
  10
 805.72992700715
  20
 260.17826464305
  10
 813.72992700715
  20
 260.17826464305
  10
 814.72992700715
  20
 261.17826464305
  10
 814.72992700715
  20
 270.67826464305
   0
LINE
   5
31B
 100
AcDbEntity
   8
LEVEL001
 370
25
 100
AcDbLine
   6
CONTINUOUS
  62
3
  10
 805.72992700715
  20
 260.17826464305
  30
0.0
  11
 805.72992700715
  21
 270.67826464305
  31
0.0
   0
LINE
   5
31C
 100
AcDbEntity
   8
LEVEL001
 370
25
 100
AcDbLine
   6
CONTINUOUS
  62
3
  10
 813.72992700715
  20
 260.17826464305
  30
0.0
  11
 813.72992700715
  21
 270.67826464305
  31
0.0
   0
LINE
   5
31D
 100
AcDbEntity
   8
LEVEL001
 370
25
 100
AcDbLine
   6
CONTINUOUS
  62
3
  10
 804.72992700715
  20
 261.17826464305
  30
0.0
  11
 814.72992700715
  21
 261.17826464305
  31
0.0
   0
LINE
   5
31E
 100
AcDbEntity
   8
LEVEL001
 370
25
 100
AcDbLine
   6
CONTINUOUS
  62
3
  10
 799.91497243110
  20
 278.67826464305
  30
0.0
  11
 819.54488158350
  21
 278.67826464305
  31
0.0
   0
LINE
   5
31F
 100
AcDbEntity
   8
LEVEL001
 370
25
 100
AcDbLine
   6
CONTINUOUS
  62
3
  10
 800.52991480027
  20
 281.17826464305
  30
0.0
  11
 800.52991480027
  21
 278.67826464305
  31
0.0
   0
LINE
   5
320
 100
AcDbEntity
   8
LEVEL001
 370
25
 100
AcDbLine
   6
CONTINUOUS
  62
3
  10
 809.72992700730
  20
 278.67826464305
  30
0.0
  11
 808.28653711472
  21
 281.17826464305
  31
0.0
   0
LINE
   5
321
 100
AcDbEntity
   8
LEVEL001
 370
25
 100
AcDbLine
   6
CONTINUOUS
  62
3
  10
 809.72992700730
  20
 281.17826464305
  30
0.0
  11
 811.17329401169
  21
 278.67826464305
  31
0.0
   0
LINE
   5
322
 100
AcDbEntity
   8
LEVEL001
 370
25
 100
AcDbLine
   6
CONTINUOUS
  62
3
  10
 818.92991632615
  20
 278.67826464305
  30
0.0
  11
 818.92991632615
  21
 281.17826464305
  31
0.0
   0
LINE
   5
323
 100
AcDbEntity
   8
LEVEL001
 370
25
 100
AcDbLine
   6
CONTINUOUS
  62
3
  10
 802.36871107515
  20
 270.67826464305
  30
0.0
  11
 817.09114293945
  21
 270.67826464305
  31
0.0
   0
LINE
   5
324
 100
AcDbEntity
   8
LEVEL001
 370
25
 100
AcDbLine
   6
CONTINUOUS
  62
3
  10
 814.63740429540
  20
 271.89566443261
  30
0.0
  11
 814.63740429540
  21
 278.67826464305
  31
0.0
   0
LINE
   5
325
 100
AcDbEntity
   8
LEVEL001
 370
25
 100
AcDbLine
   6
CONTINUOUS
  62
3
  10
 804.82244971920
  20
 271.89566443261
  30
0.0
  11
 804.82244971920
  21
 278.67826464305
  31
0.0
   0
LINE
   5
326
 100
AcDbEntity
   8
LEVEL001
 370
25
 100
AcDbLine
   6
CONTINUOUS
  62
3
  10
 819.54488158350
  20
 271.89566443261
  30
0.0
  11
 819.54488158350
  21
 278.67826464305
  31
0.0
   0
LINE
   5
327
 100
AcDbEntity
   8
LEVEL001
 370
25
 100
AcDbLine
   6
CONTINUOUS
  62
3
  10
 799.91497243110
  20
 278.67826464305
  30
0.0
  11
 799.91497243110
  21
 271.89566443261
  31
0.0
   0
ARC
   5
328
 100
AcDbEntity
   8
LEVEL001
 370
25
   6
CONTINUOUS
  62
3
 100
AcDbCircle
  10
 817.09114293945
  20
 273.75978956413
  30
0.0
  40
 3.0815249210842
 100
AcDbArc
  50
 217.22423129714
  51
 322.77576870286
   0
ARC
   5
329
 100
AcDbEntity
   8
LEVEL001
 370
25
   6
CONTINUOUS
  62
3
 100
AcDbCircle
  10
 809.72992700730
  20
 281.17826464305
  30
0.0
  40
 10.500000000000
 100
AcDbArc
  50
 242.13571783472
  51
 297.86428216528
   0
ARC
   5
32A
 100
AcDbEntity
   8
LEVEL001
 370
25
   6
CONTINUOUS
  62
3
 100
AcDbCircle
  10
 802.36871107515
  20
 273.75978956413
  30
0.0
  40
 3.0815249210842
 100
AcDbArc
  50
 217.22423129714
  51
 322.77576870286
   0
ENDBLK
   5
32B
 100
AcDbEntity
   8
0
 100
AcDbBlockEnd
   0
ENDSEC
   0
SECTION
   2
ENTITIES
   0
TEXT
   5
32C
 100
AcDbEntity
   8
LEVEL001
 370
25
  62
3
 100
AcDbText
  10
-165.88128097853
  20
 120.26184844971
  30
0.0
  40
 2.5999999046326
   1
　
  41
 0.76923079744599
   7
STANDARD
 100
AcDbText
   0
TEXT
   5
32D
 100
AcDbEntity
   8
LEVEL001
 370
25
  62
3
 100
AcDbText
  10
-149.23487289748
  20
 120.17190551758
  30
0.0
  40
 2.5999999046326
   1
　
  41
 0.42307690191551
   7
STANDARD
 100
AcDbText
   0
TEXT
   5
32E
 100
AcDbEntity
   8
LEVEL001
 370
25
  62
3
 100
AcDbText
  10
-195.10787399611
  20
 126.32980531044
  30
0.0
  40
 3.5999999046326
   1
　
  41
 1.1111111405455
   7
STANDARD
 100
AcDbText
   0
TEXT
   5
32F
 100
AcDbEntity
   8
LEVEL001
 370
25
  62
3
 100
AcDbText
  10
-187.10787399611
  20
 126.32980531044
  30
0.0
  40
 3.5999999046326
   1
　
  41
 1.1111111405455
   7
STANDARD
 100
AcDbText
   0
TEXT
   5
330
 100
AcDbEntity
   8
LEVEL001
 370
25
  62
3
 100
AcDbText
  10
-179.10787399611
  20
 126.32980531044
  30
0.0
  40
 3.5999999046326
   1
　
  41
 1.1111111405455
   7
STANDARD
 100
AcDbText
   0
TEXT
   5
331
 100
AcDbEntity
   8
LEVEL001
 370
25
  62
3
 100
AcDbText
  10
-171.10787399611
  20
 126.32980531044
  30
0.0
  40
 3.5999999046326
   1
　
  41
 1.1111111405455
   7
STANDARD
 100
AcDbText
   0
TEXT
   5
332
 100
AcDbEntity
   8
LEVEL001
 370
25
  62
3
 100
AcDbText
  10
-163.10787399611
  20
 126.32980531044
  30
0.0
  40
 3.5999999046326
   1
　
  41
 1.1111111405455
   7
STANDARD
 100
AcDbText
   0
TEXT
   5
333
 100
AcDbEntity
   8
LEVEL001
 370
25
  62
3
 100
AcDbText
  10
-148.01046188674
  20
 128.45293610878
  30
0.0
  40
 3.5999999046326
   1
　
  41
 1.1111111405455
   7
STANDARD
 100
AcDbText
   0
TEXT
   5
334
 100
AcDbEntity
   8
LEVEL001
 370
25
  62
3
 100
AcDbText
  10
-144.01046188674
  20
 128.45293610878
  30
0.0
  40
 3.5999999046326
   1
　
  41
 1.1111111405455
   7
STANDARD
 100
AcDbText
   0
TEXT
   5
335
 100
AcDbEntity
   8
LEVEL001
 370
25
  62
3
 100
AcDbText
  10
-140.01046188674
  20
 128.45293610878
  30
0.0
  40
 3.5999999046326
   1
　
  41
 1.1111111405455
   7
STANDARD
 100
AcDbText
   0
TEXT
   5
336
 100
AcDbEntity
   8
LEVEL001
 370
25
  62
3
 100
AcDbText
  10
-136.01046188674
  20
 128.45293610878
  30
0.0
  40
 3.5999999046326
   1
　
  41
 1.1111111405455
   7
STANDARD
 100
AcDbText
   0
TEXT
   5
337
 100
AcDbEntity
   8
LEVEL001
 370
25
  62
3
 100
AcDbText
  10
-195.78447922072
  20
-135.37816423588
  30
0.0
  40
 3.5000000000000
   1
　
  41
 1.1428571428571
   7
STANDARD
 100
AcDbText
   0
TEXT
   5
338
 100
AcDbEntity
   8
LEVEL001
 370
25
  62
3
 100
AcDbText
  10
-191.78447922072
  20
-135.37816423588
  30
0.0
  40
 3.5000000000000
   1
 
  41
 0.57142857142857
   7
STANDARD
 100
AcDbText
   0
TEXT
   5
339
 100
AcDbEntity
   8
LEVEL001
 370
25
  62
3
 100
AcDbText
  10
-185.78447922072
  20
-135.37816423588
  30
0.0
  40
 3.5000000000000
   1
　
  41
 1.1428571428571
   7
STANDARD
 100
AcDbText
   0
TEXT
   5
33A
 100
AcDbEntity
   8
LEVEL001
 370
25
  62
3
 100
AcDbText
  10
-181.78447922072
  20
-135.37816423588
  30
0.0
  40
 3.5000000000000
   1
 
  41
 0.57142857142857
   7
STANDARD
 100
AcDbText
   0
TEXT
   5
33B
 100
AcDbEntity
   8
LEVEL001
 370
25
  62
3
 100
AcDbText
  10
-199.12780197463
  20
-127.74216264896
  30
0.0
  40
 3.5000000000000
   1
 
  41
 0.45714286395482
   7
STANDARD
 100
AcDbText
   0
TEXT
   5
33C
 100
AcDbEntity
   8
LEVEL001
 370
25
  62
3
 100
AcDbText
  10
-194.32779892287
  20
-127.74216264896
  30
0.0
  40
 3.5000000000000
   1
 
  41
 0.45714286395482
   7
STANDARD
 100
AcDbText
   0
TEXT
   5
33D
 100
AcDbEntity
   8
LEVEL001
 370
25
  62
3
 100
AcDbText
  10
-182.35412033400
  20
-127.74216264896
  30
0.0
  40
 3.5000000000000
   1
 
  41
 0.45714286395482
   7
STANDARD
 100
AcDbText
   0
TEXT
   5
33E
 100
AcDbEntity
   8
LEVEL001
 370
25
  62
3
 100
AcDbText
  10
-180.75411423049
  20
-127.74216264896
  30
0.0
  40
 3.5000000000000
   1
 
  41
 0.45714286395482
   7
STANDARD
 100
AcDbText
   0
TEXT
   5
33F
 100
AcDbEntity
   8
LEVEL001
 370
25
  62
3
 100
AcDbText
  10
-101.39085110030
  20
-145.43401152305
  30
0.0
  40
 4.0000000000000
   1
　
  41
 0.80000001192093
   7
STANDARD
 100
AcDbText
   0
TEXT
   5
340
 100
AcDbEntity
   8
LEVEL001
 370
25
  62
3
 100
AcDbText
  10
-98.190854152058
  20
-145.43401152305
  30
0.0
  40
 4.0000000000000
   1
　
  41
 0.80000001192093
   7
STANDARD
 100
AcDbText
   0
TEXT
   5
341
 100
AcDbEntity
   8
LEVEL001
 370
25
  62
3
 100
AcDbText
  10
-94.990849574421
  20
-145.43401152305
  30
0.0
  40
 4.0000000000000
   1
　
  41
 0.80000001192093
   7
STANDARD
 100
AcDbText
   0
TEXT
   5
342
 100
AcDbEntity
   8
LEVEL001
 370
25
  62
3
 100
AcDbText
  10
-137.13345821700
  20
-135.44821733646
  30
0.0
  40
 3.5000000000000
   1
　
  41
 0.71428571428571
   7
STANDARD
 100
AcDbText
   0
TEXT
   5
343
 100
AcDbEntity
   8
LEVEL001
 370
25
  62
3
 100
AcDbText
  10
-103.09236629805
  20
-135.48129839115
  30
0.0
  40
 3.5000000000000
   1
　
  41
 1.1428571428571
   7
STANDARD
 100
AcDbText
   0
TEXT
   5
344
 100
AcDbEntity
   8
LEVEL001
 370
25
  62
3
 100
AcDbText
  10
-105.09236629805
  20
-135.48129839115
  30
0.0
  40
 3.5000000000000
   1
　
  41
 1.1428571428571
   7
STANDARD
 100
AcDbText
   0
TEXT
   5
345
 100
AcDbEntity
   8
LEVEL001
 370
25
  62
3
 100
AcDbText
  10
-105.09234627089
  20
-135.48129839115
  30
0.0
  40
 3.5000000000000
   1
　
  41
 1.1428571428571
   7
STANDARD
 100
AcDbText
   0
POINT
   5
346
 100
AcDbEntity
   8
LEVEL001
 100
AcDbPoint
  62
7
  10
-210.00003412603
  20
-148.50000836058
  30
0.0
   0
LINE
   5
347
 100
AcDbEntity
   8
LEVEL001
 370
25
 100
AcDbLine
   6
CONTINUOUS
  62
3
  10
-173.99997192853
  20
-22.500084464330
  30
0.0
  11
 954.00002807147
  21
-22.500084464330
  31
0.0
   0
LINE
   5
348
 100
AcDbEntity
   8
LEVEL001
 370
25
 100
AcDbLine
   6
CONTINUOUS
  62
3
  10
 270.00002807147
  20
-82.500084464330
  30
0.0
  11
 270.00002807147
  21
-142.50008446433
  31
0.0
   0
LWPOLYLINE
   5
349
 100
AcDbEntity
   8
LEVEL001
 370
40
   6
CONTINUOUS
  62
7
 100
AcDbPolyline
  90
6
  70
1
  10
-173.99997192853
  20
-142.50008446433
  10
 582.00002807147
  20
-142.50008446433
  10
 582.00002807147
  20
-82.500084464330
  10
 954.00002807147
  20
-82.500084464330
  10
 954.00002807147
  20
 1537.4999155357
  10
-173.99997192853
  20
 1537.4999155357
   0
LINE
   5
34A
 100
AcDbEntity
   8
LEVEL001
 370
25
 100
AcDbLine
   6
CONTINUOUS
  62
3
  10
 234.00002807147
  20
-82.500084464330
  30
0.0
  11
 582.00002807147
  21
-82.500084464330
  31
0.0
   0
LINE
   5
34B
 100
AcDbEntity
   8
LEVEL001
 370
25
 100
AcDbLine
   6
CONTINUOUS
  62
3
  10
 426.00010245807
  20
-82.500083749073
  30
0.0
  11
 426.00010245807
  21
-142.50008446433
  31
0.0
   0
LINE
   5
34C
 100
AcDbEntity
   8
LEVEL001
 370
25
 100
AcDbLine
   6
CONTINUOUS
  62
3
  10
 390.00010245807
  20
-82.500083749073
  30
0.0
  11
 390.00010245807
  21
-142.50008446433
  31
0.0
   0
LINE
   5
34D
 100
AcDbEntity
   8
LEVEL001
 370
25
 100
AcDbLine
   6
CONTINUOUS
  62
3
  10
 234.00002807147
  20
-22.500084464330
  30
0.0
  11
 234.00002807147
  21
-142.50008446433
  31
0.0
   0
INSERT
   5
34E
 100
AcDbEntity
   8
0
 100
AcDbBlockReference
   2
BLOCK001
  10
0.0
  20
0.0
  30
0.0
   0
MTEXT
   5
34F
 100
AcDbEntity
   8
LEVEL001
 370
40
  62
7
 100
AcDbMText
  10
 242.21274322040
  20
-88.135309117220
  30
0.0
  40
 14.400000000000
  41
0.0
  71
1
  72
3
   1
日付
   7
GMM001
   0
MTEXT
   5
350
 100
AcDbEntity
   8
LEVEL001
 370
40
  62
7
 100
AcDbMText
  10
 398.21281760699
  20
-88.752377025145
  30
0.0
  40
 14.400000000000
  41
0.0
  71
1
  72
3
   1
尺度
   7
GMM001
   0
LINE
   5
351
 100
AcDbEntity
   8
LEVEL001
 370
25
 100
AcDbLine
   6
CONTINUOUS
  62
3
  10
 582.00002807147
  20
-22.500084464330
  30
0.0
  11
 582.00002807147
  21
-82.500084464330
  31
0.0
   0
LINE
   5
352
 100
AcDbEntity
   8
LEVEL001
 370
25
 100
AcDbLine
   6
CONTINUOUS
  62
3
  10
 618.00002807147
  20
-22.500084464330
  30
0.0
  11
 618.00002807147
  21
-82.500084464330
  31
0.0
   0
MTEXT
   5
353
 100
AcDbEntity
   8
LEVEL001
 370
40
  62
7
 100
AcDbMText
  10
 236.33715705392
  20
-44.275602733024
  30
0.0
  40
 14.400000000000
  41
0.0
  71
7
  72
1
   1
ワーク名称
   7
GMM002
   0
MTEXT
   5
354
 100
AcDbEntity
   8
LEVEL001
 370
40
  62
7
 100
AcDbMText
  10
 590.21274322040
  20
-29.687401704535
  30
0.0
  40
 14.400000000000
  41
0.0
  71
1
  72
3
   1
図番
   7
GMM001
   0
MTEXT
   5
355
 100
AcDbEntity
   8
LEVEL001
 370
40
  62
7
 100
AcDbMText
  10
 435.80938097408
  20
-130.87247459386
  30
0.0
  40
 16.200000000000
  41
0.0
  71
7
  72
1
   1
Ａ４－１／６
   7
GMM002
   0
MTEXT
   5
356
 100
AcDbEntity
   8
LEVEL001
 370
9
  62
11
 100
AcDbMText
  10
 418.97163560343
  20
 385.87243940033
  30
0.0
  40
 12.000000000000
  41
0.0
  71
7
  72
1
   1
ＳＨ－１５
   7
GMM002
   0
MTEXT
   5
357
 100
AcDbEntity
   8
LEVEL001
 370
9
  62
11
 100
AcDbMText
  10
 128.98265489652
  20
 293.06372138460
  30
0.0
  40
 12.000000000000
  41
0.0
  71
7
  72
1
   1
ＳＴ－４
   7
GMM002
   0
INSERT
   5
358
 100
AcDbEntity
   8
0
 100
AcDbBlockReference
   2
BLOCK002
  10
0.0
  20
0.0
  30
0.0
   0
LINE
   5
359
 100
AcDbEntity
   8
LEVEL001
 370
25
 100
AcDbLine
   6
DASHDOT
  62
3
  10
 62.813868613139
  20
 215.67528262418
  30
0.0
  11
 62.813868613139
  21
 166.23697035784
  31
0.0
   0
LWPOLYLINE
   5
35A
 100
AcDbEntity
   8
LEVEL001
 370
40
   6
CONTINUOUS
  62
7
 100
AcDbPolyline
  90
4
  70
1
  10
 37.813868613139
  20
 199.17826464305
  10
 37.813868613139
  20
 183.17826464305
  10
 537.81386861314
  20
 183.17826464305
  10
 537.81386861314
  20
 199.17826464305
   0
LINE
   5
35B
 100
AcDbEntity
   8
LEVEL001
 370
25
 100
AcDbLine
   6
DASHDOT
  62
3
  10
 512.81386861314
  20
 215.67528262418
  30
0.0
  11
 512.81386861314
  21
 166.23697035784
  31
0.0
   0
INSERT
   5
35C
 100
AcDbEntity
   8
0
 100
AcDbBlockReference
   2
BLOCK003
  10
0.0
  20
0.0
  30
0.0
   0
INSERT
   5
35D
 100
AcDbEntity
   8
0
 100
AcDbBlockReference
   2
BLOCK004
  10
0.0
  20
0.0
  30
0.0
   0
INSERT
   5
35E
 100
AcDbEntity
   8
0
 100
AcDbBlockReference
   2
BLOCK005
  10
0.0
  20
0.0
  30
0.0
   0
DIMENSION
   5
35F
 100
AcDbEntity
   8
LEVEL001
 370
40
   6
CONTINUOUS
  62
7
 100
AcDbDimension
   2
*D1
  10
 297.81386861314
  20
 601.73299804166
  30
0.0
  11
 262.81386861314
  21
 601.73299804166
  31
0.0
  70
0
   3
GMM001
 100
AcDbAlignedDimension
  13
 227.81386861314
  23
 588.43818987004
  33
0.0
  14
 297.81386861314
  24
 501.17826464305
  34
0.0
 100
AcDbRotatedDimension
   0
DIMENSION
   5
360
 100
AcDbEntity
   8
LEVEL001
 370
40
   6
CONTINUOUS
  62
7
 100
AcDbDimension
   2
*D2
  10
 717.81386861314
  20
 601.73299804166
  30
0.0
  11
 507.81386861314
  21
 601.73299804166
  31
0.0
  70
0
   3
GMM001
 100
AcDbAlignedDimension
  13
 297.81386861314
  23
 501.17826464305
  33
0.0
  14
 717.81386861314
  24
 501.17826464305
  34
0.0
 100
AcDbRotatedDimension
   0
MTEXT
   5
361
 100
AcDbEntity
   8
LEVEL001
 370
40
  62
7
 100
AcDbMText
  10
 188.81539317683
  20
-85.333743902797
  30
0.0
  40
 21.000000000000
  41
0.0
  71
7
  72
1
   1
様
   7
GMM003
   0
LINE
   5
362
 100
AcDbEntity
   8
LEVEL001
 370
25
 100
AcDbLine
   6
CONTINUOUS
  62
3
  10
-173.99997192853
  20
-94.500084464330
  30
0.0
  11
 234.00002807147
  21
-94.500084464330
  31
0.0
   0
MTEXT
   5
363
 100
AcDbEntity
   8
LEVEL001
 370
40
  62
7
 100
AcDbMText
  10
-168.26621554780
  20
-44.275602733024
  30
0.0
  40
 14.400000000000
  41
0.0
  71
7
  72
1
   1
お客様
   7
GMM002
   0
MTEXT
   5
364
 100
AcDbEntity
   8
LEVEL001
 370
40
  62
7
 100
AcDbMText
  10
-168.26621554780
  20
-126.75673103200
  30
0.0
  40
 14.400000000000
  41
0.0
  71
7
  72
1
   1
仕様書番号
   7
GMM002
   0
INSERT
   5
365
 100
AcDbEntity
   8
0
 100
AcDbBlockReference
   2
BLOCK006
  10
0.0
  20
0.0
  30
0.0
   0
LINE
   5
366
 100
AcDbEntity
   8
LEVEL001
 370
25
 100
AcDbLine
   6
DASHDOT
  62
3
  10
 227.81386861314
  20
 588.43818987004
  30
0.0
  11
 227.81386861314
  21
 189.28740311577
  31
0.0
   0
MTEXT
   5
367
 100
AcDbEntity
   8
LEVEL001
 370
9
  62
11
 100
AcDbMText
  10
 127.77468883469
  20
 445.54210292178
  30
0.0
  40
 12.000000000000
  41
0.0
  71
7
  72
1
   1
Ｄ－５
   7
GMM002
   0
DIMENSION
   5
368
 100
AcDbEntity
   8
LEVEL001
 370
40
   6
CONTINUOUS
  62
7
 100
AcDbDimension
   2
*D3
  10
 427.81386861314
  20
 645.97962658002
  30
0.0
  11
 227.81386861314
  21
 645.97962658002
  31
0.0
  70
0
   3
GMM002
 100
AcDbAlignedDimension
  13
 27.813868613139
  23
 543.67826464305
  33
0.0
  14
 427.81386861314
  24
 543.67826464305
  34
0.0
 100
AcDbRotatedDimension
   0
DIMENSION
   5
369
 100
AcDbEntity
   8
LEVEL001
 370
40
   6
CONTINUOUS
  62
7
 100
AcDbDimension
   2
*D4
  10
-75.248954068008
  20
 543.67826464305
  30
0.0
  11
-75.248954068008
  21
 363.42826464305
  31
0.0
  70
0
   1
\A1;（３６１）
   3
GMM003
 100
AcDbAlignedDimension
  13
 37.813868613139
  23
 183.17826464305
  33
0.0
  14
-7.1861313868612
  24
 543.67826464305
  34
0.0
  50
 90.000000000000
 100
AcDbRotatedDimension
   0
LWPOLYLINE
   5
36B
 100
AcDbEntity
   8
LEVEL001
 370
40
   6
CONTINUOUS
  62
7
 100
AcDbPolyline
  90
4
  70
1
  10
 297.81386861314
  20
 491.17826464305
  10
 717.81386861314
  20
 491.17826464305
  10
 717.81386861314
  20
 506.17826464305
  10
 297.81386861314
  20
 506.17826464305
   0
LINE
   5
36C
 100
AcDbEntity
   8
LEVEL001
 370
40
 100
AcDbLine
   6
CONTINUOUS
  62
7
  10
 542.81386861314
  20
 491.17826464305
  30
0.0
  11
 542.81386861314
  21
 479.17826464305
  31
0.0
   0
LINE
   5
36D
 100
AcDbEntity
   8
LEVEL001
 370
40
 100
AcDbLine
   6
CONTINUOUS
  62
7
  10
 357.81386861314
  20
 491.17826464305
  30
0.0
  11
 357.81386861314
  21
 479.17826464305
  31
0.0
   0
DIMENSION
   5
36E
 100
AcDbEntity
   8
LEVEL001
 370
40
   6
CONTINUOUS
  62
7
 100
AcDbDimension
   2
*D5
  10
 586.93857374933
  20
 199.17826464305
  30
0.0
  11
 586.93857374933
  21
 212.58018070144
  31
0.0
  70
128
   3
GMM004
 100
AcDbAlignedDimension
  13
 537.81386861314
  23
 183.17826464305
  33
0.0
  14
 537.81386861314
  24
 199.17826464305
  34
0.0
  50
 90.000000000000
 100
AcDbRotatedDimension
   0
DIMENSION
   5
36F
 100
AcDbEntity
   8
LEVEL001
 370
40
   6
CONTINUOUS
  62
7
 100
AcDbDimension
   2
*D6
  10
 623.30844979526
  20
 506.17826464305
  30
0.0
  11
 623.30844979526
  21
 344.67826464305
  31
0.0
  70
0
   1
\A1;（３２３）
   3
GMM005
 100
AcDbAlignedDimension
  13
 537.81386861314
  23
 183.17826464305
  33
0.0
  14
 623.30844979526
  24
 506.17826464305
  34
0.0
  50
 90.000000000000
 100
AcDbRotatedDimension
   0
INSERT
   5
371
 100
AcDbEntity
   8
0
 100
AcDbBlockReference
   2
BLOCK007
  10
0.0
  20
0.0
  30
0.0
   0
INSERT
   5
372
 100
AcDbEntity
   8
0
 100
AcDbBlockReference
   2
BLOCK008
  10
0.0
  20
0.0
  30
0.0
   0
INSERT
   5
373
 100
AcDbEntity
   8
0
 100
AcDbBlockReference
   2
BLOCK009
  10
0.0
  20
0.0
  30
0.0
   0
INSERT
   5
374
 100
AcDbEntity
   8
0
 100
AcDbBlockReference
   2
BLOCK010
  10
0.0
  20
0.0
  30
0.0
   0
INSERT
   5
375
 100
AcDbEntity
   8
0
 100
AcDbBlockReference
   2
BLOCK011
  10
0.0
  20
0.0
  30
0.0
   0
INSERT
   5
376
 100
AcDbEntity
   8
0
 100
AcDbBlockReference
   2
BLOCK012
  10
0.0
  20
0.0
  30
0.0
   0
INSERT
   5
377
 100
AcDbEntity
   8
0
 100
AcDbBlockReference
   2
BLOCK013
  10
0.0
  20
0.0
  30
0.0
   0
INSERT
   5
378
 100
AcDbEntity
   8
0
 100
AcDbBlockReference
   2
BLOCK014
  10
0.0
  20
0.0
  30
0.0
   0
LWPOLYLINE
   5
379
 100
AcDbEntity
   8
LEVEL001
 370
9
   6
DOT
  62
11
 100
AcDbPolyline
  90
4
  70
1
  10
 367.81386861314
  20
 1227.1678832117
  10
 501.81386861314
  20
 1227.1678832117
  10
 501.81386861314
  20
 1162.1678832117
  10
 367.81386861314
  20
 1162.1678832117
   0
INSERT
   5
37A
 100
AcDbEntity
   8
0
 100
AcDbBlockReference
   2
BLOCK015
  10
0.0
  20
0.0
  30
0.0
   0
INSERT
   5
37B
 100
AcDbEntity
   8
0
 100
AcDbBlockReference
   2
BLOCK016
  10
0.0
  20
0.0
  30
0.0
   0
INSERT
   5
37C
 100
AcDbEntity
   8
0
 100
AcDbBlockReference
   2
BLOCK017
  10
0.0
  20
0.0
  30
0.0
   0
INSERT
   5
37D
 100
AcDbEntity
   8
0
 100
AcDbBlockReference
   2
BLOCK018
  10
0.0
  20
0.0
  30
0.0
   0
CIRCLE
   5
37E
 100
AcDbEntity
   8
LEVEL001
 370
40
 100
AcDbCircle
   6
CONTINUOUS
  62
7
  10
 512.81386861314
  20
 1249.6678832117
  30
0.0
  40
 5.5000000000000
   0
LINE
   5
37F
 100
AcDbEntity
   8
LEVEL001
 370
25
 100
AcDbLine
   6
DASHDOT
  62
3
  10
 522.81386861314
  20
 1249.6678832117
  30
0.0
  11
 502.81386861314
  21
 1249.6678832117
  31
0.0
   0
LINE
   5
380
 100
AcDbEntity
   8
LEVEL001
 370
25
 100
AcDbLine
   6
DASHDOT
  62
3
  10
 512.81386861314
  20
 1239.6678832117
  30
0.0
  11
 512.81386861314
  21
 1259.6678832117
  31
0.0
   0
LINE
   5
381
 100
AcDbEntity
   8
LEVEL001
 370
25
 100
AcDbLine
   6
DASHDOT
  62
3
  10
 227.81386861314
  20
 718.90328712929
  30
0.0
  11
 227.81386861314
  21
 1256.0163244690
  31
0.0
   0
LWPOLYLINE
   5
382
 100
AcDbEntity
   8
LEVEL001
 370
40
   6
CONTINUOUS
  62
7
 100
AcDbPolyline
  90
4
  70
1
  10
 297.81386861314
  20
 1208.6678832117
  10
 717.81386861314
  20
 1208.6678832117
  10
 717.81386861314
  20
 1180.6678832117
  10
 297.81386861314
  20
 1180.6678832117
   0
CIRCLE
   5
383
 100
AcDbEntity
   8
LEVEL001
 370
40
 100
AcDbCircle
   6
CONTINUOUS
  62
7
  10
 32.813868613139
  20
 1249.6678832117
  30
0.0
  40
 5.5000000000000
   0
LINE
   5
384
 100
AcDbEntity
   8
LEVEL001
 370
25
 100
AcDbLine
   6
DASHDOT
  62
3
  10
 42.813868613139
  20
 1249.6678832117
  30
0.0
  11
 22.813868613139
  21
 1249.6678832117
  31
0.0
   0
LINE
   5
385
 100
AcDbEntity
   8
LEVEL001
 370
25
 100
AcDbLine
   6
DASHDOT
  62
3
  10
 32.813868613139
  20
 1239.6678832117
  30
0.0
  11
 32.813868613139
  21
 1259.6678832117
  31
0.0
   0
DIMENSION
   5
386
 100
AcDbEntity
   8
LEVEL001
 370
40
   6
CONTINUOUS
  62
7
 100
AcDbDimension
   2
*D7
  10
 512.81386861314
  20
 1330.7064714260
  30
0.0
  11
 272.81386861314
  21
 1330.7064714260
  31
0.0
  70
0
   3
GMM001
 100
AcDbAlignedDimension
  13
 32.813868613139
  23
 1259.6678832117
  33
0.0
  14
 512.81386861314
  24
 1259.6678832117
  34
0.0
 100
AcDbRotatedDimension
   0
DIMENSION
   5
387
 100
AcDbEntity
   8
LEVEL001
 370
40
   6
CONTINUOUS
  62
7
 100
AcDbDimension
   2
*D8
  10
 537.81386861314
  20
 1330.7064714260
  30
0.0
  11
 555.05482797757
  21
 1330.7064714260
  31
0.0
  70
128
   3
GMM006
 100
AcDbAlignedDimension
  13
 512.81386861314
  23
 1259.6678832117
  33
0.0
  14
 537.81386861314
  24
 1274.6678832117
  34
0.0
 100
AcDbRotatedDimension
   0
DIMENSION
   5
388
 100
AcDbEntity
   8
LEVEL001
 370
40
   6
CONTINUOUS
  62
7
 100
AcDbDimension
   2
*D9
  10
 537.81386861314
  20
 1371.9491276482
  30
0.0
  11
 272.81386861314
  21
 1371.9491276482
  31
0.0
  70
0
   3
GMM001
 100
AcDbAlignedDimension
  13
 7.8138686131388
  23
 1274.6678832117
  33
0.0
  14
 537.81386861314
  24
 1274.6678832117
  34
0.0
 100
AcDbRotatedDimension
   0
DIMENSION
   5
389
 100
AcDbEntity
   8
LEVEL001
 370
40
   6
CONTINUOUS
  62
7
 100
AcDbDimension
   2
*D10
  10
 717.81386861314
  20
 1371.9491276482
  30
0.0
  11
 627.81386861314
  21
 1371.9491276482
  31
0.0
  70
0
   3
GMM001
 100
AcDbAlignedDimension
  13
 537.81386861314
  23
 1274.6678832117
  33
0.0
  14
 717.81386861314
  24
 1208.6678832117
  34
0.0
 100
AcDbRotatedDimension
   0
LINE
   5
38A
 100
AcDbEntity
   8
LEVEL001
 370
25
 100
AcDbLine
   6
DASHDOT
  62
3
  10
 227.81386861314
  20
 1194.6678832117
  30
0.0
  11
 731.85453756454
  21
 1194.6678832117
  31
0.0
   0
INSERT
   5
38B
 100
AcDbEntity
   8
0
 100
AcDbBlockReference
   2
BLOCK019
  10
0.0
  20
0.0
  30
0.0
   0
INSERT
   5
38C
 100
AcDbEntity
   8
0
 100
AcDbBlockReference
   2
BLOCK020
  10
0.0
  20
0.0
  30
0.0
   0
INSERT
   5
38D
 100
AcDbEntity
   8
0
 100
AcDbBlockReference
   2
BLOCK021
  10
0.0
  20
0.0
  30
0.0
   0
LINE
   5
38E
 100
AcDbEntity
   8
LEVEL001
 370
25
 100
AcDbLine
   6
DASHDOT
  62
3
  10
 562.63911451843
  20
 954.66788321168
  30
0.0
  11
-56.702613635721
  21
 954.66788321168
  31
0.0
   0
DIMENSION
   5
38F
 100
AcDbEntity
   8
LEVEL001
 370
40
   6
CONTINUOUS
  62
7
 100
AcDbDimension
   2
*D11
  10
 621.59826753605
  20
 1194.6678832117
  30
0.0
  11
 621.59826753605
  21
 1234.6678832117
  31
0.0
  70
0
   3
GMM001
 100
AcDbAlignedDimension
  13
 537.81386861314
  23
 1274.6678832117
  33
0.0
  14
 621.59826753605
  24
 1194.6678832117
  34
0.0
  50
 270.00000000000
 100
AcDbRotatedDimension
   0
DIMENSION
   5
390
 100
AcDbEntity
   8
LEVEL001
 370
40
   6
CONTINUOUS
  62
7
 100
AcDbDimension
   2
*D12
  10
 621.59826753605
  20
 954.66788321168
  30
0.0
  11
 621.59826753605
  21
 1074.6678832117
  31
0.0
  70
0
   1
\A1;（２４０）
   3
GMM005
 100
AcDbAlignedDimension
  13
 621.59826753605
  23
 1194.6678832117
  33
0.0
  14
 562.63911451843
  24
 954.66788321168
  34
0.0
  50
 270.00000000000
 100
AcDbRotatedDimension
   0
CIRCLE
   5
392
 100
AcDbEntity
   8
LEVEL001
 370
40
 100
AcDbCircle
   6
CONTINUOUS
  62
7
  10
 512.81386861314
  20
 799.66788321168
  30
0.0
  40
 5.5000000000000
   0
LINE
   5
393
 100
AcDbEntity
   8
LEVEL001
 370
25
 100
AcDbLine
   6
DASHDOT
  62
3
  10
 522.81386861314
  20
 799.66788321168
  30
0.0
  11
 502.81386861314
  21
 799.66788321168
  31
0.0
   0
LINE
   5
394
 100
AcDbEntity
   8
LEVEL001
 370
25
 100
AcDbLine
   6
DASHDOT
  62
3
  10
 512.81386861314
  20
 789.66788321168
  30
0.0
  11
 512.81386861314
  21
 809.66788321168
  31
0.0
   0
CIRCLE
   5
395
 100
AcDbEntity
   8
LEVEL001
 370
40
 100
AcDbCircle
   6
CONTINUOUS
  62
7
  10
 32.813868613139
  20
 799.66788321168
  30
0.0
  40
 5.5000000000000
   0
LINE
   5
396
 100
AcDbEntity
   8
LEVEL001
 370
25
 100
AcDbLine
   6
DASHDOT
  62
3
  10
 42.813868613139
  20
 799.66788321168
  30
0.0
  11
 22.813868613139
  21
 799.66788321168
  31
0.0
   0
LINE
   5
397
 100
AcDbEntity
   8
LEVEL001
 370
25
 100
AcDbLine
   6
DASHDOT
  62
3
  10
 32.813868613139
  20
 789.66788321168
  30
0.0
  11
 32.813868613139
  21
 809.66788321168
  31
0.0
   0
DIMENSION
   5
398
 100
AcDbEntity
   8
LEVEL001
 370
40
   6
CONTINUOUS
  62
7
 100
AcDbDimension
   2
*D13
  10
-118.91726010326
  20
 774.66788321168
  30
0.0
  11
-118.91726010326
  21
 1024.6678832117
  31
0.0
  70
0
   3
GMM001
 100
AcDbAlignedDimension
  13
 7.8138686131388
  23
 1274.6678832117
  33
0.0
  14
 7.8138686131388
  24
 774.66788321168
  34
0.0
  50
 270.00000000000
 100
AcDbRotatedDimension
   0
DIMENSION
   5
399
 100
AcDbEntity
   8
LEVEL001
 370
40
   6
CONTINUOUS
  62
7
 100
AcDbDimension
   2
*D14
  10
-75.248954068008
  20
 1249.6678832117
  30
0.0
  11
-75.248954068008
  21
 1290.4618346092
  31
0.0
  70
128
   3
GMM007
 100
AcDbAlignedDimension
  13
 7.8138686131388
  23
 1274.6678832117
  33
0.0
  14
 22.813868613139
  24
 1249.6678832117
  34
0.0
  50
 270.00000000000
 100
AcDbRotatedDimension
   0
DIMENSION
   5
39A
 100
AcDbEntity
   8
LEVEL001
 370
40
   6
CONTINUOUS
  62
7
 100
AcDbDimension
   2
*D15
  10
-75.248954068008
  20
 799.66788321168
  30
0.0
  11
-75.248954068008
  21
 1024.6678832117
  31
0.0
  70
0
   3
GMM001
 100
AcDbAlignedDimension
  13
 22.813868613139
  23
 1249.6678832117
  33
0.0
  14
 22.813868613139
  24
 799.66788321168
  34
0.0
  50
 270.00000000000
 100
AcDbRotatedDimension
   0
LWPOLYLINE
   5
39B
 100
AcDbEntity
   8
LEVEL001
 370
40
   6
CONTINUOUS
  62
7
 100
AcDbPolyline
  90
4
  70
0
  10
 537.81386861314
  20
 1228.1678832117
  10
 537.81386861314
  20
 1274.6678832117
  10
 7.8138686131388
  20
 1274.6678832117
  10
 7.8138686131388
  20
 1062.2814414210
   0
LINE
   5
39C
 100
AcDbEntity
   8
LEVEL001
 370
25
 100
AcDbLine
   6
DOT
  62
3
  10
 7.8138686131388
  20
 897.05432500239
  30
0.0
  11
 7.8138686131388
  21
 1062.2814414210
  31
0.0
   0
LWPOLYLINE
   5
39D
 100
AcDbEntity
   8
LEVEL001
 370
40
   6
CONTINUOUS
  62
7
 100
AcDbPolyline
  90
3
  70
0
  10
 7.8138686131388
  20
 897.05432500239
  10
 7.8138686131388
  20
 774.66788321168
  10
 112.92261568238
  20
 774.66788321168
   0
LWPOLYLINE
   5
39E
 100
AcDbEntity
   8
LEVEL001
 370
40
   6
CONTINUOUS
  62
7
 100
AcDbPolyline
  90
3
  70
0
  10
 537.81386861314
  20
 1161.1678832117
  10
 537.81386861314
  20
 774.66788321168
  10
 333.17040614167
  20
 774.66788321168
   0
LINE
   5
39F
 100
AcDbEntity
   8
LEVEL001
 370
25
 100
AcDbLine
   6
DOT
  62
3
  10
 112.92261568238
  20
 774.66788321168
  30
0.0
  11
 333.17040614167
  21
 774.66788321168
  31
0.0
   0
LWPOLYLINE
   5
3A0
 100
AcDbEntity
   8
LEVEL001
 370
40
   6
CONTINUOUS
  62
7
 100
AcDbPolyline
  90
4
  70
1
  10
 862.22992700730
  20
 281.17826464305
  10
 797.22992700730
  20
 281.17826464305
  10
 797.22992700730
  20
 293.17826464305
  10
 862.22992700730
  20
 293.17826464305
   0
INSERT
   5
3A1
 100
AcDbEntity
   8
0
 100
AcDbBlockReference
   2
BLOCK022
  10
0.0
  20
0.0
  30
0.0
   0
INSERT
   5
3A2
 100
AcDbEntity
   8
0
 100
AcDbBlockReference
   2
BLOCK023
  10
0.0
  20
0.0
  30
0.0
   0
LWPOLYLINE
   5
3A3
 100
AcDbEntity
   8
LEVEL001
 370
40
   6
CONTINUOUS
  62
7
 100
AcDbPolyline
  90
4
  70
1
  10
 862.22992700730
  20
 199.17826464305
  10
 797.22992700730
  20
 199.17826464305
  10
 797.22992700730
  20
 211.17826464305
  10
 862.22992700730
  20
 211.17826464305
   0
LWPOLYLINE
   5
3A4
 100
AcDbEntity
   8
LEVEL001
 370
40
   6
CONTINUOUS
  62
7
 100
AcDbPolyline
  90
4
  70
0
  10
 748.21652464963
  20
 199.17826464305
  10
 909.72992700730
  20
 199.17826464305
  10
 909.72992700730
  20
 183.17826464305
  10
 748.21652464963
  20
 183.17826464305
   0
LINE
   5
3A5
 100
AcDbEntity
   8
LEVEL001
 370
40
 100
AcDbLine
   6
CONTINUOUS
  62
7
  10
 859.97992700730
  20
 281.17826464305
  30
0.0
  11
 859.97992700730
  21
 211.17826464305
  31
0.0
   0
LINE
   5
3A6
 100
AcDbEntity
   8
LEVEL001
 370
25
 100
AcDbLine
   6
DOT
  62
3
  10
 856.17992700730
  20
 281.17826464305
  30
0.0
  11
 856.17992700730
  21
 211.17826464305
  31
0.0
   0
LINE
   5
3A7
 100
AcDbEntity
   8
LEVEL001
 370
25
 100
AcDbLine
   6
DOT
  62
3
  10
 803.27992700730
  20
 281.17826464305
  30
0.0
  11
 803.27992700730
  21
 211.17826464305
  31
0.0
   0
LINE
   5
3A8
 100
AcDbEntity
   8
LEVEL001
 370
40
 100
AcDbLine
   6
CONTINUOUS
  62
7
  10
 799.47992700730
  20
 281.17826464305
  30
0.0
  11
 799.47992700730
  21
 211.17826464305
  31
0.0
   0
LWPOLYLINE
   5
3A9
 100
AcDbEntity
   8
LEVEL001
 370
40
   6
CONTINUOUS
  62
7
 100
AcDbPolyline
  90
8
  70
1
  10
 863.22992700730
  20
 441.17826464305
  10
 863.22992700730
  20
 479.17826464305
  10
 796.22992700730
  20
 479.17826464305
  10
 796.22992700730
  20
 441.17826464305
  10
 799.72992700730
  20
 441.17826464305
  10
 799.72992700730
  20
 475.67826464305
  10
 859.72992700730
  20
 475.67826464305
  10
 859.72992700730
  20
 441.17826464305
   0
LWPOLYLINE
   5
3AA
 100
AcDbEntity
   8
LEVEL001
 370
40
   6
CONTINUOUS
  62
7
 100
AcDbPolyline
  90
4
  70
1
  10
 863.22992700730
  20
 359.17826464305
  10
 859.72992700730
  20
 359.17826464305
  10
 859.72992700730
  20
 435.17826464305
  10
 863.22992700730
  20
 435.17826464305
   0
LWPOLYLINE
   5
3AB
 100
AcDbEntity
   8
LEVEL001
 370
40
   6
CONTINUOUS
  62
7
 100
AcDbPolyline
  90
4
  70
1
  10
 799.72992700730
  20
 359.17826464305
  10
 796.22992700730
  20
 359.17826464305
  10
 796.22992700730
  20
 435.17826464305
  10
 799.72992700730
  20
 435.17826464305
   0
LINE
   5
3AC
 100
AcDbEntity
   8
LEVEL001
 370
40
 100
AcDbLine
   6
CONTINUOUS
  62
7
  10
 859.72992700730
  20
 460.17826464305
  30
0.0
  11
 799.72992700730
  21
 460.17826464305
  31
0.0
   0
LINE
   5
3AD
 100
AcDbEntity
   8
LEVEL001
 370
40
 100
AcDbLine
   6
CONTINUOUS
  62
7
  10
 859.72992700730
  20
 441.17826464305
  30
0.0
  11
 854.72992700730
  21
 441.17826464305
  31
0.0
   0
LINE
   5
3AE
 100
AcDbEntity
   8
LEVEL001
 370
40
 100
AcDbLine
   6
CONTINUOUS
  62
7
  10
 804.72992700730
  20
 441.17826464305
  30
0.0
  11
 799.72992700730
  21
 441.17826464305
  31
0.0
   0
LINE
   5
3AF
 100
AcDbEntity
   8
LEVEL001
 370
40
 100
AcDbLine
   6
CONTINUOUS
  62
7
  10
 859.72992700730
  20
 435.17826464305
  30
0.0
  11
 854.72992700730
  21
 435.17826464305
  31
0.0
   0
LINE
   5
3B0
 100
AcDbEntity
   8
LEVEL001
 370
40
 100
AcDbLine
   6
CONTINUOUS
  62
7
  10
 804.72992700730
  20
 435.17826464305
  30
0.0
  11
 799.72992700730
  21
 435.17826464305
  31
0.0
   0
LWPOLYLINE
   5
3B1
 100
AcDbEntity
   8
LEVEL001
 370
40
   6
CONTINUOUS
  62
7
 100
AcDbPolyline
  90
4
  70
0
  10
 804.72992700730
  20
 391.17826464305
  10
 804.72992700730
  20
 457.17826464305
  10
 854.72992700730
  20
 457.17826464305
  10
 854.72992700730
  20
 391.17826464305
   0
LWPOLYLINE
   5
3B2
 100
AcDbEntity
   8
LEVEL001
 370
40
   6
CONTINUOUS
  62
7
 100
AcDbPolyline
  90
4
  70
1
  10
 862.22992700730
  20
 479.17826464305
  10
 797.22992700730
  20
 479.17826464305
  10
 797.22992700730
  20
 491.17826464305
  10
 862.22992700730
  20
 491.17826464305
   0
LINE
   5
3B3
 100
AcDbEntity
   8
LEVEL001
 370
25
 100
AcDbLine
   6
DASHDOT
  62
3
  10
 829.72992700730
  20
 514.72023544597
  30
0.0
  11
 829.72992700730
  21
 172.42271230194
  31
0.0
   0
LWPOLYLINE
   5
3B4
 100
AcDbEntity
   8
LEVEL001
 370
40
   6
CONTINUOUS
  62
7
 100
AcDbPolyline
  90
4
  70
0
  10
 843.72992700730
  20
 491.17826464305
  10
 843.72992700730
  20
 506.17826464305
  10
 815.72992700730
  20
 506.17826464305
  10
 815.72992700730
  20
 491.17826464305
   0
LINE
   5
3B5
 100
AcDbEntity
   8
LEVEL001
 370
40
 100
AcDbLine
   6
CONTINUOUS
  62
7
  10
 859.72992700730
  20
 375.17826464305
  30
0.0
  11
 799.72992700730
  21
 375.17826464305
  31
0.0
   0
LINE
   5
3B6
 100
AcDbEntity
   8
LEVEL001
 370
40
 100
AcDbLine
   6
CONTINUOUS
  62
7
  10
 859.72992700730
  20
 359.17826464305
  30
0.0
  11
 799.72992700730
  21
 359.17826464305
  31
0.0
   0
LINE
   5
3B7
 100
AcDbEntity
   8
LEVEL001
 370
40
 100
AcDbLine
   6
CONTINUOUS
  62
7
  10
 859.72992700730
  20
 391.17826464305
  30
0.0
  11
 799.72992700730
  21
 391.17826464305
  31
0.0
   0
LINE
   5
3B8
 100
AcDbEntity
   8
LEVEL001
 370
40
 100
AcDbLine
   6
CONTINUOUS
  62
7
  10
 859.72992700730
  20
 407.17826464305
  30
0.0
  11
 854.72992700730
  21
 407.17826464305
  31
0.0
   0
LINE
   5
3B9
 100
AcDbEntity
   8
LEVEL001
 370
40
 100
AcDbLine
   6
CONTINUOUS
  62
7
  10
 804.72992700730
  20
 407.17826464305
  30
0.0
  11
 799.72992700730
  21
 407.17826464305
  31
0.0
   0
INSERT
   5
3BA
 100
AcDbEntity
   8
0
 100
AcDbBlockReference
   2
BLOCK024
  10
0.0
  20
0.0
  30
0.0
   0
INSERT
   5
3BB
 100
AcDbEntity
   8
0
 100
AcDbBlockReference
   2
BLOCK025
  10
0.0
  20
0.0
  30
0.0
   0
LWPOLYLINE
   5
3BC
 100
AcDbEntity
   8
LEVEL001
 370
40
   6
CONTINUOUS
  62
7
 100
AcDbPolyline
  90
4
  70
1
  10
 862.22992700730
  20
 334.17826464305
  10
 797.22992700730
  20
 334.17826464305
  10
 797.22992700730
  20
 343.17826464305
  10
 862.22992700730
  20
 343.17826464305
   0
INSERT
   5
3BD
 100
AcDbEntity
   8
0
 100
AcDbBlockReference
   2
BLOCK026
  10
0.0
  20
0.0
  30
0.0
   0
INSERT
   5
3BE
 100
AcDbEntity
   8
0
 100
AcDbBlockReference
   2
BLOCK027
  10
0.0
  20
0.0
  30
0.0
   0
MTEXT
   5
3BF
 100
AcDbEntity
   8
LEVEL001
 370
40
  62
7
 100
AcDbMText
  10
 643.08614588251
  20
-64.496591314075
  30
0.0
  40
 18.000000000000
  41
0.0
  71
7
  72
1
   1
ＳＴ４Ｒｄ５／ＳＨ１５
   7
GMM002
   0
LEADER
   5
3C0
 100
AcDbEntity
   8
LEVEL001
 370
40
   6
CONTINUOUS
  62
3
 100
AcDbLeader
   3
GMM008
  73
0
  74
0
  75
0
  40
 15.000000000000
  41
 168.00000000000
  76
2
  10
 29.614272081320
  20
 1256.8000886398
  30
0.0
  10
-57.197911603237
  20
 1414.7243802362
  30
0.0
  77
3
 340
3C2
 213
0.0
 223
-6.4285714285713
 233
0.0
   0
MTEXT
   5
3C2
 102
{ACAD_REACTORS
 330
3C1
 102
}
 100
AcDbEntity
   8
LEVEL001
 370
40
  62
7
 100
AcDbMText
  10
-57.197911603237
  20
 1421.1529516648
  30
0.0
  40
 15.000000000000
  41
0.0
  71
7
  72
1
   1
\A1;４－φ１１取付穴
   7
GMM003
   0
ENDSEC
  0
SECTION
  2
OBJECTS
  0
DICTIONARY
  5
C
100
AcDbDictionary
  3
ACAD_GROUP
350
D
  3
ACAD_MLINESTYLE
350
1B
  0
DICTIONARY
  5
D
102
{ACAD_REACTORS
330
C
102
}
100
AcDbDictionary
  0
DICTIONARY
  5
1B
102
{ACAD_REACTORS
330
C
102
}
100
AcDbDictionary
  3
STANDARD
350
1C
  0
MLINESTYLE
  5
1C
102
{ACAD_REACTORS
330
1B
102
}
100
AcDbMlineStyle
  2
STANDARD
 70
     0
  3

 62
   256
 51
90.0
 52
90.0
 71
     2
 49
0.5
 62
   256
  6
BYLAYER
 49
-0.5
 62
   256
  6
BYLAYER
  0
ENDSEC
   0
EOF
