   0
SECTION
   2
HEADER
   9
$ACADVER
   1
AC1015
   9
$DWGCODEPAGE
   3
ANSI_932
   9
$LIMMIN
  10
-210.00000000000
  20
-148.50000000000
   9
$LIMMAX
  10
 840.00000000000
  20
 1336.5000000000
   9
$EXTMIN
  10
-210.00000000000
  20
-148.50000000000
  30
0.0
   9
$EXTMAX
  10
 840.00000000000
  20
 1336.5000000000
  30
0.0
   9
$LTSCALE
  40
 29.700000000000
   9
$HANDSEED
   5
39E
   0
ENDSEC
   0
SECTION
   2
TABLES
  0
TABLE
  2
VPORT
  5
8
100
AcDbSymbolTable
 70
     1
  0
VPORT
  5
39D
100
AcDbSymbolTableRecord
100
AcDbViewportTableRecord
  2
*ACTIVE
 70
     0
 10
0.0
 20
0.0
 11
1.0
 21
1.0
  12
 315.00000000000
  22
 594.00000000000
 13
0.0
 23
0.0
 14
1.0
 24
1.0
 15
0.0
 25
0.0
 16
0.0
 26
0.0
 36
1.0
 17
0.0
 27
0.0
 37
0.0
  40
 1485.0000000000
  41
 1.4787878787879
 42
50.0
 43
0.0
 44
0.0
 50
0.0
 51
0.0
 71
     0
 72
   100
 73
     1
 74
     1
 75
     0
 76
     0
 77
     0
 78
     0
  0
ENDTAB
  0
TABLE
  2
LTYPE
  5
5
100
AcDbSymbolTable
 70
    25
  0
LTYPE
  5
12
100
AcDbSymbolTableRecord
100
AcDbLinetypeTableRecord
  2
BYBLOCK
 70
     0
  3

 72
    65
 73
     0
 40
0.0
  0
LTYPE
  5
13
100
AcDbSymbolTableRecord
100
AcDbLinetypeTableRecord
  2
BYLAYER
 70
     0
  3

 72
    65
 73
     0
 40
0.0
  0
LTYPE
  5
14
100
AcDbSymbolTableRecord
100
AcDbLinetypeTableRecord
  2
CONTINUOUS
 70
     0
  3
Solid line
 72
    65
 73
     0
 40
0.0
  0
LTYPE
  5
20
100
AcDbSymbolTableRecord
100
AcDbLinetypeTableRecord
  2
BORDER
 70
     0
  3
__ __ . __ __ . __ __ . __ __ . __ __ . __ __ .
 72
    65
 73
     6
 40
1.75
 49
0.5
 74
     0
 49
-0.25
 74
     0
 49
0.5
 74
     0
 49
-0.25
 74
     0
 49
0.0
 74
     0
 49
-0.25
 74
     0
  0
LTYPE
  5
21
100
AcDbSymbolTableRecord
100
AcDbLinetypeTableRecord
  2
BORDER2
 70
     0
  3
__.__.__.__.__.__.__.__.__.__.__.__.__.__.__.__
 72
    65
 73
     6
 40
0.875
 49
0.25
 74
     0
 49
-0.125
 74
     0
 49
0.25
 74
     0
 49
-0.125
 74
     0
 49
0.0
 74
     0
 49
-0.125
 74
     0
  0
LTYPE
  5
22
100
AcDbSymbolTableRecord
100
AcDbLinetypeTableRecord
  2
BORDERX2
 70
     0
  3
____  ____  .  ____  ____  .  ____  ____  .  __
 72
    65
 73
     6
 40
3.5
 49
1.0
 74
     0
 49
-0.5
 74
     0
 49
1.0
 74
     0
 49
-0.5
 74
     0
 49
0.0
 74
     0
 49
-0.5
 74
     0
  0
LTYPE
  5
23
100
AcDbSymbolTableRecord
100
AcDbLinetypeTableRecord
  2
CENTER
 70
     0
  3
____ _ ____ _ ____ _ ____ _ ____ _ ____ _ ____ 
 72
    65
 73
     4
 40
2.0
 49
1.25
 74
     0
 49
-0.25
 74
     0
 49
0.25
 74
     0
 49
-0.25
 74
     0
  0
LTYPE
  5
24
100
AcDbSymbolTableRecord
100
AcDbLinetypeTableRecord
  2
CENTER2
 70
     0
  3
___ _ ___ _ ___ _ ___ _ ___ _ ___ _ ___ _ ___ _
 72
    65
 73
     4
 40
1.125
 49
0.75
 74
     0
 49
-0.125
 74
     0
 49
0.125
 74
     0
 49
-0.125
 74
     0
  0
LTYPE
  5
25
100
AcDbSymbolTableRecord
100
AcDbLinetypeTableRecord
  2
CENTERX2
 70
     0
  3
________  __  ________  __  ________  __  _____
 72
    65
 73
     4
 40
4.0
 49
2.5
 74
     0
 49
-0.5
 74
     0
 49
0.5
 74
     0
 49
-0.5
 74
     0
  0
LTYPE
  5
26
100
AcDbSymbolTableRecord
100
AcDbLinetypeTableRecord
  2
DASHDOT
 70
     0
  3
__ . __ . __ . __ . __ . __ . __ . __ . __ . __
 72
    65
 73
     4
 40
1.0
 49
0.5
 74
     0
 49
-0.25
 74
     0
 49
0.0
 74
     0
 49
-0.25
 74
     0
  0
LTYPE
  5
27
100
AcDbSymbolTableRecord
100
AcDbLinetypeTableRecord
  2
DASHDOT2
 70
     0
  3
_._._._._._._._._._._._._._._._._._._._._._._._
 72
    65
 73
     4
 40
0.5
 49
0.25
 74
     0
 49
-0.125
 74
     0
 49
0.0
 74
     0
 49
-0.125
 74
     0
  0
LTYPE
  5
28
100
AcDbSymbolTableRecord
100
AcDbLinetypeTableRecord
  2
DASHDOTX2
 70
     0
  3
____  .  ____  .  ____  .  ____  .  ____  .  __
 72
    65
 73
     4
 40
2.0
 49
1.0
 74
     0
 49
-0.5
 74
     0
 49
0.0
 74
     0
 49
-0.5
 74
     0
  0
LTYPE
  5
29
100
AcDbSymbolTableRecord
100
AcDbLinetypeTableRecord
  2
DASHED
 70
     0
  3
__ __ __ __ __ __ __ __ __ __ __ __ __ __ __ __
 72
    65
 73
     2
 40
0.75
 49
0.5
 74
     0
 49
-0.25
 74
     0
  0
LTYPE
  5
2A
100
AcDbSymbolTableRecord
100
AcDbLinetypeTableRecord
  2
DASHED2
 70
     0
  3
_ _ _ _ _ _ _ _ _ _ _ _ _ _ _ _ _ _ _ _ _ _ _ _
 72
    65
 73
     2
 40
0.375
 49
0.25
 74
     0
 49
-0.125
 74
     0
  0
LTYPE
  5
2B
100
AcDbSymbolTableRecord
100
AcDbLinetypeTableRecord
  2
DASHEDX2
 70
     0
  3
____  ____  ____  ____  ____  ____  ____  ____ 
 72
    65
 73
     2
 40
1.5
 49
1.0
 74
     0
 49
-0.5
 74
     0
  0
LTYPE
  5
2C
100
AcDbSymbolTableRecord
100
AcDbLinetypeTableRecord
  2
DIVIDE
 70
     0
  3
____ . . ____ . . ____ . . ____ . . ____ . . __
 72
    65
 73
     6
 40
1.25
 49
0.5
 74
     0
 49
-0.25
 74
     0
 49
0.0
 74
     0
 49
-0.25
 74
     0
 49
0.0
 74
     0
 49
-0.25
 74
     0
  0
LTYPE
  5
2D
100
AcDbSymbolTableRecord
100
AcDbLinetypeTableRecord
  2
DIVIDE2
 70
     0
  3
__..__..__..__..__..__..__..__..__..__..__..__.
 72
    65
 73
     6
 40
0.625
 49
0.25
 74
     0
 49
-0.125
 74
     0
 49
0.0
 74
     0
 49
-0.125
 74
     0
 49
0.0
 74
     0
 49
-0.125
 74
     0
  0
LTYPE
  5
2E
100
AcDbSymbolTableRecord
100
AcDbLinetypeTableRecord
  2
DIVIDEX2
 70
     0
  3
________  .  .  ________  .  .  ________  .  . 
 72
    65
 73
     6
 40
2.5
 49
1.0
 74
     0
 49
-0.5
 74
     0
 49
0.0
 74
     0
 49
-0.5
 74
     0
 49
0.0
 74
     0
 49
-0.5
 74
     0
  0
LTYPE
  5
2F
100
AcDbSymbolTableRecord
100
AcDbLinetypeTableRecord
  2
DOT
 70
     0
  3
. . . . . . . . . . . . . . . . . . . . . . . .
 72
    65
 73
     2
 40
0.25
 49
0.0
 74
     0
 49
-0.25
 74
     0
  0
LTYPE
  5
30
100
AcDbSymbolTableRecord
100
AcDbLinetypeTableRecord
  2
DOT2
 70
     0
  3
...............................................
 72
    65
 73
     2
 40
0.125
 49
0.0
 74
     0
 49
-0.125
 74
     0
  0
LTYPE
  5
31
100
AcDbSymbolTableRecord
100
AcDbLinetypeTableRecord
  2
DOTX2
 70
     0
  3
.  .  .  .  .  .  .  .  .  .  .  .  .  .  .  . 
 72
    65
 73
     2
 40
0.5
 49
0.0
 74
     0
 49
-0.5
 74
     0
  0
LTYPE
  5
32
100
AcDbSymbolTableRecord
100
AcDbLinetypeTableRecord
  2
HIDDEN
 70
     0
  3
__ __ __ __ __ __ __ __ __ __ __ __ __ __ __ __
 72
    65
 73
     2
 40
0.375
 49
0.25
 74
     0
 49
-0.125
 74
     0
  0
LTYPE
  5
33
100
AcDbSymbolTableRecord
100
AcDbLinetypeTableRecord
  2
HIDDEN2
 70
     0
  3
_ _ _ _ _ _ _ _ _ _ _ _ _ _ _ _ _ _ _ _ _ _ _ _
 72
    65
 73
     2
 40
0.1875
 49
0.125
 74
     0
 49
-0.0625
 74
     0
  0
LTYPE
  5
34
100
AcDbSymbolTableRecord
100
AcDbLinetypeTableRecord
  2
HIDDENX2
 70
     0
  3
____ ____ ____ ____ ____ ____ ____ ____ ____ __
 72
    65
 73
     2
 40
0.75
 49
0.5
 74
     0
 49
-0.25
 74
     0
  0
LTYPE
  5
35
100
AcDbSymbolTableRecord
100
AcDbLinetypeTableRecord
  2
PHANTOM
 70
     0
  3
______  __  __  ______  __  __  ______  __  __ 
 72
    65
 73
     6
 40
2.5
 49
1.25
 74
     0
 49
-0.25
 74
     0
 49
0.25
 74
     0
 49
-0.25
 74
     0
 49
0.25
 74
     0
 49
-0.25
 74
     0
  0
LTYPE
  5
36
100
AcDbSymbolTableRecord
100
AcDbLinetypeTableRecord
  2
PHANTOM2
 70
     0
  3
___ _ _ ___ _ _ ___ _ _ ___ _ _ ___ _ _ ___ _ _
 72
    65
 73
     6
 40
1.25
 49
0.625
 74
     0
 49
-0.125
 74
     0
 49
0.125
 74
     0
 49
-0.125
 74
     0
 49
0.125
 74
     0
 49
-0.125
 74
     0
  0
LTYPE
  5
37
100
AcDbSymbolTableRecord
100
AcDbLinetypeTableRecord
  2
PHANTOMX2
 70
     0
  3
____________    ____    ____    ____________   
 72
    65
 73
     6
 40
5.0
 49
2.5
 74
     0
 49
-0.5
 74
     0
 49
0.5
 74
     0
 49
-0.5
 74
     0
 49
0.5
 74
     0
 49
-0.5
 74
     0
  0
ENDTAB
   0
TABLE
   2
LAYER
   5
2
 100
AcDbSymbolTable
  70
2
   0
LAYER
   5
E
 100
AcDbSymbolTableRecord
 100
AcDbLayerTableRecord
   2
0
  70
0
  62
7
   6
CONTINUOUS
 390
30
   0
LAYER
   5
39
 100
AcDbSymbolTableRecord
 100
AcDbLayerTableRecord
   2
LEVEL001
  70
0
  62
7
   6
CONTINUOUS
 390
30
   0
ENDTAB
  0
TABLE
  2
STYLE
  5
3
100
AcDbSymbolTable
  70
5
  0
STYLE
  5
F
100
AcDbSymbolTableRecord
100
AcDbTextStyleTableRecord
  2
STANDARD
 70
     0
 40
0.0
 41
1.0
 50
0.0
 71
     0
 42
0.2
  3
TXT
  4
BIGFONT
  0
STYLE
  5
38
100
AcDbSymbolTableRecord
100
AcDbTextStyleTableRecord
  2
STANDARD1
 70
     4
 40
0.0
 41
1.0
 50
0.0
 71
     0
 42
0.2
  3
TXT
  4
BIGFONT
   0
STYLE
   5
3A
 100
AcDbSymbolTableRecord
 100
AcDbTextStyleTableRecord
   2
GMM001
  70
4
  40
0.0
  41
 1.0000000000000
  50
0.0
  71
     0
  42
1.0
   3

   4

1001
ACAD
1000
ＭＳ 明朝
1071
32785
   0
STYLE
   5
3B
 100
AcDbSymbolTableRecord
 100
AcDbTextStyleTableRecord
   2
GMM002
  70
0
  40
0.0
  41
 1.0000000000000
  50
0.0
  71
     0
  42
1.0
   3

   4

1001
ACAD
1000
ＭＳ 明朝
1071
32785
   0
STYLE
   5
3C
 100
AcDbSymbolTableRecord
 100
AcDbTextStyleTableRecord
   2
GMM003
  70
0
  40
0.0
  41
 1.0000000000000
  50
0.0
  71
     0
  42
1.0
   3

   4

1001
ACAD
1000
ＭＳ ゴシック
1071
32817
   0
ENDTAB
  0
TABLE
  2
VIEW
  5
6
100
AcDbSymbolTable
 70
     0
  0
ENDTAB
  0
TABLE
  2
UCS
  5
7
100
AcDbSymbolTable
 70
     0
  0
ENDTAB
  0
TABLE
  2
APPID
  5
9
100
AcDbSymbolTable
 70
     1
  0
APPID
  5
10
100
AcDbSymbolTableRecord
100
AcDbRegAppTableRecord
  2
ACAD
 70
     0
  0
ENDTAB
   0
TABLE
   2
DIMSTYLE
   5
A
 100
AcDbSymbolTable
  70
9
 100
AcDbDimStyleTable
  0
DIMSTYLE
105
1D
100
AcDbSymbolTableRecord
100
AcDbDimStyleTableRecord
  2
STANDARD
 70
     0
  3

  4

  5

  6

  7

 40
1.0
 41
0.18
 42
0.0625
 43
0.38
 44
0.18
 45
0.0
 46
0.0
 47
0.0
 48
0.0
140
0.18
141
0.09
142
0.0
143
25.4
144
1.0
145
0.0
146
1.0
147
0.09
 71
     0
 72
     0
 73
     1
 74
     1
 75
     0
 76
     0
 77
     0
 78
     0
170
     0
171
     2
172
     0
173
     0
174
     0
175
     0
176
     0
177
     0
178
     0
270
     2
271
     4
272
     4
273
     2
274
     2
340
F
275
     0
280
     0
281
     0
282
     0
283
     1
284
     0
285
     0
286
     0
287
     3
288
     0
   0
DIMSTYLE
 105
3D
 100
AcDbSymbolTableRecord
 100
AcDbDimStyleTableRecord
   2
GMM001
  70
0
   3

   4

   5

   6
_OPEN30
   7
_OPEN30
  40
 1.0000000000000
  41
 10.000000000000
  42
 5.0000000000000
  43
 40.000000000000
  44
 10.000000000000
  45
0.0
  46
0.0
  47
0.0
  48
0.0
 140
 12.500000000000
 141
 5.0000000000000
 142
0.0
 143
 0.39400000000000E-1
 144
 1.0000000000000
 145
0.0
 146
 1.0000000000000
 147
 5.3571428571429
  71
0
  72
0
  73
0
  74
0
  75
0
  76
0
  77
3
  78
8
 170
0
 171
2
 172
1
 173
1
 174
0
 175
0
 176
3
 177
3
 178
7
 270
2
 271
6
 272
0
 273
2
 274
2
 340
3C
 275
0
 280
0
 281
0
 282
0
 283
1
 284
0
 285
0
 286
0
 287
3
 288
0
   0
DIMSTYLE
 105
3E
 100
AcDbSymbolTableRecord
 100
AcDbDimStyleTableRecord
   2
GMM002
  70
0
   3

   4

   5

   6
_OPEN30
   7
_OPEN30
  40
 1.0000000000000
  41
 10.000000000000
  42
 5.0000000000000
  43
 40.000000000000
  44
 10.000000000000
  45
0.0
  46
0.0
  47
0.0
  48
0.0
 140
 12.500000000000
 141
 5.0000000000000
 142
0.0
 143
 0.39400000000000E-1
 144
 1.0000000000000
 145
0.0
 146
 1.0000000000000
 147
0.0
  71
0
  72
0
  73
0
  74
0
  75
0
  76
0
  77
1
  78
8
 170
0
 171
2
 172
1
 173
1
 174
0
 175
0
 176
3
 177
3
 178
7
 270
2
 271
6
 272
0
 273
2
 274
2
 340
3C
 275
0
 280
0
 281
0
 282
0
 283
1
 284
0
 285
0
 286
0
 287
3
 288
0
   0
DIMSTYLE
 105
3F
 100
AcDbSymbolTableRecord
 100
AcDbDimStyleTableRecord
   2
GMM003
  70
0
   3

   4

   5

   6
_NONE
   7
_OPEN30
  40
 1.0000000000000
  41
 10.000000000000
  42
 5.0000000000000
  43
 40.000000000000
  44
 10.000000000000
  45
0.0
  46
0.0
  47
0.0
  48
0.0
 140
 12.500000000000
 141
 5.0000000000000
 142
0.0
 143
 0.39400000000000E-1
 144
 1.0000000000000
 145
0.0
 146
 1.0000000000000
 147
 5.8593070219861
  71
0
  72
0
  73
0
  74
0
  75
0
  76
0
  77
3
  78
8
 170
0
 171
2
 172
1
 173
1
 174
0
 175
0
 176
3
 177
3
 178
7
 270
2
 271
6
 272
0
 273
2
 274
2
 340
3C
 275
0
 280
0
 281
0
 282
0
 283
1
 284
0
 285
0
 286
0
 287
3
 288
1
   0
DIMSTYLE
 105
40
 100
AcDbSymbolTableRecord
 100
AcDbDimStyleTableRecord
   2
GMM004
  70
0
   3

   4

   5

   6
_OPEN30
   7
_OPEN30
  40
 1.0000000000000
  41
 10.000000000000
  42
 5.0000000000000
  43
 40.000000000000
  44
 10.000000000000
  45
0.0
  46
0.0
  47
0.0
  48
0.0
 140
 12.500000000000
 141
 5.0000000000000
 142
0.0
 143
 0.39400000000000E-1
 144
 1.0000000000000
 145
0.0
 146
 1.0000000000000
 147
 5.3921688623821
  71
0
  72
0
  73
0
  74
0
  75
0
  76
0
  77
3
  78
8
 170
0
 171
2
 172
1
 173
1
 174
0
 175
0
 176
3
 177
3
 178
7
 270
2
 271
6
 272
0
 273
2
 274
2
 340
3C
 275
0
 280
0
 281
0
 282
0
 283
1
 284
0
 285
0
 286
0
 287
3
 288
1
   0
DIMSTYLE
 105
41
 100
AcDbSymbolTableRecord
 100
AcDbDimStyleTableRecord
   2
GMM005
  70
0
   3
（<>
   4

   5

   6
_OPEN30
   7
_OPEN30
  40
 1.0000000000000
  41
 10.000000000000
  42
 5.0000000000000
  43
 40.000000000000
  44
 10.000000000000
  45
0.0
  46
0.0
  47
0.0
  48
0.0
 140
 12.500000000000
 141
 5.0000000000000
 142
0.0
 143
 0.39400000000000E-1
 144
 1.0000000000000
 145
0.0
 146
 1.0000000000000
 147
 5.3571428571429
  71
0
  72
0
  73
0
  74
0
  75
0
  76
0
  77
3
  78
8
 170
0
 171
2
 172
1
 173
1
 174
0
 175
0
 176
3
 177
3
 178
7
 270
2
 271
6
 272
0
 273
2
 274
2
 340
3C
 275
0
 280
0
 281
0
 282
0
 283
1
 284
0
 285
0
 286
0
 287
3
 288
0
   0
DIMSTYLE
 105
42
 100
AcDbSymbolTableRecord
 100
AcDbDimStyleTableRecord
   2
GMM006
  70
0
   3

   4

   5

   6
_OPEN30
   7
_OPEN30
  40
 1.0000000000000
  41
 10.000000000000
  42
 5.0000000000000
  43
 40.000000000000
  44
 10.000000000000
  45
0.0
  46
0.0
  47
0.0
  48
0.0
 140
 12.500000000000
 141
 5.0000000000000
 142
0.0
 143
 0.39400000000000E-1
 144
 1.0000000000000
 145
0.0
 146
 1.0000000000000
 147
 5.4567094615847
  71
0
  72
0
  73
0
  74
0
  75
0
  76
0
  77
3
  78
8
 170
0
 171
2
 172
1
 173
1
 174
0
 175
0
 176
3
 177
3
 178
7
 270
2
 271
6
 272
0
 273
2
 274
2
 340
3C
 275
0
 280
0
 281
0
 282
0
 283
1
 284
0
 285
0
 286
0
 287
3
 288
1
   0
DIMSTYLE
 105
43
 100
AcDbSymbolTableRecord
 100
AcDbDimStyleTableRecord
   2
GMM007
  70
0
   3
φ<>
   4

   5

   6
_OPEN30
   7
_OPEN30
  40
 1.0000000000000
  41
 10.000000000000
  42
 5.0000000000000
  43
 40.000000000000
  44
 10.000000000000
  45
0.0
  46
0.0
  47
0.0
  48
0.0
 140
 12.500000000000
 141
 5.0000000000000
 142
0.0
 143
 0.39400000000000E-1
 144
 1.0000000000000
 145
0.0
 146
 1.0000000000000
 147
 5.3571428571429
  71
0
  72
0
  73
0
  74
0
  75
0
  76
0
  77
3
  78
8
 170
0
 171
2
 172
1
 173
1
 174
0
 175
0
 176
3
 177
3
 178
7
 270
2
 271
6
 272
0
 273
2
 274
2
 340
3C
 275
0
 280
0
 281
0
 282
0
 283
1
 284
0
 285
0
 286
0
 287
3
 288
0
   0
ENDTAB
  0
TABLE
  2
BLOCK_RECORD
  5
1
100
AcDbSymbolTable
 70
     0
  0
BLOCK_RECORD
  5
18
100
AcDbSymbolTableRecord
100
AcDbBlockTableRecord
  2
*MODEL_SPACE
  0
BLOCK_RECORD
  5
15
100
AcDbSymbolTableRecord
100
AcDbBlockTableRecord
  2
*PAPER_SPACE
   0
BLOCK_RECORD
   5
44
 100
AcDbSymbolTableRecord
 100
AcDbBlockTableRecord
   2
BLOCK001
   0
BLOCK_RECORD
   5
45
 100
AcDbSymbolTableRecord
 100
AcDbBlockTableRecord
   2
BLOCK002
   0
BLOCK_RECORD
   5
46
 100
AcDbSymbolTableRecord
 100
AcDbBlockTableRecord
   2
*D1
   0
BLOCK_RECORD
   5
47
 100
AcDbSymbolTableRecord
 100
AcDbBlockTableRecord
   2
*D2
   0
BLOCK_RECORD
   5
48
 100
AcDbSymbolTableRecord
 100
AcDbBlockTableRecord
   2
BLOCK003
   0
BLOCK_RECORD
   5
49
 100
AcDbSymbolTableRecord
 100
AcDbBlockTableRecord
   2
BLOCK004
   0
BLOCK_RECORD
   5
4A
 100
AcDbSymbolTableRecord
 100
AcDbBlockTableRecord
   2
BLOCK005
   0
BLOCK_RECORD
   5
4B
 100
AcDbSymbolTableRecord
 100
AcDbBlockTableRecord
   2
BLOCK006
   0
BLOCK_RECORD
   5
4C
 100
AcDbSymbolTableRecord
 100
AcDbBlockTableRecord
   2
*D4
   0
BLOCK_RECORD
   5
4D
 100
AcDbSymbolTableRecord
 100
AcDbBlockTableRecord
   2
*D5
   0
BLOCK_RECORD
   5
4E
 100
AcDbSymbolTableRecord
 100
AcDbBlockTableRecord
   2
BLOCK007
   0
BLOCK_RECORD
   5
4F
 100
AcDbSymbolTableRecord
 100
AcDbBlockTableRecord
   2
*D6
   0
BLOCK_RECORD
   5
50
 100
AcDbSymbolTableRecord
 100
AcDbBlockTableRecord
   2
*D7
   0
BLOCK_RECORD
   5
51
 100
AcDbSymbolTableRecord
 100
AcDbBlockTableRecord
   2
*D8
   0
BLOCK_RECORD
   5
52
 100
AcDbSymbolTableRecord
 100
AcDbBlockTableRecord
   2
BLOCK008
   0
BLOCK_RECORD
   5
53
 100
AcDbSymbolTableRecord
 100
AcDbBlockTableRecord
   2
BLOCK009
   0
BLOCK_RECORD
   5
54
 100
AcDbSymbolTableRecord
 100
AcDbBlockTableRecord
   2
*D9
   0
BLOCK_RECORD
   5
55
 100
AcDbSymbolTableRecord
 100
AcDbBlockTableRecord
   2
*D10
   0
BLOCK_RECORD
   5
56
 100
AcDbSymbolTableRecord
 100
AcDbBlockTableRecord
   2
*D11
   0
BLOCK_RECORD
   5
57
 100
AcDbSymbolTableRecord
 100
AcDbBlockTableRecord
   2
BLOCK010
   0
BLOCK_RECORD
   5
58
 100
AcDbSymbolTableRecord
 100
AcDbBlockTableRecord
   2
BLOCK011
   0
BLOCK_RECORD
   5
59
 100
AcDbSymbolTableRecord
 100
AcDbBlockTableRecord
   2
BLOCK012
   0
BLOCK_RECORD
   5
5A
 100
AcDbSymbolTableRecord
 100
AcDbBlockTableRecord
   2
BLOCK013
   0
BLOCK_RECORD
   5
5B
 100
AcDbSymbolTableRecord
 100
AcDbBlockTableRecord
   2
BLOCK014
   0
BLOCK_RECORD
   5
5C
 100
AcDbSymbolTableRecord
 100
AcDbBlockTableRecord
   2
BLOCK015
   0
BLOCK_RECORD
   5
5D
 100
AcDbSymbolTableRecord
 100
AcDbBlockTableRecord
   2
BLOCK016
   0
BLOCK_RECORD
   5
5E
 100
AcDbSymbolTableRecord
 100
AcDbBlockTableRecord
   2
*D12
   0
BLOCK_RECORD
   5
5F
 100
AcDbSymbolTableRecord
 100
AcDbBlockTableRecord
   2
*D13
   0
BLOCK_RECORD
   5
60
 100
AcDbSymbolTableRecord
 100
AcDbBlockTableRecord
   2
BLOCK017
   0
BLOCK_RECORD
   5
61
 100
AcDbSymbolTableRecord
 100
AcDbBlockTableRecord
   2
*D14
   0
BLOCK_RECORD
   5
62
 100
AcDbSymbolTableRecord
 100
AcDbBlockTableRecord
   2
BLOCK018
   0
BLOCK_RECORD
   5
63
 100
AcDbSymbolTableRecord
 100
AcDbBlockTableRecord
   2
BLOCK019
   0
BLOCK_RECORD
   5
64
 100
AcDbSymbolTableRecord
 100
AcDbBlockTableRecord
   2
BLOCK020
   0
BLOCK_RECORD
   5
65
 100
AcDbSymbolTableRecord
 100
AcDbBlockTableRecord
   2
BLOCK021
   0
BLOCK_RECORD
   5
66
 100
AcDbSymbolTableRecord
 100
AcDbBlockTableRecord
   2
BLOCK022
   0
BLOCK_RECORD
   5
67
 100
AcDbSymbolTableRecord
 100
AcDbBlockTableRecord
   2
*D15
   0
BLOCK_RECORD
   5
68
 100
AcDbSymbolTableRecord
 100
AcDbBlockTableRecord
   2
_ARCHTICK
   0
BLOCK_RECORD
   5
69
 100
AcDbSymbolTableRecord
 100
AcDbBlockTableRecord
   2
_BOXBLANK
   0
BLOCK_RECORD
   5
6A
 100
AcDbSymbolTableRecord
 100
AcDbBlockTableRecord
   2
_BOXFILLED
   0
BLOCK_RECORD
   5
6B
 100
AcDbSymbolTableRecord
 100
AcDbBlockTableRecord
   2
_CLOSED
   0
BLOCK_RECORD
   5
6C
 100
AcDbSymbolTableRecord
 100
AcDbBlockTableRecord
   2
_CLOSEDBLANK
   0
BLOCK_RECORD
   5
6D
 100
AcDbSymbolTableRecord
 100
AcDbBlockTableRecord
   2
_DATUMBLANK
   0
BLOCK_RECORD
   5
6E
 100
AcDbSymbolTableRecord
 100
AcDbBlockTableRecord
   2
_DATUMFILLED
   0
BLOCK_RECORD
   5
6F
 100
AcDbSymbolTableRecord
 100
AcDbBlockTableRecord
   2
_DOT
   0
BLOCK_RECORD
   5
70
 100
AcDbSymbolTableRecord
 100
AcDbBlockTableRecord
   2
_DOTBLANK
   0
BLOCK_RECORD
   5
71
 100
AcDbSymbolTableRecord
 100
AcDbBlockTableRecord
   2
_DOTSMALL
   0
BLOCK_RECORD
   5
72
 100
AcDbSymbolTableRecord
 100
AcDbBlockTableRecord
   2
_INTEGRAL
   0
BLOCK_RECORD
   5
73
 100
AcDbSymbolTableRecord
 100
AcDbBlockTableRecord
   2
_NONE
   0
BLOCK_RECORD
   5
74
 100
AcDbSymbolTableRecord
 100
AcDbBlockTableRecord
   2
_OBLIQUE
   0
BLOCK_RECORD
   5
75
 100
AcDbSymbolTableRecord
 100
AcDbBlockTableRecord
   2
_OPEN
   0
BLOCK_RECORD
   5
76
 100
AcDbSymbolTableRecord
 100
AcDbBlockTableRecord
   2
_OPEN30
   0
BLOCK_RECORD
   5
77
 100
AcDbSymbolTableRecord
 100
AcDbBlockTableRecord
   2
_OPEN90
   0
BLOCK_RECORD
   5
78
 100
AcDbSymbolTableRecord
 100
AcDbBlockTableRecord
   2
_ORIGIN
   0
ENDTAB
   0
ENDSEC
  0
SECTION
  2
BLOCKS
  0
BLOCK
  5
19
100
AcDbEntity
  8
0
100
AcDbBlockBegin
  2
*MODEL_SPACE
 70
     0
 10
0.0
 20
0.0
 30
0.0
  3
*MODEL_SPACE
  1

  0
ENDBLK
  5
1A
100
AcDbEntity
  8
0
100
AcDbBlockEnd
  0
BLOCK
  5
16
100
AcDbEntity
 67
     1
  8
0
100
AcDbBlockBegin
  2
*PAPER_SPACE
 70
     0
 10
0.0
 20
0.0
 30
0.0
  3
*PAPER_SPACE
  1

  0
ENDBLK
  5
17
100
AcDbEntity
 67
     1
  8
0
100
AcDbBlockEnd
   0
BLOCK
   5
79
 100
AcDbEntity
   8
0
 100
AcDbBlockBegin
   2
_ARCHTICK
  70
0
  10
0.0
  20
0.0
  30
0.0
   3
_ARCHTICK
   0
POLYLINE
   5
7A
 100
AcDbEntity
   8
0
 370
-2
   6
BYBLOCK
  62
0
 100
AcDb2dPolyline
  66
1
  10
0.0
  20
0.0
  30
0.0
  70
1
  40
 0.15000000000000
  41
 0.15000000000000
   0
VERTEX
   5
7B
 100
AcDbEntity
   8
0
   6
BYBLOCK
  62
0
 100
AcDbVertex
 100
AcDb2dVertex
  10
-0.50000000000000
  20
-0.50000000000000
  30
0.0
  40
 0.15000000000000
  41
 0.15000000000000
   0
VERTEX
   5
7C
 100
AcDbEntity
   8
0
   6
BYBLOCK
  62
0
 100
AcDbVertex
 100
AcDb2dVertex
  10
 0.50000000000000
  20
 0.50000000000000
  30
0.0
  40
 0.15000000000000
  41
 0.15000000000000
   0
SEQEND
   5
7D
 100
AcDbEntity
   8
0
   6
BYBLOCK
  62
0
   0
ENDBLK
   5
7E
 100
AcDbEntity
   8
0
 100
AcDbBlockEnd
   0
BLOCK
   5
7F
 100
AcDbEntity
   8
0
 100
AcDbBlockBegin
   2
_OBLIQUE
  70
0
  10
0.0
  20
0.0
  30
0.0
   3
_OBLIQUE
   0
LINE
   5
80
 100
AcDbEntity
   8
0
 370
-2
 100
AcDbLine
   6
BYBLOCK
  62
0
  10
-0.50000000000000
  20
-0.50000000000000
  30
0.0
  11
 0.50000000000000
  21
 0.50000000000000
  31
0.0
   0
ENDBLK
   5
81
 100
AcDbEntity
   8
0
 100
AcDbBlockEnd
   0
BLOCK
   5
82
 100
AcDbEntity
   8
0
 100
AcDbBlockBegin
   2
_BOXBLANK
  70
0
  10
0.0
  20
0.0
  30
0.0
   3
_BOXBLANK
   0
LINE
   5
83
 100
AcDbEntity
   8
0
 370
-2
 100
AcDbLine
   6
BYBLOCK
  62
0
  10
-0.50000000000000
  20
-0.50000000000000
  30
0.0
  11
 0.50000000000000
  21
-0.50000000000000
  31
0.0
   0
LINE
   5
84
 100
AcDbEntity
   8
0
 370
-2
 100
AcDbLine
   6
BYBLOCK
  62
0
  10
 0.50000000000000
  20
-0.50000000000000
  30
0.0
  11
 0.50000000000000
  21
 0.50000000000000
  31
0.0
   0
LINE
   5
85
 100
AcDbEntity
   8
0
 370
-2
 100
AcDbLine
   6
BYBLOCK
  62
0
  10
 0.50000000000000
  20
 0.50000000000000
  30
0.0
  11
-0.50000000000000
  21
 0.50000000000000
  31
0.0
   0
LINE
   5
86
 100
AcDbEntity
   8
0
 370
-2
 100
AcDbLine
   6
BYBLOCK
  62
0
  10
-0.50000000000000
  20
 0.50000000000000
  30
0.0
  11
-0.50000000000000
  21
-0.50000000000000
  31
0.0
   0
LINE
   5
87
 100
AcDbEntity
   8
0
 370
-2
 100
AcDbLine
   6
BYBLOCK
  62
0
  10
-0.50000000000000
  20
0.0
  30
0.0
  11
-1.0000000000000
  21
0.0
  31
0.0
   0
ENDBLK
   5
88
 100
AcDbEntity
   8
0
 100
AcDbBlockEnd
   0
BLOCK
   5
89
 100
AcDbEntity
   8
0
 100
AcDbBlockBegin
   2
_BOXFILLED
  70
0
  10
0.0
  20
0.0
  30
0.0
   3
_BOXFILLED
   0
SOLID
   5
8A
 100
AcDbEntity
   8
0
 100
AcDbTrace
   6
BYBLOCK
  62
0
  10
-0.50000000000000
  20
 0.50000000000000
  30
0.0
  11
 0.50000000000000
  21
 0.50000000000000
  31
0.0
  12
-0.50000000000000
  22
-0.50000000000000
  32
0.0
  13
 0.50000000000000
  23
-0.50000000000000
  33
0.0
   0
LINE
   5
8B
 100
AcDbEntity
   8
0
 370
-2
 100
AcDbLine
   6
BYBLOCK
  62
0
  10
-0.50000000000000
  20
0.0
  30
0.0
  11
-1.0000000000000
  21
0.0
  31
0.0
   0
ENDBLK
   5
8C
 100
AcDbEntity
   8
0
 100
AcDbBlockEnd
   0
BLOCK
   5
8D
 100
AcDbEntity
   8
0
 100
AcDbBlockBegin
   2
_CLOSED
  70
0
  10
0.0
  20
0.0
  30
0.0
   3
_CLOSED
   0
LINE
   5
8E
 100
AcDbEntity
   8
0
 370
-2
 100
AcDbLine
   6
BYBLOCK
  62
0
  10
-1.0000000000000
  20
 0.16666666666667
  30
0.0
  11
0.0
  21
0.0
  31
0.0
   0
LINE
   5
8F
 100
AcDbEntity
   8
0
 370
-2
 100
AcDbLine
   6
BYBLOCK
  62
0
  10
0.0
  20
0.0
  30
0.0
  11
-1.0000000000000
  21
-0.16666666666667
  31
0.0
   0
LINE
   5
90
 100
AcDbEntity
   8
0
 370
-2
 100
AcDbLine
   6
BYBLOCK
  62
0
  10
-1.0000000000000
  20
 0.16666666666667
  30
0.0
  11
-1.0000000000000
  21
-0.16666666666667
  31
0.0
   0
LINE
   5
91
 100
AcDbEntity
   8
0
 370
-2
 100
AcDbLine
   6
BYBLOCK
  62
0
  10
0.0
  20
0.0
  30
0.0
  11
-1.0000000000000
  21
0.0
  31
0.0
   0
ENDBLK
   5
92
 100
AcDbEntity
   8
0
 100
AcDbBlockEnd
   0
BLOCK
   5
93
 100
AcDbEntity
   8
0
 100
AcDbBlockBegin
   2
_OPEN
  70
0
  10
0.0
  20
0.0
  30
0.0
   3
_OPEN
   0
LINE
   5
94
 100
AcDbEntity
   8
0
 370
-2
 100
AcDbLine
   6
BYBLOCK
  62
0
  10
-1.0000000000000
  20
 0.16666666666667
  30
0.0
  11
0.0
  21
0.0
  31
0.0
   0
LINE
   5
95
 100
AcDbEntity
   8
0
 370
-2
 100
AcDbLine
   6
BYBLOCK
  62
0
  10
0.0
  20
0.0
  30
0.0
  11
-1.0000000000000
  21
-0.16666666666667
  31
0.0
   0
LINE
   5
96
 100
AcDbEntity
   8
0
 370
-2
 100
AcDbLine
   6
BYBLOCK
  62
0
  10
0.0
  20
0.0
  30
0.0
  11
-1.0000000000000
  21
0.0
  31
0.0
   0
ENDBLK
   5
97
 100
AcDbEntity
   8
0
 100
AcDbBlockEnd
   0
BLOCK
   5
98
 100
AcDbEntity
   8
0
 100
AcDbBlockBegin
   2
_OPEN30
  70
0
  10
0.0
  20
0.0
  30
0.0
   3
_OPEN30
   0
LINE
   5
99
 100
AcDbEntity
   8
0
 370
-2
 100
AcDbLine
   6
BYBLOCK
  62
0
  10
-1.0000000000000
  20
 0.26794919243110
  30
0.0
  11
0.0
  21
0.0
  31
0.0
   0
LINE
   5
9A
 100
AcDbEntity
   8
0
 370
-2
 100
AcDbLine
   6
BYBLOCK
  62
0
  10
0.0
  20
0.0
  30
0.0
  11
-1.0000000000000
  21
-0.26794919243110
  31
0.0
   0
LINE
   5
9B
 100
AcDbEntity
   8
0
 370
-2
 100
AcDbLine
   6
BYBLOCK
  62
0
  10
0.0
  20
0.0
  30
0.0
  11
-1.0000000000000
  21
0.0
  31
0.0
   0
ENDBLK
   5
9C
 100
AcDbEntity
   8
0
 100
AcDbBlockEnd
   0
BLOCK
   5
9D
 100
AcDbEntity
   8
0
 100
AcDbBlockBegin
   2
_OPEN90
  70
0
  10
0.0
  20
0.0
  30
0.0
   3
_OPEN90
   0
LINE
   5
9E
 100
AcDbEntity
   8
0
 370
-2
 100
AcDbLine
   6
BYBLOCK
  62
0
  10
-0.50000000000000
  20
 0.50000000000000
  30
0.0
  11
0.0
  21
0.0
  31
0.0
   0
LINE
   5
9F
 100
AcDbEntity
   8
0
 370
-2
 100
AcDbLine
   6
BYBLOCK
  62
0
  10
0.0
  20
0.0
  30
0.0
  11
-0.50000000000000
  21
-0.50000000000000
  31
0.0
   0
LINE
   5
A0
 100
AcDbEntity
   8
0
 370
-2
 100
AcDbLine
   6
BYBLOCK
  62
0
  10
0.0
  20
0.0
  30
0.0
  11
-1.0000000000000
  21
0.0
  31
0.0
   0
ENDBLK
   5
A1
 100
AcDbEntity
   8
0
 100
AcDbBlockEnd
   0
BLOCK
   5
A2
 100
AcDbEntity
   8
0
 100
AcDbBlockBegin
   2
_CLOSEDBLANK
  70
0
  10
0.0
  20
0.0
  30
0.0
   3
_CLOSEDBLANK
   0
LINE
   5
A3
 100
AcDbEntity
   8
0
 370
-2
 100
AcDbLine
   6
BYBLOCK
  62
0
  10
-1.0000000000000
  20
 0.16666666666667
  30
0.0
  11
0.0
  21
0.0
  31
0.0
   0
LINE
   5
A4
 100
AcDbEntity
   8
0
 370
-2
 100
AcDbLine
   6
BYBLOCK
  62
0
  10
0.0
  20
0.0
  30
0.0
  11
-1.0000000000000
  21
-0.16666666666667
  31
0.0
   0
LINE
   5
A5
 100
AcDbEntity
   8
0
 370
-2
 100
AcDbLine
   6
BYBLOCK
  62
0
  10
-1.0000000000000
  20
 0.16666666666667
  30
0.0
  11
-1.0000000000000
  21
-0.16666666666667
  31
0.0
   0
ENDBLK
   5
A6
 100
AcDbEntity
   8
0
 100
AcDbBlockEnd
   0
BLOCK
   5
A7
 100
AcDbEntity
   8
0
 100
AcDbBlockBegin
   2
_DOT
  70
0
  10
0.0
  20
0.0
  30
0.0
   3
_DOT
   0
POLYLINE
   5
A8
 100
AcDbEntity
   8
0
 370
-2
   6
BYBLOCK
  62
0
 100
AcDb2dPolyline
  66
1
  10
0.0
  20
0.0
  30
0.0
  70
1
  40
 0.50000000000000
  41
 0.50000000000000
   0
VERTEX
   5
A9
 100
AcDbEntity
   8
0
   6
BYBLOCK
  62
0
 100
AcDbVertex
 100
AcDb2dVertex
  10
-0.25000000000000
  20
0.0
  30
0.0
  42
 1.0000000000000
  40
 0.50000000000000
  41
 0.50000000000000
   0
VERTEX
   5
AA
 100
AcDbEntity
   8
0
   6
BYBLOCK
  62
0
 100
AcDbVertex
 100
AcDb2dVertex
  10
 0.25000000000000
  20
0.0
  30
0.0
  42
 1.0000000000000
  40
 0.50000000000000
  41
 0.50000000000000
   0
SEQEND
   5
AB
 100
AcDbEntity
   8
0
   6
BYBLOCK
  62
0
   0
LINE
   5
AC
 100
AcDbEntity
   8
0
 370
-2
 100
AcDbLine
   6
BYBLOCK
  62
0
  10
-0.50000000000000
  20
0.0
  30
0.0
  11
-1.0000000000000
  21
0.0
  31
0.0
   0
ENDBLK
   5
AD
 100
AcDbEntity
   8
0
 100
AcDbBlockEnd
   0
BLOCK
   5
AE
 100
AcDbEntity
   8
0
 100
AcDbBlockBegin
   2
_DOTSMALL
  70
0
  10
0.0
  20
0.0
  30
0.0
   3
_DOTSMALL
   0
POLYLINE
   5
AF
 100
AcDbEntity
   8
0
 370
-2
   6
BYBLOCK
  62
0
 100
AcDb2dPolyline
  66
1
  10
0.0
  20
0.0
  30
0.0
  70
1
  40
 0.50000000000000
  41
 0.50000000000000
   0
VERTEX
   5
B0
 100
AcDbEntity
   8
0
   6
BYBLOCK
  62
0
 100
AcDbVertex
 100
AcDb2dVertex
  10
-0.62500000000000E-1
  20
0.0
  30
0.0
  42
 1.0000000000000
  40
 0.50000000000000
  41
 0.50000000000000
   0
VERTEX
   5
B1
 100
AcDbEntity
   8
0
   6
BYBLOCK
  62
0
 100
AcDbVertex
 100
AcDb2dVertex
  10
 0.62500000000000E-1
  20
0.0
  30
0.0
  42
 1.0000000000000
  40
 0.50000000000000
  41
 0.50000000000000
   0
SEQEND
   5
B2
 100
AcDbEntity
   8
0
   6
BYBLOCK
  62
0
   0
ENDBLK
   5
B3
 100
AcDbEntity
   8
0
 100
AcDbBlockEnd
   0
BLOCK
   5
B4
 100
AcDbEntity
   8
0
 100
AcDbBlockBegin
   2
_DATUMBLANK
  70
0
  10
0.0
  20
0.0
  30
0.0
   3
_DATUMBLANK
   0
LINE
   5
B5
 100
AcDbEntity
   8
0
 370
-2
 100
AcDbLine
   6
BYBLOCK
  62
0
  10
0.0
  20
 0.57735027000000
  30
0.0
  11
-1.0000000000000
  21
0.0
  31
0.0
   0
LINE
   5
B6
 100
AcDbEntity
   8
0
 370
-2
 100
AcDbLine
   6
BYBLOCK
  62
0
  10
-1.0000000000000
  20
0.0
  30
0.0
  11
0.0
  21
-0.57735027000000
  31
0.0
   0
LINE
   5
B7
 100
AcDbEntity
   8
0
 370
-2
 100
AcDbLine
   6
BYBLOCK
  62
0
  10
0.0
  20
-0.57735027000000
  30
0.0
  11
0.0
  21
 0.57735027000000
  31
0.0
   0
ENDBLK
   5
B8
 100
AcDbEntity
   8
0
 100
AcDbBlockEnd
   0
BLOCK
   5
B9
 100
AcDbEntity
   8
0
 100
AcDbBlockBegin
   2
_DATUMFILLED
  70
0
  10
0.0
  20
0.0
  30
0.0
   3
_DATUMFILLED
   0
SOLID
   5
BA
 100
AcDbEntity
   8
0
 100
AcDbTrace
   6
BYBLOCK
  62
0
  10
0.0
  20
 0.57735027000000
  30
0.0
  11
-1.0000000000000
  21
0.0
  31
0.0
  12
0.0
  22
-0.57735027000000
  32
0.0
  13
0.0
  23
-0.57735027000000
  33
0.0
   0
ENDBLK
   5
BB
 100
AcDbEntity
   8
0
 100
AcDbBlockEnd
   0
BLOCK
   5
BC
 100
AcDbEntity
   8
0
 100
AcDbBlockBegin
   2
_ORIGIN
  70
0
  10
0.0
  20
0.0
  30
0.0
   3
_ORIGIN
   0
CIRCLE
   5
BD
 100
AcDbEntity
   8
0
 370
-2
 100
AcDbCircle
   6
BYBLOCK
  62
0
  10
0.0
  20
0.0
  30
0.0
  40
 0.50000000000000
   0
LINE
   5
BE
 100
AcDbEntity
   8
0
 370
-2
 100
AcDbLine
   6
BYBLOCK
  62
0
  10
0.0
  20
0.0
  30
0.0
  11
-1.0000000000000
  21
0.0
  31
0.0
   0
ENDBLK
   5
BF
 100
AcDbEntity
   8
0
 100
AcDbBlockEnd
   0
BLOCK
   5
C0
 100
AcDbEntity
   8
0
 100
AcDbBlockBegin
   2
_NONE
  70
0
  10
0.0
  20
0.0
  30
0.0
   3
_NONE
   0
CIRCLE
   5
C1
 100
AcDbEntity
   8
0
 370
-2
 100
AcDbCircle
   6
BYBLOCK
  62
0
  10
0.0
  20
0.0
  30
0.0
  40
 0.25000000000000
   0
ENDBLK
   5
C2
 100
AcDbEntity
   8
0
 100
AcDbBlockEnd
   0
BLOCK
   5
C3
 100
AcDbEntity
   8
0
 100
AcDbBlockBegin
   2
_DOTBLANK
  70
0
  10
0.0
  20
0.0
  30
0.0
   3
_DOTBLANK
   0
CIRCLE
   5
C4
 100
AcDbEntity
   8
0
 370
-2
 100
AcDbCircle
   6
BYBLOCK
  62
0
  10
0.0
  20
0.0
  30
0.0
  40
 0.50000000000000
   0
LINE
   5
C5
 100
AcDbEntity
   8
0
 370
-2
 100
AcDbLine
   6
BYBLOCK
  62
0
  10
-0.50000000000000
  20
0.0
  30
0.0
  11
-1.0000000000000
  21
0.0
  31
0.0
   0
ENDBLK
   5
C6
 100
AcDbEntity
   8
0
 100
AcDbBlockEnd
   0
BLOCK
   5
C7
 100
AcDbEntity
   8
0
 100
AcDbBlockBegin
   2
_INTEGRAL
  70
0
  10
0.0
  20
0.0
  30
0.0
   3
_INTEGRAL
   0
ARC
   5
C8
 100
AcDbEntity
   8
0
 370
-2
   6
BYBLOCK
  62
0
 100
AcDbCircle
  10
 0.44488800000000
  20
-0.91335000000000E-1
  30
0.0
  40
 0.45416700000000
 100
AcDbArc
  50
 102.00000000000
  51
 168.00000000000
   0
ARC
   5
C9
 100
AcDbEntity
   8
0
 370
-2
   6
BYBLOCK
  62
0
 100
AcDbCircle
  10
-0.44488800000000
  20
 0.91335000000000E-1
  30
0.0
  40
 0.45416700000000
 100
AcDbArc
  50
 282.00000000000
  51
 348.00000000000
   0
ENDBLK
   5
CA
 100
AcDbEntity
   8
0
 100
AcDbBlockEnd
   0
BLOCK
   5
CB
 100
AcDbEntity
   8
0
 100
AcDbBlockBegin
   2
BLOCK001
  70
64
  10
0.0
  20
0.0
  30
0.0
   3
BLOCK001
   0
MTEXT
   5
CC
 100
AcDbEntity
   8
LEVEL001
 370
40
  62
7
 100
AcDbMText
  10
 583.85731005453
  20
-137.12427635286
  30
0.0
  40
 20.000000000000
  41
0.0
  71
7
  72
1
   1
シマテック
   7
GMM003
   0
MTEXT
   5
CD
 100
AcDbEntity
   8
LEVEL001
 370
40
  62
7
 100
AcDbMText
  10
 585.16548604000
  20
-137.12427635286
  30
0.0
  40
 20.000000000000
  41
0.0
  71
7
  72
1
   1
シマテック
   7
GMM003
   0
MTEXT
   5
CE
 100
AcDbEntity
   8
LEVEL001
 370
40
  62
7
 100
AcDbMText
  10
 466.92540294078
  20
-135.33242771435
  30
0.0
  40
 15.000000000000
  41
0.0
  71
7
  72
1
   1
株式会社
   7
GMM003
   0
ENDBLK
   5
CF
 100
AcDbEntity
   8
0
 100
AcDbBlockEnd
   0
BLOCK
   5
D0
 100
AcDbEntity
   8
0
 100
AcDbBlockBegin
   2
BLOCK002
  70
64
  10
0.0
  20
0.0
  30
0.0
   3
BLOCK002
   0
CIRCLE
   5
D1
 100
AcDbEntity
   8
LEVEL001
 370
9
 100
AcDbCircle
   6
DOT
  62
11
  10
 328.59906213365
  20
 755.76729191090
  30
0.0
  40
 20.800000000000
   0
CIRCLE
   5
D2
 100
AcDbEntity
   8
LEVEL001
 370
9
 100
AcDbCircle
   6
DOT
  62
11
  10
 328.59906213365
  20
 755.76729191090
  30
0.0
  40
 24.300000000000
   0
ENDBLK
   5
D3
 100
AcDbEntity
   8
0
 100
AcDbBlockEnd
   0
BLOCK
   5
D4
 100
AcDbEntity
   8
0
 100
AcDbBlockBegin
   2
*D1
  70
65
  10
0.0
  20
0.0
  30
0.0
   3
*D1
   0
LINE
   5
D5
 100
AcDbEntity
   8
LEVEL001
 370
25
 100
AcDbLine
   6
CONTINUOUS
  62
3
  10
 8.5990621336462
  20
 680.76729191090
  30
0.0
  11
 8.5990621336462
  21
 592.89240443253
  31
0.0
   0
LINE
   5
D6
 100
AcDbEntity
   8
LEVEL001
 370
25
 100
AcDbLine
   6
CONTINUOUS
  62
3
  10
 8.5990621336462
  20
 602.89240443253
  30
0.0
  11
 208.59906213365
  21
 602.89240443253
  31
0.0
   0
LINE
   5
D7
 100
AcDbEntity
   8
LEVEL001
 370
25
 100
AcDbLine
   6
CONTINUOUS
  62
3
  10
 408.59906213365
  20
 602.89240443253
  30
0.0
  11
 208.59906213365
  21
 602.89240443253
  31
0.0
   0
INSERT
   5
D8
 100
AcDbEntity
   8
LEVEL001
   6
CONTINUOUS
  62
3
 100
AcDbBlockReference
   2
_OPEN30
  10
 8.5990621336462
  20
 602.89240443253
  30
0.0
  41
 10.000000000000
  42
 10.000000000000
  43
 10.000000000000
  50
 180.00000000000
   0
INSERT
   5
D9
 100
AcDbEntity
   8
LEVEL001
   6
CONTINUOUS
  62
3
 100
AcDbBlockReference
   2
_OPEN30
  10
 408.59906213365
  20
 602.89240443253
  30
0.0
  41
 10.000000000000
  42
 10.000000000000
  43
 10.000000000000
  50
0.0
   0
MTEXT
   5
DA
 100
AcDbEntity
   8
LEVEL001
 370
40
  62
7
 100
AcDbMText
  10
 208.59906213365
  20
 608.24954728968
  30
0.0
  40
 12.500000000000
  41
0.0
  71
8
  72
1
   1
\A1;４００
   7
GMM003
   0
ENDBLK
   5
DB
 100
AcDbEntity
   8
0
 100
AcDbBlockEnd
   0
BLOCK
   5
DC
 100
AcDbEntity
   8
0
 100
AcDbBlockBegin
   2
*D2
  70
65
  10
0.0
  20
0.0
  30
0.0
   3
*D2
   0
LINE
   5
DD
 100
AcDbEntity
   8
LEVEL001
 370
25
 100
AcDbLine
   6
CONTINUOUS
  62
3
  10
 408.59906213365
  20
 680.76729191090
  30
0.0
  11
 408.59906213365
  21
 592.89240443253
  31
0.0
   0
LINE
   5
DE
 100
AcDbEntity
   8
LEVEL001
 370
25
 100
AcDbLine
   6
CONTINUOUS
  62
3
  10
 518.59906213365
  20
 742.76729191090
  30
0.0
  11
 518.59906213365
  21
 592.89240443253
  31
0.0
   0
LINE
   5
DF
 100
AcDbEntity
   8
LEVEL001
 370
25
 100
AcDbLine
   6
CONTINUOUS
  62
3
  10
 408.59906213365
  20
 602.89240443253
  30
0.0
  11
 463.59906213365
  21
 602.89240443253
  31
0.0
   0
LINE
   5
E0
 100
AcDbEntity
   8
LEVEL001
 370
25
 100
AcDbLine
   6
CONTINUOUS
  62
3
  10
 518.59906213365
  20
 602.89240443253
  30
0.0
  11
 463.59906213365
  21
 602.89240443253
  31
0.0
   0
INSERT
   5
E1
 100
AcDbEntity
   8
LEVEL001
   6
CONTINUOUS
  62
3
 100
AcDbBlockReference
   2
_OPEN30
  10
 408.59906213365
  20
 602.89240443253
  30
0.0
  41
 10.000000000000
  42
 10.000000000000
  43
 10.000000000000
  50
 180.00000000000
   0
INSERT
   5
E2
 100
AcDbEntity
   8
LEVEL001
   6
CONTINUOUS
  62
3
 100
AcDbBlockReference
   2
_OPEN30
  10
 518.59906213365
  20
 602.89240443253
  30
0.0
  41
 10.000000000000
  42
 10.000000000000
  43
 10.000000000000
  50
0.0
   0
MTEXT
   5
E3
 100
AcDbEntity
   8
LEVEL001
 370
40
  62
7
 100
AcDbMText
  10
 463.59906213365
  20
 608.24954728968
  30
0.0
  40
 12.500000000000
  41
0.0
  71
8
  72
1
   1
\A1;１１０
   7
GMM003
   0
ENDBLK
   5
E4
 100
AcDbEntity
   8
0
 100
AcDbBlockEnd
   0
BLOCK
   5
E5
 100
AcDbEntity
   8
0
 100
AcDbBlockBegin
   2
BLOCK003
  70
64
  10
0.0
  20
0.0
  30
0.0
   3
BLOCK003
   0
LINE
   5
E6
 100
AcDbEntity
   8
LEVEL001
 370
9
 100
AcDbLine
   6
DOT
  62
11
  10
 284.09906213364
  20
 775.26729191090
  30
0.0
  11
 291.09906213364
  21
 775.26729191090
  31
0.0
   0
LINE
   5
E7
 100
AcDbEntity
   8
LEVEL001
 370
9
 100
AcDbLine
   6
DOT
  62
11
  10
 284.09906213364
  20
 766.26729191090
  30
0.0
  11
 291.09906213364
  21
 766.26729191090
  31
0.0
   0
ARC
   5
E8
 100
AcDbEntity
   8
LEVEL001
 370
9
   6
DOT
  62
11
 100
AcDbCircle
  10
 284.09906213364
  20
 770.76729191090
  30
0.0
  40
 4.5000000000000
 100
AcDbArc
  50
 90.000000000000
  51
 270.00000000000
   0
ARC
   5
E9
 100
AcDbEntity
   8
LEVEL001
 370
9
   6
DOT
  62
11
 100
AcDbCircle
  10
 291.09906213364
  20
 770.76729191090
  30
0.0
  40
 4.5000000000000
 100
AcDbArc
  50
 270.00000000000
  51
 90.000000000000
   0
LINE
   5
EA
 100
AcDbEntity
   8
LEVEL001
 370
9
 100
AcDbLine
   6
DASHDOT
  62
11
  10
 287.59906213364
  20
 777.51568531439
  30
0.0
  11
 287.59906213364
  21
 764.79321011923
  31
0.0
   0
LINE
   5
EB
 100
AcDbEntity
   8
LEVEL001
 370
9
 100
AcDbLine
   6
DASHDOT
  62
11
  10
 298.39928480542
  20
 770.76729191090
  30
0.0
  11
 276.94569918223
  21
 770.76729191090
  31
0.0
   0
ENDBLK
   5
EC
 100
AcDbEntity
   8
0
 100
AcDbBlockEnd
   0
BLOCK
   5
ED
 100
AcDbEntity
   8
0
 100
AcDbBlockBegin
   2
BLOCK004
  70
64
  10
0.0
  20
0.0
  30
0.0
   3
BLOCK004
   0
LINE
   5
EE
 100
AcDbEntity
   8
LEVEL001
 370
9
 100
AcDbLine
   6
DOT
  62
11
  10
 284.09906213364
  20
 745.26729191090
  30
0.0
  11
 291.09906213364
  21
 745.26729191090
  31
0.0
   0
LINE
   5
EF
 100
AcDbEntity
   8
LEVEL001
 370
9
 100
AcDbLine
   6
DOT
  62
11
  10
 284.09906213364
  20
 736.26729191090
  30
0.0
  11
 291.09906213364
  21
 736.26729191090
  31
0.0
   0
ARC
   5
F0
 100
AcDbEntity
   8
LEVEL001
 370
9
   6
DOT
  62
11
 100
AcDbCircle
  10
 284.09906213364
  20
 740.76729191090
  30
0.0
  40
 4.5000000000000
 100
AcDbArc
  50
 90.000000000000
  51
 270.00000000000
   0
ARC
   5
F1
 100
AcDbEntity
   8
LEVEL001
 370
9
   6
DOT
  62
11
 100
AcDbCircle
  10
 291.09906213364
  20
 740.76729191090
  30
0.0
  40
 4.5000000000000
 100
AcDbArc
  50
 270.00000000000
  51
 90.000000000000
   0
LINE
   5
F2
 100
AcDbEntity
   8
LEVEL001
 370
9
 100
AcDbLine
   6
DASHDOT
  62
11
  10
 287.59906213364
  20
 747.51568531439
  30
0.0
  11
 287.59906213364
  21
 734.79321011923
  31
0.0
   0
LINE
   5
F3
 100
AcDbEntity
   8
LEVEL001
 370
9
 100
AcDbLine
   6
DASHDOT
  62
11
  10
 298.39928480542
  20
 740.76729191090
  30
0.0
  11
 276.94569918223
  21
 740.76729191090
  31
0.0
   0
ENDBLK
   5
F4
 100
AcDbEntity
   8
0
 100
AcDbBlockEnd
   0
BLOCK
   5
F5
 100
AcDbEntity
   8
0
 100
AcDbBlockBegin
   2
BLOCK005
  70
64
  10
0.0
  20
0.0
  30
0.0
   3
BLOCK005
   0
LINE
   5
F6
 100
AcDbEntity
   8
LEVEL001
 370
9
 100
AcDbLine
   6
DOT
  62
11
  10
 366.09906213364
  20
 775.26729191090
  30
0.0
  11
 373.09906213364
  21
 775.26729191090
  31
0.0
   0
LINE
   5
F7
 100
AcDbEntity
   8
LEVEL001
 370
9
 100
AcDbLine
   6
DOT
  62
11
  10
 366.09906213364
  20
 766.26729191090
  30
0.0
  11
 373.09906213364
  21
 766.26729191090
  31
0.0
   0
ARC
   5
F8
 100
AcDbEntity
   8
LEVEL001
 370
9
   6
DOT
  62
11
 100
AcDbCircle
  10
 366.09906213364
  20
 770.76729191090
  30
0.0
  40
 4.5000000000000
 100
AcDbArc
  50
 90.000000000000
  51
 270.00000000000
   0
ARC
   5
F9
 100
AcDbEntity
   8
LEVEL001
 370
9
   6
DOT
  62
11
 100
AcDbCircle
  10
 373.09906213364
  20
 770.76729191090
  30
0.0
  40
 4.5000000000000
 100
AcDbArc
  50
 270.00000000000
  51
 90.000000000000
   0
LINE
   5
FA
 100
AcDbEntity
   8
LEVEL001
 370
9
 100
AcDbLine
   6
DASHDOT
  62
11
  10
 369.59906213364
  20
 777.51568531439
  30
0.0
  11
 369.59906213364
  21
 764.79321011923
  31
0.0
   0
LINE
   5
FB
 100
AcDbEntity
   8
LEVEL001
 370
9
 100
AcDbLine
   6
DASHDOT
  62
11
  10
 380.39928480542
  20
 770.76729191090
  30
0.0
  11
 358.94569918223
  21
 770.76729191090
  31
0.0
   0
ENDBLK
   5
FC
 100
AcDbEntity
   8
0
 100
AcDbBlockEnd
   0
BLOCK
   5
FD
 100
AcDbEntity
   8
0
 100
AcDbBlockBegin
   2
BLOCK006
  70
64
  10
0.0
  20
0.0
  30
0.0
   3
BLOCK006
   0
LINE
   5
FE
 100
AcDbEntity
   8
LEVEL001
 370
9
 100
AcDbLine
   6
DOT
  62
11
  10
 366.09906213364
  20
 745.26729191090
  30
0.0
  11
 373.09906213364
  21
 745.26729191090
  31
0.0
   0
LINE
   5
FF
 100
AcDbEntity
   8
LEVEL001
 370
9
 100
AcDbLine
   6
DOT
  62
11
  10
 366.09906213364
  20
 736.26729191090
  30
0.0
  11
 373.09906213364
  21
 736.26729191090
  31
0.0
   0
ARC
   5
100
 100
AcDbEntity
   8
LEVEL001
 370
9
   6
DOT
  62
11
 100
AcDbCircle
  10
 366.09906213364
  20
 740.76729191090
  30
0.0
  40
 4.5000000000000
 100
AcDbArc
  50
 90.000000000000
  51
 270.00000000000
   0
ARC
   5
101
 100
AcDbEntity
   8
LEVEL001
 370
9
   6
DOT
  62
11
 100
AcDbCircle
  10
 373.09906213364
  20
 740.76729191090
  30
0.0
  40
 4.5000000000000
 100
AcDbArc
  50
 270.00000000000
  51
 90.000000000000
   0
LINE
   5
102
 100
AcDbEntity
   8
LEVEL001
 370
9
 100
AcDbLine
   6
DASHDOT
  62
11
  10
 369.59906213364
  20
 747.51568531439
  30
0.0
  11
 369.59906213364
  21
 734.79321011923
  31
0.0
   0
LINE
   5
103
 100
AcDbEntity
   8
LEVEL001
 370
9
 100
AcDbLine
   6
DASHDOT
  62
11
  10
 380.39928480542
  20
 740.76729191090
  30
0.0
  11
 358.94569918223
  21
 740.76729191090
  31
0.0
   0
ENDBLK
   5
104
 100
AcDbEntity
   8
0
 100
AcDbBlockEnd
   0
BLOCK
   5
105
 100
AcDbEntity
   8
0
 100
AcDbBlockBegin
   2
*D4
  70
65
  10
0.0
  20
0.0
  30
0.0
   3
*D4
   0
LINE
   5
106
 100
AcDbEntity
   8
LEVEL001
 370
25
 100
AcDbLine
   6
CONTINUOUS
  62
3
  10
 33.599062133646
  20
 695.76729191090
  30
0.0
  11
 33.599062133646
  21
 629.96114317385
  31
0.0
   0
LINE
   5
107
 100
AcDbEntity
   8
LEVEL001
 370
25
 100
AcDbLine
   6
CONTINUOUS
  62
3
  10
 33.599062133646
  20
 639.96114317385
  30
0.0
  11
 208.59906213365
  21
 639.96114317385
  31
0.0
   0
LINE
   5
108
 100
AcDbEntity
   8
LEVEL001
 370
25
 100
AcDbLine
   6
CONTINUOUS
  62
3
  10
 383.59906213365
  20
 639.96114317385
  30
0.0
  11
 208.59906213365
  21
 639.96114317385
  31
0.0
   0
INSERT
   5
109
 100
AcDbEntity
   8
LEVEL001
   6
CONTINUOUS
  62
3
 100
AcDbBlockReference
   2
_OPEN30
  10
 33.599062133646
  20
 639.96114317385
  30
0.0
  41
 10.000000000000
  42
 10.000000000000
  43
 10.000000000000
  50
 180.00000000000
   0
INSERT
   5
10A
 100
AcDbEntity
   8
LEVEL001
   6
CONTINUOUS
  62
3
 100
AcDbBlockReference
   2
_OPEN30
  10
 383.59906213365
  20
 639.96114317385
  30
0.0
  41
 10.000000000000
  42
 10.000000000000
  43
 10.000000000000
  50
0.0
   0
MTEXT
   5
10B
 100
AcDbEntity
   8
LEVEL001
 370
40
  62
7
 100
AcDbMText
  10
 208.59906213365
  20
 645.31828603099
  30
0.0
  40
 12.500000000000
  41
0.0
  71
8
  72
1
   1
\A1;３５０
   7
GMM003
   0
ENDBLK
   5
10C
 100
AcDbEntity
   8
0
 100
AcDbBlockEnd
   0
BLOCK
   5
10D
 100
AcDbEntity
   8
0
 100
AcDbBlockBegin
   2
*D5
  70
65
  10
0.0
  20
0.0
  30
0.0
   3
*D5
   0
LINE
   5
10E
 100
AcDbEntity
   8
LEVEL001
 370
25
 100
AcDbLine
   6
CONTINUOUS
  62
3
  10
 383.59906213365
  20
 695.76729191090
  30
0.0
  11
 383.59906213365
  21
 629.96114317385
  31
0.0
   0
LINE
   5
10F
 100
AcDbEntity
   8
LEVEL001
 370
25
 100
AcDbLine
   6
CONTINUOUS
  62
3
  10
 408.59906213365
  20
 680.76729191090
  30
0.0
  11
 408.59906213365
  21
 629.96114317385
  31
0.0
   0
LINE
   5
110
 100
AcDbEntity
   8
LEVEL001
 370
25
 100
AcDbLine
   6
CONTINUOUS
  62
3
  10
 383.59906213365
  20
 639.96114317385
  30
0.0
  11
 396.09906213365
  21
 639.96114317385
  31
0.0
   0
LINE
   5
111
 100
AcDbEntity
   8
LEVEL001
 370
25
 100
AcDbLine
   6
CONTINUOUS
  62
3
  10
 458.13253849920
  20
 639.96114317385
  30
0.0
  11
 396.09906213365
  21
 639.96114317385
  31
0.0
   0
INSERT
   5
112
 100
AcDbEntity
   8
LEVEL001
   6
CONTINUOUS
  62
3
 100
AcDbBlockReference
   2
_OPEN30
  10
 408.59906213365
  20
 639.96114317385
  30
0.0
  41
 10.000000000000
  42
 10.000000000000
  43
 10.000000000000
  50
 180.00000000000
   0
MTEXT
   5
113
 100
AcDbEntity
   8
LEVEL001
 370
40
  62
7
 100
AcDbMText
  10
 423.13253849920
  20
 645.82045019583
  30
0.0
  40
 12.500000000000
  41
0.0
  71
7
  72
1
   1
\A1;２５
   7
GMM003
   0
ENDBLK
   5
114
 100
AcDbEntity
   8
0
 100
AcDbBlockEnd
   0
BLOCK
   5
115
 100
AcDbEntity
   8
0
 100
AcDbBlockBegin
   2
BLOCK007
  70
64
  10
0.0
  20
0.0
  30
0.0
   3
BLOCK007
   0
CIRCLE
   5
116
 100
AcDbEntity
   8
LEVEL001
 370
9
 100
AcDbCircle
   6
DASHDOT
  62
11
  10
 158.59906213365
  20
 935.76729191090
  30
0.0
  40
 80.000000000000
   0
CIRCLE
   5
117
 100
AcDbEntity
   8
LEVEL001
 370
9
 100
AcDbCircle
   6
CONTINUOUS
  62
11
  10
 118.59906213365
  20
 1005.0493242137
  30
0.0
  40
 15.000000000000
   0
LINE
   5
118
 100
AcDbEntity
   8
LEVEL001
 370
9
 100
AcDbLine
   6
DASHDOT
  62
11
  10
 107.15679357855
  20
 1024.8679147049
  30
0.0
  11
 130.07362104437
  21
 985.17480518584
  31
0.0
   0
CIRCLE
   5
119
 100
AcDbEntity
   8
LEVEL001
 370
9
 100
AcDbCircle
   6
CONTINUOUS
  62
11
  10
 118.59906213365
  20
 866.48525960815
  30
0.0
  40
 15.000000000000
   0
LINE
   5
11A
 100
AcDbEntity
   8
LEVEL001
 370
9
 100
AcDbLine
   6
DASHDOT
  62
11
  10
 107.96578041503
  20
 848.06787542031
  30
0.0
  11
 129.56576645349
  21
 885.48014868170
  31
0.0
   0
CIRCLE
   5
11B
 100
AcDbEntity
   8
LEVEL001
 370
9
 100
AcDbCircle
   6
CONTINUOUS
  62
11
  10
 238.59906213365
  20
 935.76729191090
  30
0.0
  40
 15.000000000000
   0
ENDBLK
   5
11C
 100
AcDbEntity
   8
0
 100
AcDbBlockEnd
   0
BLOCK
   5
11D
 100
AcDbEntity
   8
0
 100
AcDbBlockBegin
   2
*D6
  70
65
  10
0.0
  20
0.0
  30
0.0
   3
*D6
   0
LINE
   5
11E
 100
AcDbEntity
   8
LEVEL001
 370
25
 100
AcDbLine
   6
CONTINUOUS
  62
3
  10
 3.5990621336462
  20
 685.76729191090
  30
0.0
  11
-94.251824817518
  21
 685.76729191090
  31
0.0
   0
LINE
   5
11F
 100
AcDbEntity
   8
LEVEL001
 370
25
 100
AcDbLine
   6
CONTINUOUS
  62
3
  10
 3.5990621336462
  20
 1065.7672919109
  30
0.0
  11
-94.251824817518
  21
 1065.7672919109
  31
0.0
   0
LINE
   5
120
 100
AcDbEntity
   8
LEVEL001
 370
25
 100
AcDbLine
   6
CONTINUOUS
  62
3
  10
-84.251824817518
  20
 685.76729191090
  30
0.0
  11
-84.251824817518
  21
 875.76729191090
  31
0.0
   0
LINE
   5
121
 100
AcDbEntity
   8
LEVEL001
 370
25
 100
AcDbLine
   6
CONTINUOUS
  62
3
  10
-84.251824817518
  20
 1065.7672919109
  30
0.0
  11
-84.251824817518
  21
 875.76729191090
  31
0.0
   0
INSERT
   5
122
 100
AcDbEntity
   8
LEVEL001
   6
CONTINUOUS
  62
3
 100
AcDbBlockReference
   2
_OPEN30
  10
-84.251824817518
  20
 685.76729191090
  30
0.0
  41
 10.000000000000
  42
 10.000000000000
  43
 10.000000000000
  50
 270.00000000000
   0
INSERT
   5
123
 100
AcDbEntity
   8
LEVEL001
   6
CONTINUOUS
  62
3
 100
AcDbBlockReference
   2
_OPEN30
  10
-84.251824817518
  20
 1065.7672919109
  30
0.0
  41
 10.000000000000
  42
 10.000000000000
  43
 10.000000000000
  50
 90.000000000000
   0
MTEXT
   5
124
 100
AcDbEntity
   8
LEVEL001
 370
40
  62
7
 100
AcDbMText
  10
-89.608967674661
  20
 875.76729191090
  30
0.0
  40
 12.500000000000
  41
0.0
  71
8
  72
1
   1
\A1;３８０
   7
GMM003
  11
0.0
  21
 1.0000000000000
  31
0.0
   0
ENDBLK
   5
125
 100
AcDbEntity
   8
0
 100
AcDbBlockEnd
   0
BLOCK
   5
126
 100
AcDbEntity
   8
0
 100
AcDbBlockBegin
   2
*D7
  70
65
  10
0.0
  20
0.0
  30
0.0
   3
*D7
   0
LINE
   5
127
 100
AcDbEntity
   8
LEVEL001
 370
25
 100
AcDbLine
   6
CONTINUOUS
  62
3
  10
 3.5990621336462
  20
 685.76729191090
  30
0.0
  11
-54.507299270073
  21
 685.76729191090
  31
0.0
   0
LINE
   5
128
 100
AcDbEntity
   8
LEVEL001
 370
25
 100
AcDbLine
   6
CONTINUOUS
  62
3
  10
-44.507299270073
  20
 646.94908314047
  30
0.0
  11
-44.507299270073
  21
 698.26729191090
  31
0.0
   0
LINE
   5
129
 100
AcDbEntity
   8
LEVEL001
 370
25
 100
AcDbLine
   6
CONTINUOUS
  62
3
  10
-44.507299270073
  20
 710.76729191090
  30
0.0
  11
-44.507299270073
  21
 698.26729191090
  31
0.0
   0
INSERT
   5
12A
 100
AcDbEntity
   8
LEVEL001
   6
CONTINUOUS
  62
3
 100
AcDbBlockReference
   2
_OPEN30
  10
-44.507299270073
  20
 685.76729191090
  30
0.0
  41
 10.000000000000
  42
 10.000000000000
  43
 10.000000000000
  50
 270.00000000000
   0
INSERT
   5
12B
 100
AcDbEntity
   8
LEVEL001
   6
CONTINUOUS
  62
3
 100
AcDbBlockReference
   2
_OPEN30
  10
-44.507299270073
  20
 710.76729191090
  30
0.0
  41
 10.000000000000
  42
 10.000000000000
  43
 10.000000000000
  50
 90.000000000000
   0
MTEXT
   5
12C
 100
AcDbEntity
   8
LEVEL001
 370
40
  62
7
 100
AcDbMText
  10
-49.899468132455
  20
 681.94908314047
  30
0.0
  40
 12.500000000000
  41
0.0
  71
9
  72
1
   1
\A1;２５
   7
GMM003
  11
0.0
  21
 1.0000000000000
  31
0.0
   0
ENDBLK
   5
12D
 100
AcDbEntity
   8
0
 100
AcDbBlockEnd
   0
BLOCK
   5
12E
 100
AcDbEntity
   8
0
 100
AcDbBlockBegin
   2
*D8
  70
65
  10
0.0
  20
0.0
  30
0.0
   3
*D8
   0
LINE
   5
12F
 100
AcDbEntity
   8
LEVEL001
 370
25
 100
AcDbLine
   6
CONTINUOUS
  62
3
  10
 18.599062133646
  20
 710.76729191090
  30
0.0
  11
-54.507299270073
  21
 710.76729191090
  31
0.0
   0
LINE
   5
130
 100
AcDbEntity
   8
LEVEL001
 370
25
 100
AcDbLine
   6
CONTINUOUS
  62
3
  10
 18.599062133646
  20
 1040.7672919109
  30
0.0
  11
-54.507299270073
  21
 1040.7672919109
  31
0.0
   0
LINE
   5
131
 100
AcDbEntity
   8
LEVEL001
 370
25
 100
AcDbLine
   6
CONTINUOUS
  62
3
  10
-44.507299270073
  20
 710.76729191090
  30
0.0
  11
-44.507299270073
  21
 875.76729191090
  31
0.0
   0
LINE
   5
132
 100
AcDbEntity
   8
LEVEL001
 370
25
 100
AcDbLine
   6
CONTINUOUS
  62
3
  10
-44.507299270073
  20
 1040.7672919109
  30
0.0
  11
-44.507299270073
  21
 875.76729191090
  31
0.0
   0
INSERT
   5
133
 100
AcDbEntity
   8
LEVEL001
   6
CONTINUOUS
  62
3
 100
AcDbBlockReference
   2
_OPEN30
  10
-44.507299270073
  20
 710.76729191090
  30
0.0
  41
 10.000000000000
  42
 10.000000000000
  43
 10.000000000000
  50
 270.00000000000
   0
INSERT
   5
134
 100
AcDbEntity
   8
LEVEL001
   6
CONTINUOUS
  62
3
 100
AcDbBlockReference
   2
_OPEN30
  10
-44.507299270073
  20
 1040.7672919109
  30
0.0
  41
 10.000000000000
  42
 10.000000000000
  43
 10.000000000000
  50
 90.000000000000
   0
MTEXT
   5
135
 100
AcDbEntity
   8
LEVEL001
 370
40
  62
7
 100
AcDbMText
  10
-49.864442127216
  20
 875.76729191090
  30
0.0
  40
 12.500000000000
  41
0.0
  71
8
  72
1
   1
\A1;３３０
   7
GMM003
  11
0.0
  21
 1.0000000000000
  31
0.0
   0
ENDBLK
   5
136
 100
AcDbEntity
   8
0
 100
AcDbBlockEnd
   0
BLOCK
   5
137
 100
AcDbEntity
   8
0
 100
AcDbBlockBegin
   2
BLOCK008
  70
64
  10
0.0
  20
0.0
  30
0.0
   3
BLOCK008
   0
ARC
   5
138
 100
AcDbEntity
   8
LEVEL001
 370
40
   6
CONTINUOUS
  62
7
 100
AcDbCircle
  10
 158.59906213365
  20
 943.26729191090
  30
0.0
  40
 150.00000000000
 100
AcDbArc
  50
 270.00000000000
  51
 90.000000000000
   0
ARC
   5
139
 100
AcDbEntity
   8
LEVEL001
 370
40
   6
CONTINUOUS
  62
7
 100
AcDbCircle
  10
 158.59906213365
  20
 928.26729191090
  30
0.0
  40
 135.00000000000
 100
AcDbArc
  50
 90.000000000000
  51
 270.00000000000
   0
ARC
   5
13A
 100
AcDbEntity
   8
LEVEL001
 370
40
   6
CONTINUOUS
  62
7
 100
AcDbCircle
  10
 158.59906213365
  20
 943.26729191090
  30
0.0
  40
 120.00000000000
 100
AcDbArc
  50
 270.00000000000
  51
 90.000000000000
   0
ARC
   5
13B
 100
AcDbEntity
   8
LEVEL001
 370
40
   6
CONTINUOUS
  62
7
 100
AcDbCircle
  10
 158.59906213365
  20
 928.26729191090
  30
0.0
  40
 105.00000000000
 100
AcDbArc
  50
 90.000000000000
  51
 270.00000000000
   0
ARC
   5
13C
 100
AcDbEntity
   8
LEVEL001
 370
40
   6
CONTINUOUS
  62
7
 100
AcDbCircle
  10
 158.59906213365
  20
 917.01729191090
  30
0.0
  40
 176.25000000000
 100
AcDbArc
  50
 90.000000000000
  51
 270.00000000000
   0
ARC
   5
13D
 100
AcDbEntity
   8
LEVEL001
 370
40
   6
CONTINUOUS
  62
7
 100
AcDbCircle
  10
 158.59906213365
  20
 943.26729191090
  30
0.0
  40
 90.000000000000
 100
AcDbArc
  50
 270.00000000000
  51
 90.000000000000
   0
ARC
   5
13E
 100
AcDbEntity
   8
LEVEL001
 370
40
   6
CONTINUOUS
  62
7
 100
AcDbCircle
  10
 158.59906213365
  20
 917.01729191090
  30
0.0
  40
 146.25000000000
 100
AcDbArc
  50
 237.30055736365
  51
 270.00000000000
   0
ARC
   5
13F
 100
AcDbEntity
   8
LEVEL001
 370
25
   6
DASHDOT
  62
3
 100
AcDbCircle
  10
 158.59906213365
  20
 917.01729191090
  30
0.0
  40
 161.25000000000
 100
AcDbArc
  50
 226.82780595844
  51
 270.00000000000
   0
LINE
   5
140
 100
AcDbEntity
   8
LEVEL001
 370
40
 100
AcDbLine
   6
CONTINUOUS
  62
7
  10
 158.59906213365
  20
 770.76729191090
  30
0.0
  11
 216.59906213365
  21
 770.76729191090
  31
0.0
   0
LWPOLYLINE
   5
141
 100
AcDbEntity
   8
LEVEL001
 370
40
   6
CONTINUOUS
  62
7
 100
AcDbPolyline
  90
3
  70
0
  10
 216.59906213365
  20
 804.93436018458
  10
 216.59906213365
  20
 740.76729191090
  10
 158.59906213365
  20
 740.76729191090
   0
ENDBLK
   5
142
 100
AcDbEntity
   8
0
 100
AcDbBlockEnd
   0
BLOCK
   5
143
 100
AcDbEntity
   8
0
 100
AcDbBlockBegin
   2
BLOCK009
  70
64
  10
0.0
  20
0.0
  30
0.0
   3
BLOCK009
   0
LINE
   5
144
 100
AcDbEntity
   8
LEVEL001
 370
40
 100
AcDbLine
   6
CONTINUOUS
  62
7
  10
 408.59906213365
  20
 780.76729191090
  30
0.0
  11
 398.59906213365
  21
 780.76729191090
  31
0.0
   0
LINE
   5
145
 100
AcDbEntity
   8
LEVEL001
 370
40
 100
AcDbLine
   6
CONTINUOUS
  62
7
  10
 398.59906213365
  20
 730.76729191090
  30
0.0
  11
 408.59906213365
  21
 730.76729191090
  31
0.0
   0
CIRCLE
   5
146
 100
AcDbEntity
   8
LEVEL001
 370
9
 100
AcDbCircle
   6
CONTINUOUS
  62
11
  10
 258.59906213365
  20
 738.76729191090
  30
0.0
  40
 2.0000000000000
   0
CIRCLE
   5
147
 100
AcDbEntity
   8
LEVEL001
 370
9
 100
AcDbCircle
   6
CONTINUOUS
  62
11
  10
 258.59906213365
  20
 738.76729191090
  30
0.0
  40
 2.5000000000000
   0
LINE
   5
148
 100
AcDbEntity
   8
LEVEL001
 370
9
 100
AcDbLine
   6
DASHDOT
  62
11
  10
 258.59906213365
  20
 747.29544872269
  30
0.0
  11
 258.59906213365
  21
 730.05698218597
  31
0.0
   0
LINE
   5
149
 100
AcDbEntity
   8
LEVEL001
 370
9
 100
AcDbLine
   6
DASHDOT
  62
11
  10
 267.25192113300
  20
 738.76729191090
  30
0.0
  11
 249.92248643514
  21
 738.76729191090
  31
0.0
   0
CIRCLE
   5
14A
 100
AcDbEntity
   8
LEVEL001
 370
9
 100
AcDbCircle
   6
DOT
  62
11
  10
 258.59906213365
  20
 738.76729191090
  30
0.0
  40
 7.5000000000000
   0
CIRCLE
   5
14B
 100
AcDbEntity
   8
LEVEL001
 370
9
 100
AcDbCircle
   6
CONTINUOUS
  62
11
  10
 258.59906213365
  20
 772.76729191090
  30
0.0
  40
 2.0000000000000
   0
CIRCLE
   5
14C
 100
AcDbEntity
   8
LEVEL001
 370
9
 100
AcDbCircle
   6
CONTINUOUS
  62
11
  10
 258.59906213365
  20
 772.76729191090
  30
0.0
  40
 2.5000000000000
   0
LINE
   5
14D
 100
AcDbEntity
   8
LEVEL001
 370
9
 100
AcDbLine
   6
DASHDOT
  62
11
  10
 258.59906213365
  20
 781.29544872269
  30
0.0
  11
 258.59906213365
  21
 764.05698218597
  31
0.0
   0
LINE
   5
14E
 100
AcDbEntity
   8
LEVEL001
 370
9
 100
AcDbLine
   6
DASHDOT
  62
11
  10
 267.25192113300
  20
 772.76729191090
  30
0.0
  11
 249.92248643514
  21
 772.76729191090
  31
0.0
   0
CIRCLE
   5
14F
 100
AcDbEntity
   8
LEVEL001
 370
9
 100
AcDbCircle
   6
DOT
  62
11
  10
 258.59906213365
  20
 772.76729191090
  30
0.0
  40
 7.5000000000000
   0
CIRCLE
   5
150
 100
AcDbEntity
   8
LEVEL001
 370
9
 100
AcDbCircle
   6
CONTINUOUS
  62
11
  10
 398.59906213365
  20
 772.76729191090
  30
0.0
  40
 2.0000000000000
   0
CIRCLE
   5
151
 100
AcDbEntity
   8
LEVEL001
 370
9
 100
AcDbCircle
   6
CONTINUOUS
  62
11
  10
 398.59906213365
  20
 772.76729191090
  30
0.0
  40
 2.5000000000000
   0
LINE
   5
152
 100
AcDbEntity
   8
LEVEL001
 370
9
 100
AcDbLine
   6
DASHDOT
  62
11
  10
 407.25192113300
  20
 772.76729191090
  30
0.0
  11
 389.92248643514
  21
 772.76729191090
  31
0.0
   0
CIRCLE
   5
153
 100
AcDbEntity
   8
LEVEL001
 370
9
 100
AcDbCircle
   6
DOT
  62
11
  10
 398.59906213365
  20
 772.76729191090
  30
0.0
  40
 7.5000000000000
   0
CIRCLE
   5
154
 100
AcDbEntity
   8
LEVEL001
 370
9
 100
AcDbCircle
   6
CONTINUOUS
  62
11
  10
 398.59906213365
  20
 738.76729191090
  30
0.0
  40
 2.0000000000000
   0
CIRCLE
   5
155
 100
AcDbEntity
   8
LEVEL001
 370
9
 100
AcDbCircle
   6
CONTINUOUS
  62
11
  10
 398.59906213365
  20
 738.76729191090
  30
0.0
  40
 2.5000000000000
   0
LINE
   5
156
 100
AcDbEntity
   8
LEVEL001
 370
9
 100
AcDbLine
   6
DASHDOT
  62
11
  10
 407.25192113300
  20
 738.76729191090
  30
0.0
  11
 389.92248643514
  21
 738.76729191090
  31
0.0
   0
CIRCLE
   5
157
 100
AcDbEntity
   8
LEVEL001
 370
9
 100
AcDbCircle
   6
DOT
  62
11
  10
 398.59906213365
  20
 738.76729191090
  30
0.0
  40
 7.5000000000000
   0
LINE
   5
158
 100
AcDbEntity
   8
LEVEL001
 370
40
 100
AcDbLine
   6
CONTINUOUS
  62
7
  10
 256.59906213365
  20
 747.76729191090
  30
0.0
  11
 256.59906213365
  21
 730.76729191090
  31
0.0
   0
LINE
   5
159
 100
AcDbEntity
   8
LEVEL001
 370
40
 100
AcDbLine
   6
CONTINUOUS
  62
7
  10
 256.59906213365
  20
 780.76729191090
  30
0.0
  11
 256.59906213365
  21
 763.76729191090
  31
0.0
   0
LWPOLYLINE
   5
15A
 100
AcDbEntity
   8
LEVEL001
 370
40
   6
CONTINUOUS
  62
7
 100
AcDbPolyline
  90
4
  70
0
  10
 398.59906213365
  20
 763.76729191090
  10
 398.59906213365
  20
 784.26729191090
  10
 268.59906213365
  20
 784.26729191090
  10
 268.59906213365
  20
 763.76729191090
   0
LWPOLYLINE
   5
15B
 100
AcDbEntity
   8
LEVEL001
 370
40
   6
CONTINUOUS
  62
7
 100
AcDbPolyline
  90
4
  70
0
  10
 268.59906213365
  20
 747.76729191090
  10
 268.59906213365
  20
 727.26729191090
  10
 398.59906213365
  20
 727.26729191090
  10
 398.59906213365
  20
 747.76729191090
   0
LWPOLYLINE
   5
15C
 100
AcDbEntity
   8
LEVEL001
 370
40
   6
CONTINUOUS
  62
7
 100
AcDbPolyline
  90
3
  70
0
  10
 398.59906213365
  20
 784.26729191090
  10
 408.59906213365
  20
 784.26729191090
  10
 408.59906213365
  20
 763.76729191090
   0
LWPOLYLINE
   5
15D
 100
AcDbEntity
   8
LEVEL001
 370
40
   6
CONTINUOUS
  62
7
 100
AcDbPolyline
  90
3
  70
0
  10
 408.59906213365
  20
 747.76729191090
  10
 408.59906213365
  20
 727.26729191090
  10
 398.59906213365
  20
 727.26729191090
   0
LWPOLYLINE
   5
15E
 100
AcDbEntity
   8
LEVEL001
 370
40
   6
CONTINUOUS
  62
7
 100
AcDbPolyline
  90
3
  70
0
  10
 268.59906213365
  20
 780.76729191090
  10
 176.59906213365
  20
 780.76729191090
  10
 176.59906213365
  20
 770.76729191090
   0
LWPOLYLINE
   5
15F
 100
AcDbEntity
   8
LEVEL001
 370
40
   6
CONTINUOUS
  62
7
 100
AcDbPolyline
  90
3
  70
0
  10
 176.59906213365
  20
 740.76729191090
  10
 176.59906213365
  20
 730.76729191090
  10
 268.59906213365
  20
 730.76729191090
   0
ENDBLK
   5
160
 100
AcDbEntity
   8
0
 100
AcDbBlockEnd
   0
BLOCK
   5
161
 100
AcDbEntity
   8
0
 100
AcDbBlockBegin
   2
*D9
  70
65
  10
0.0
  20
0.0
  30
0.0
   3
*D9
   0
LINE
   5
162
 100
AcDbEntity
   8
LEVEL001
 370
25
 100
AcDbLine
   6
CONTINUOUS
  62
3
  10
 413.59906213365
  20
 685.76729191090
  30
0.0
  11
 473.30282021131
  21
 685.76729191090
  31
0.0
   0
LINE
   5
163
 100
AcDbEntity
   8
LEVEL001
 370
25
 100
AcDbLine
   6
CONTINUOUS
  62
3
  10
 463.30282021131
  20
 685.76729191090
  30
0.0
  11
 463.30282021131
  21
 720.76729191090
  31
0.0
   0
LINE
   5
164
 100
AcDbEntity
   8
LEVEL001
 370
25
 100
AcDbLine
   6
CONTINUOUS
  62
3
  10
 463.30282021131
  20
 755.76729191090
  30
0.0
  11
 463.30282021131
  21
 720.76729191090
  31
0.0
   0
INSERT
   5
165
 100
AcDbEntity
   8
LEVEL001
   6
CONTINUOUS
  62
3
 100
AcDbBlockReference
   2
_OPEN30
  10
 463.30282021131
  20
 685.76729191090
  30
0.0
  41
 10.000000000000
  42
 10.000000000000
  43
 10.000000000000
  50
 270.00000000000
   0
INSERT
   5
166
 100
AcDbEntity
   8
LEVEL001
   6
CONTINUOUS
  62
3
 100
AcDbBlockReference
   2
_OPEN30
  10
 463.30282021131
  20
 755.76729191090
  30
0.0
  41
 10.000000000000
  42
 10.000000000000
  43
 10.000000000000
  50
 90.000000000000
   0
MTEXT
   5
167
 100
AcDbEntity
   8
LEVEL001
 370
40
  62
7
 100
AcDbMText
  10
 457.94567735416
  20
 720.76729191090
  30
0.0
  40
 12.500000000000
  41
0.0
  71
8
  72
1
   1
\A1;７０
   7
GMM003
  11
0.0
  21
 1.0000000000000
  31
0.0
   0
ENDBLK
   5
168
 100
AcDbEntity
   8
0
 100
AcDbBlockEnd
   0
BLOCK
   5
169
 100
AcDbEntity
   8
0
 100
AcDbBlockBegin
   2
*D10
  70
65
  10
0.0
  20
0.0
  30
0.0
   3
*D10
   0
LINE
   5
16A
 100
AcDbEntity
   8
LEVEL001
 370
25
 100
AcDbLine
   6
CONTINUOUS
  62
3
  10
 457.10876482191
  20
 755.76729191090
  30
0.0
  11
 473.30282021131
  21
 755.76729191090
  31
0.0
   0
LINE
   5
16B
 100
AcDbEntity
   8
LEVEL001
 370
25
 100
AcDbLine
   6
CONTINUOUS
  62
3
  10
 415.39023179717
  20
 935.76729191090
  30
0.0
  11
 473.30282021131
  21
 935.76729191090
  31
0.0
   0
LINE
   5
16C
 100
AcDbEntity
   8
LEVEL001
 370
25
 100
AcDbLine
   6
CONTINUOUS
  62
3
  10
 463.30282021131
  20
 755.76729191090
  30
0.0
  11
 463.30282021131
  21
 845.76729191090
  31
0.0
   0
LINE
   5
16D
 100
AcDbEntity
   8
LEVEL001
 370
25
 100
AcDbLine
   6
CONTINUOUS
  62
3
  10
 463.30282021131
  20
 935.76729191090
  30
0.0
  11
 463.30282021131
  21
 845.76729191090
  31
0.0
   0
INSERT
   5
16E
 100
AcDbEntity
   8
LEVEL001
   6
CONTINUOUS
  62
3
 100
AcDbBlockReference
   2
_OPEN30
  10
 463.30282021131
  20
 755.76729191090
  30
0.0
  41
 10.000000000000
  42
 10.000000000000
  43
 10.000000000000
  50
 270.00000000000
   0
INSERT
   5
16F
 100
AcDbEntity
   8
LEVEL001
   6
CONTINUOUS
  62
3
 100
AcDbBlockReference
   2
_OPEN30
  10
 463.30282021131
  20
 935.76729191090
  30
0.0
  41
 10.000000000000
  42
 10.000000000000
  43
 10.000000000000
  50
 90.000000000000
   0
MTEXT
   5
170
 100
AcDbEntity
   8
LEVEL001
 370
40
  62
7
 100
AcDbMText
  10
 457.94567735416
  20
 845.76729191090
  30
0.0
  40
 12.500000000000
  41
0.0
  71
8
  72
1
   1
\A1;（１８０）
   7
GMM003
  11
0.0
  21
 1.0000000000000
  31
0.0
   0
ENDBLK
   5
171
 100
AcDbEntity
   8
0
 100
AcDbBlockEnd
   0
BLOCK
   5
172
 100
AcDbEntity
   8
0
 100
AcDbBlockBegin
   2
*D11
  70
65
  10
0.0
  20
0.0
  30
0.0
   3
*D11
   0
LINE
   5
173
 100
AcDbEntity
   8
LEVEL001
 370
25
 100
AcDbLine
   6
CONTINUOUS
  62
3
  10
 413.59906213365
  20
 117.06569343066
  30
0.0
  11
 459.80712706389
  21
 117.06569343066
  31
0.0
   0
LINE
   5
174
 100
AcDbEntity
   8
LEVEL001
 370
25
 100
AcDbLine
   6
CONTINUOUS
  62
3
  10
 413.59906213365
  20
 129.06569343066
  30
0.0
  11
 459.80712706389
  21
 129.06569343066
  31
0.0
   0
LINE
   5
175
 100
AcDbEntity
   8
LEVEL001
 370
25
 100
AcDbLine
   6
CONTINUOUS
  62
3
  10
 449.80712706389
  20
 104.56569343066
  30
0.0
  11
 449.80712706389
  21
 123.06569343066
  31
0.0
   0
LINE
   5
176
 100
AcDbEntity
   8
LEVEL001
 370
25
 100
AcDbLine
   6
CONTINUOUS
  62
3
  10
 449.80712706389
  20
 183.36715455781
  30
0.0
  11
 449.80712706389
  21
 123.06569343066
  31
0.0
   0
INSERT
   5
177
 100
AcDbEntity
   8
LEVEL001
   6
CONTINUOUS
  62
3
 100
AcDbBlockReference
   2
_OPEN30
  10
 449.80712706389
  20
 117.06569343066
  30
0.0
  41
 10.000000000000
  42
 10.000000000000
  43
 10.000000000000
  50
 90.000000000000
   0
INSERT
   5
178
 100
AcDbEntity
   8
LEVEL001
   6
CONTINUOUS
  62
3
 100
AcDbBlockReference
   2
_OPEN30
  10
 449.80712706389
  20
 129.06569343066
  30
0.0
  41
 10.000000000000
  42
 10.000000000000
  43
 10.000000000000
  50
 270.00000000000
   0
MTEXT
   5
179
 100
AcDbEntity
   8
LEVEL001
 370
40
  62
7
 100
AcDbMText
  10
 444.35041760230
  20
 148.36715455781
  30
0.0
  40
 12.500000000000
  41
0.0
  71
7
  72
1
   1
\A1;１２
   7
GMM003
  11
0.0
  21
 1.0000000000000
  31
0.0
   0
ENDBLK
   5
17A
 100
AcDbEntity
   8
0
 100
AcDbBlockEnd
   0
BLOCK
   5
17B
 100
AcDbEntity
   8
0
 100
AcDbBlockBegin
   2
BLOCK010
  70
64
  10
0.0
  20
0.0
  30
0.0
   3
BLOCK010
   0
LINE
   5
17C
 100
AcDbEntity
   8
LEVEL001
 370
40
 100
AcDbLine
   6
CONTINUOUS
  62
7
  10
 304.29906213365
  20
 200.06569343066
  30
0.0
  11
 304.29906213365
  21
 138.06569343066
  31
0.0
   0
LINE
   5
17D
 100
AcDbEntity
   8
LEVEL001
 370
25
 100
AcDbLine
   6
DOT
  62
3
  10
 307.79906213365
  20
 200.06569343066
  30
0.0
  11
 307.79906213365
  21
 138.06569343066
  31
0.0
   0
LINE
   5
17E
 100
AcDbEntity
   8
LEVEL001
 370
25
 100
AcDbLine
   6
DOT
  62
3
  10
 349.39906213365
  20
 200.06569343066
  30
0.0
  11
 349.39906213365
  21
 138.06569343066
  31
0.0
   0
LINE
   5
17F
 100
AcDbEntity
   8
LEVEL001
 370
40
 100
AcDbLine
   6
CONTINUOUS
  62
7
  10
 352.89906213365
  20
 200.06569343066
  30
0.0
  11
 352.89906213365
  21
 138.06569343066
  31
0.0
   0
LWPOLYLINE
   5
180
 100
AcDbEntity
   8
LEVEL001
 370
40
   6
CONTINUOUS
  62
7
 100
AcDbPolyline
  90
4
  70
1
  10
 273.59906213364
  20
 200.06569343066
  10
 383.59906213364
  20
 200.06569343066
  10
 383.59906213364
  20
 209.06569343066
  10
 273.59906213364
  20
 209.06569343066
   0
LWPOLYLINE
   5
181
 100
AcDbEntity
   8
LEVEL001
 370
40
   6
CONTINUOUS
  62
7
 100
AcDbPolyline
  90
4
  70
1
  10
 273.59906213364
  20
 129.06569343066
  10
 383.59906213364
  20
 129.06569343066
  10
 383.59906213364
  20
 138.06569343066
  10
 273.59906213364
  20
 138.06569343066
   0
ENDBLK
   5
182
 100
AcDbEntity
   8
0
 100
AcDbBlockEnd
   0
BLOCK
   5
183
 100
AcDbEntity
   8
0
 100
AcDbBlockBegin
   2
BLOCK011
  70
64
  10
0.0
  20
0.0
  30
0.0
   3
BLOCK011
   0
LINE
   5
184
 100
AcDbEntity
   8
LEVEL001
 370
25
 100
AcDbLine
   6
DASHDOT
  62
3
  10
 287.59906213364
  20
 151.41098245150
  30
0.0
  11
 287.59906213364
  21
 119.22881545080
  31
0.0
   0
ARC
   5
185
 100
AcDbEntity
   8
LEVEL001
 370
25
   6
CONTINUOUS
  62
3
 100
AcDbCircle
  10
 293.29906212173
  20
 147.26569341874
  30
0.0
  40
 0.80000001192093
 100
AcDbArc
  50
0.0
  51
 90.000217712692
   0
LINE
   5
186
 100
AcDbEntity
   8
LEVEL001
 370
25
 100
AcDbLine
   6
CONTINUOUS
  62
3
  10
 293.29905908189
  20
 148.06569343066
  30
0.0
  11
 281.89905755601
  21
 148.06569343066
  31
0.0
   0
ARC
   5
187
 100
AcDbEntity
   8
LEVEL001
 370
25
   6
CONTINUOUS
  62
3
 100
AcDbCircle
  10
 281.89906214556
  20
 147.26569341875
  30
0.0
  40
 0.80000001192093
 100
AcDbArc
  50
 90.000328702434
  51
 180.00021771322
   0
LINE
   5
188
 100
AcDbEntity
   8
LEVEL001
 370
25
 100
AcDbLine
   6
CONTINUOUS
  62
3
  10
 281.09906213364
  20
 147.26569037890
  30
0.0
  11
 281.09906213364
  21
 140.06569343066
  31
0.0
   0
LINE
   5
189
 100
AcDbEntity
   8
LEVEL001
 370
25
 100
AcDbLine
   6
CONTINUOUS
  62
3
  10
 294.09906213364
  20
 140.06569343066
  30
0.0
  11
 294.09906213364
  21
 147.26569037890
  31
0.0
   0
LWPOLYLINE
   5
18A
 100
AcDbEntity
   8
LEVEL001
 370
25
   6
CONTINUOUS
  62
3
 100
AcDbPolyline
  90
4
  70
0
  10
 279.89906518540
  20
 138.06569343066
  10
 279.89906518540
  20
 140.06569343066
  10
 295.29906671128
  20
 140.06569343066
  10
 295.29906671128
  20
 138.06569343066
   0
LINE
   5
18B
 100
AcDbEntity
   8
LEVEL001
 370
25
 100
AcDbLine
   6
CONTINUOUS
  62
3
  10
 287.59906213364
  20
 138.06569343066
  30
0.0
  11
 286.44436090073
  21
 140.06569343066
  31
0.0
   0
LINE
   5
18C
 100
AcDbEntity
   8
LEVEL001
 370
25
 100
AcDbLine
   6
CONTINUOUS
  62
3
  10
 287.59906213364
  20
 140.06569343066
  30
0.0
  11
 288.75376336655
  21
 138.06569343066
  31
0.0
   0
ENDBLK
   5
18D
 100
AcDbEntity
   8
0
 100
AcDbBlockEnd
   0
BLOCK
   5
18E
 100
AcDbEntity
   8
0
 100
AcDbBlockBegin
   2
BLOCK012
  70
64
  10
0.0
  20
0.0
  30
0.0
   3
BLOCK012
   0
LINE
   5
18F
 100
AcDbEntity
   8
LEVEL001
 370
25
 100
AcDbLine
   6
DASHDOT
  62
3
  10
 369.59906213364
  20
 151.41098245150
  30
0.0
  11
 369.59906213364
  21
 119.22881545080
  31
0.0
   0
ARC
   5
190
 100
AcDbEntity
   8
LEVEL001
 370
25
   6
CONTINUOUS
  62
3
 100
AcDbCircle
  10
 375.29906212173
  20
 147.26569341874
  30
0.0
  40
 0.80000001192093
 100
AcDbArc
  50
0.0
  51
 90.000217712692
   0
LINE
   5
191
 100
AcDbEntity
   8
LEVEL001
 370
25
 100
AcDbLine
   6
CONTINUOUS
  62
3
  10
 375.29905908189
  20
 148.06569343066
  30
0.0
  11
 363.89905755601
  21
 148.06569343066
  31
0.0
   0
ARC
   5
192
 100
AcDbEntity
   8
LEVEL001
 370
25
   6
CONTINUOUS
  62
3
 100
AcDbCircle
  10
 363.89906214556
  20
 147.26569341875
  30
0.0
  40
 0.80000001192093
 100
AcDbArc
  50
 90.000328702434
  51
 180.00021771322
   0
LINE
   5
193
 100
AcDbEntity
   8
LEVEL001
 370
25
 100
AcDbLine
   6
CONTINUOUS
  62
3
  10
 363.09906213364
  20
 147.26569037890
  30
0.0
  11
 363.09906213364
  21
 140.06569343066
  31
0.0
   0
LINE
   5
194
 100
AcDbEntity
   8
LEVEL001
 370
25
 100
AcDbLine
   6
CONTINUOUS
  62
3
  10
 376.09906213364
  20
 140.06569343066
  30
0.0
  11
 376.09906213364
  21
 147.26569037890
  31
0.0
   0
LWPOLYLINE
   5
195
 100
AcDbEntity
   8
LEVEL001
 370
25
   6
CONTINUOUS
  62
3
 100
AcDbPolyline
  90
4
  70
0
  10
 361.89906518540
  20
 138.06569343066
  10
 361.89906518540
  20
 140.06569343066
  10
 377.29906671128
  20
 140.06569343066
  10
 377.29906671128
  20
 138.06569343066
   0
LINE
   5
196
 100
AcDbEntity
   8
LEVEL001
 370
25
 100
AcDbLine
   6
CONTINUOUS
  62
3
  10
 369.59906213364
  20
 138.06569343066
  30
0.0
  11
 368.44436090073
  21
 140.06569343066
  31
0.0
   0
LINE
   5
197
 100
AcDbEntity
   8
LEVEL001
 370
25
 100
AcDbLine
   6
CONTINUOUS
  62
3
  10
 369.59906213364
  20
 140.06569343066
  30
0.0
  11
 370.75376336655
  21
 138.06569343066
  31
0.0
   0
ENDBLK
   5
198
 100
AcDbEntity
   8
0
 100
AcDbBlockEnd
   0
BLOCK
   5
199
 100
AcDbEntity
   8
0
 100
AcDbBlockBegin
   2
BLOCK013
  70
64
  10
0.0
  20
0.0
  30
0.0
   3
BLOCK013
   0
LINE
   5
19A
 100
AcDbEntity
   8
LEVEL001
 370
25
 100
AcDbLine
   6
DASHDOT
  62
3
  10
 611.98710433763
  20
 151.41098245150
  30
0.0
  11
 611.98710433763
  21
 119.22881545080
  31
0.0
   0
ARC
   5
19B
 100
AcDbEntity
   8
LEVEL001
 370
25
   6
CONTINUOUS
  62
3
 100
AcDbCircle
  10
 617.68710432572
  20
 147.26569341874
  30
0.0
  40
 0.80000001192093
 100
AcDbArc
  50
0.0
  51
 90.000217712692
   0
LINE
   5
19C
 100
AcDbEntity
   8
LEVEL001
 370
25
 100
AcDbLine
   6
CONTINUOUS
  62
3
  10
 617.68710128587
  20
 148.06569343066
  30
0.0
  11
 606.28709976000
  21
 148.06569343066
  31
0.0
   0
ARC
   5
19D
 100
AcDbEntity
   8
LEVEL001
 370
25
   6
CONTINUOUS
  62
3
 100
AcDbCircle
  10
 606.28710434955
  20
 147.26569341875
  30
0.0
  40
 0.80000001192093
 100
AcDbArc
  50
 90.000328702434
  51
 180.00021771322
   0
LINE
   5
19E
 100
AcDbEntity
   8
LEVEL001
 370
25
 100
AcDbLine
   6
CONTINUOUS
  62
3
  10
 605.48710433763
  20
 147.26569037890
  30
0.0
  11
 605.48710433763
  21
 140.06569343066
  31
0.0
   0
LINE
   5
19F
 100
AcDbEntity
   8
LEVEL001
 370
25
 100
AcDbLine
   6
CONTINUOUS
  62
3
  10
 618.48710433763
  20
 140.06569343066
  30
0.0
  11
 618.48710433763
  21
 147.26569037890
  31
0.0
   0
LWPOLYLINE
   5
1A0
 100
AcDbEntity
   8
LEVEL001
 370
25
   6
CONTINUOUS
  62
3
 100
AcDbPolyline
  90
4
  70
0
  10
 604.28710738939
  20
 138.06569343066
  10
 604.28710738939
  20
 140.06569343066
  10
 619.68710891527
  20
 140.06569343066
  10
 619.68710891527
  20
 138.06569343066
   0
LINE
   5
1A1
 100
AcDbEntity
   8
LEVEL001
 370
25
 100
AcDbLine
   6
CONTINUOUS
  62
3
  10
 611.98710433763
  20
 138.06569343066
  30
0.0
  11
 610.83240310472
  21
 140.06569343066
  31
0.0
   0
LINE
   5
1A2
 100
AcDbEntity
   8
LEVEL001
 370
25
 100
AcDbLine
   6
CONTINUOUS
  62
3
  10
 611.98710433763
  20
 140.06569343066
  30
0.0
  11
 613.14180557054
  21
 138.06569343066
  31
0.0
   0
ENDBLK
   5
1A3
 100
AcDbEntity
   8
0
 100
AcDbBlockEnd
   0
BLOCK
   5
1A4
 100
AcDbEntity
   8
0
 100
AcDbBlockBegin
   2
BLOCK014
  70
64
  10
0.0
  20
0.0
  30
0.0
   3
BLOCK014
   0
LINE
   5
1A5
 100
AcDbEntity
   8
LEVEL001
 370
25
 100
AcDbLine
   6
DASHDOT
  62
3
  10
 641.98710433763
  20
 151.41098245150
  30
0.0
  11
 641.98710433763
  21
 119.22881545080
  31
0.0
   0
ARC
   5
1A6
 100
AcDbEntity
   8
LEVEL001
 370
25
   6
CONTINUOUS
  62
3
 100
AcDbCircle
  10
 647.68710432572
  20
 147.26569341874
  30
0.0
  40
 0.80000001192093
 100
AcDbArc
  50
0.0
  51
 90.000217712692
   0
LINE
   5
1A7
 100
AcDbEntity
   8
LEVEL001
 370
25
 100
AcDbLine
   6
CONTINUOUS
  62
3
  10
 647.68710128587
  20
 148.06569343066
  30
0.0
  11
 636.28709976000
  21
 148.06569343066
  31
0.0
   0
ARC
   5
1A8
 100
AcDbEntity
   8
LEVEL001
 370
25
   6
CONTINUOUS
  62
3
 100
AcDbCircle
  10
 636.28710434955
  20
 147.26569341875
  30
0.0
  40
 0.80000001192093
 100
AcDbArc
  50
 90.000328702434
  51
 180.00021771322
   0
LINE
   5
1A9
 100
AcDbEntity
   8
LEVEL001
 370
25
 100
AcDbLine
   6
CONTINUOUS
  62
3
  10
 635.48710433763
  20
 147.26569037890
  30
0.0
  11
 635.48710433763
  21
 140.06569343066
  31
0.0
   0
LINE
   5
1AA
 100
AcDbEntity
   8
LEVEL001
 370
25
 100
AcDbLine
   6
CONTINUOUS
  62
3
  10
 648.48710433763
  20
 140.06569343066
  30
0.0
  11
 648.48710433763
  21
 147.26569037890
  31
0.0
   0
LWPOLYLINE
   5
1AB
 100
AcDbEntity
   8
LEVEL001
 370
25
   6
CONTINUOUS
  62
3
 100
AcDbPolyline
  90
4
  70
0
  10
 634.28710738939
  20
 138.06569343066
  10
 634.28710738939
  20
 140.06569343066
  10
 649.68710891527
  20
 140.06569343066
  10
 649.68710891527
  20
 138.06569343066
   0
LINE
   5
1AC
 100
AcDbEntity
   8
LEVEL001
 370
25
 100
AcDbLine
   6
CONTINUOUS
  62
3
  10
 641.98710433763
  20
 138.06569343066
  30
0.0
  11
 640.83240310472
  21
 140.06569343066
  31
0.0
   0
LINE
   5
1AD
 100
AcDbEntity
   8
LEVEL001
 370
25
 100
AcDbLine
   6
CONTINUOUS
  62
3
  10
 641.98710433763
  20
 140.06569343066
  30
0.0
  11
 643.14180557054
  21
 138.06569343066
  31
0.0
   0
ENDBLK
   5
1AE
 100
AcDbEntity
   8
0
 100
AcDbBlockEnd
   0
BLOCK
   5
1AF
 100
AcDbEntity
   8
0
 100
AcDbBlockBegin
   2
BLOCK015
  70
64
  10
0.0
  20
0.0
  30
0.0
   3
BLOCK015
   0
LINE
   5
1B0
 100
AcDbEntity
   8
LEVEL001
 370
25
 100
AcDbLine
   6
DASHDOT
  62
3
  10
 78.599062133646
  20
 151.28576652476
  30
0.0
  11
 78.599062133646
  21
 121.78000662393
  31
0.0
   0
LWPOLYLINE
   5
1B1
 100
AcDbEntity
   8
LEVEL001
 370
40
   6
CONTINUOUS
  62
7
 100
AcDbPolyline
  90
4
  70
0
  10
 93.599062133646
  20
 144.06569343066
  10
 93.599062133646
  20
 129.06569343066
  10
 63.599062133646
  20
 129.06569343066
  10
 63.599062133646
  20
 144.06569343066
   0
LWPOLYLINE
   5
1B2
 100
AcDbEntity
   8
LEVEL001
 370
40
   6
CONTINUOUS
  62
7
 100
AcDbPolyline
  90
4
  70
0
  10
 69.599062133646
  20
 312.06569343066
  10
 69.599062133646
  20
 316.06569343066
  10
 247.59906213365
  20
 316.06569343066
  10
 247.59906213365
  20
 312.06569343066
   0
LWPOLYLINE
   5
1B3
 100
AcDbEntity
   8
LEVEL001
 370
40
   6
CONTINUOUS
  62
7
 100
AcDbPolyline
  90
4
  70
1
  10
 48.599062133646
  20
 144.06569343066
  10
 268.59906213365
  20
 144.06569343066
  10
 268.59906213365
  20
 186.06569343066
  10
 48.599062133646
  20
 186.06569343066
   0
LWPOLYLINE
   5
1B4
 100
AcDbEntity
   8
LEVEL001
 370
40
   6
CONTINUOUS
  62
7
 100
AcDbPolyline
  90
4
  70
0
  10
 53.599062133646
  20
 186.06569343066
  10
 53.599062133646
  20
 312.06569343066
  10
 263.59906213365
  20
 312.06569343066
  10
 263.59906213365
  20
 186.06569343066
   0
LINE
   5
1B5
 100
AcDbEntity
   8
LEVEL001
 370
25
 100
AcDbLine
   6
DASHDOT
  62
3
  10
 238.59906213365
  20
 151.28576652476
  30
0.0
  11
 238.59906213365
  21
 121.78000662393
  31
0.0
   0
LWPOLYLINE
   5
1B6
 100
AcDbEntity
   8
LEVEL001
 370
40
   6
CONTINUOUS
  62
7
 100
AcDbPolyline
  90
4
  70
0
  10
 223.59906213365
  20
 144.06569343066
  10
 223.59906213365
  20
 129.06569343066
  10
 253.59906213365
  20
 129.06569343066
  10
 253.59906213365
  20
 144.06569343066
   0
ENDBLK
   5
1B7
 100
AcDbEntity
   8
0
 100
AcDbBlockEnd
   0
BLOCK
   5
1B8
 100
AcDbEntity
   8
0
 100
AcDbBlockBegin
   2
BLOCK016
  70
64
  10
0.0
  20
0.0
  30
0.0
   3
BLOCK016
   0
LWPOLYLINE
   5
1B9
 100
AcDbEntity
   8
LEVEL001
 370
40
   6
CONTINUOUS
  62
7
 100
AcDbPolyline
  90
4
  70
0
  10
 248.59906213365
  20
 334.56569343066
  10
 248.59906213365
  20
 328.06569343066
  10
 53.599062133646
  20
 328.06569343066
  10
 53.599062133572
  20
 355.71043027276
   0
LWPOLYLINE
   5
1BA
 100
AcDbEntity
   8
LEVEL001
 370
40
   6
CONTINUOUS
  62
7
 100
AcDbPolyline
  90
8
  70
0
  10
 23.599062133646
  20
 380.56569343066
  10
 23.599062133646
  20
 354.31569343066
  10
 308.59906213365
  20
 371.81569343066
  10
 308.59906213365
  20
 406.81569343066
  10
-17.650937866354
  20
 406.81569343066
  10
-17.650937866354
  20
 380.56569343066
  10
 216.59906213365
  20
 380.56569343066
  10
 216.59906213365
  20
 406.81569343066
   0
LWPOLYLINE
   5
1BB
 100
AcDbEntity
   8
LEVEL001
 370
40
   6
CONTINUOUS
  62
7
 100
AcDbPolyline
  90
4
  70
1
  10
 69.599062133646
  20
 316.06569343066
  10
 247.59906213365
  20
 316.06569343066
  10
 247.59906213365
  20
 328.06569343066
  10
 69.599062133646
  20
 328.06569343066
   0
LWPOLYLINE
   5
1BC
 100
AcDbEntity
   8
LEVEL001
 370
40
   6
CONTINUOUS
  62
7
 100
AcDbPolyline
  90
3
  70
0
  10
 158.59906213365
  20
 328.06569343066
  10
 278.59906213365
  20
 336.81569343066
  10
 278.59906213365
  20
 369.92095658855
   0
ENDBLK
   5
1BD
 100
AcDbEntity
   8
0
 100
AcDbBlockEnd
   0
BLOCK
   5
1BE
 100
AcDbEntity
   8
0
 100
AcDbBlockBegin
   2
*D12
  70
65
  10
0.0
  20
0.0
  30
0.0
   3
*D12
   0
LINE
   5
1BF
 100
AcDbEntity
   8
LEVEL001
 370
25
 100
AcDbLine
   6
CONTINUOUS
  62
3
  10
 158.59906213365
  20
 445.91102149661
  30
0.0
  11
 158.59906213365
  21
 461.58328112500
  31
0.0
   0
LINE
   5
1C0
 100
AcDbEntity
   8
LEVEL001
 370
25
 100
AcDbLine
   6
CONTINUOUS
  62
3
  10
 158.59906213365
  20
 451.58328112500
  30
0.0
  11
 188.59906213365
  21
 451.58328112500
  31
0.0
   0
LINE
   5
1C1
 100
AcDbEntity
   8
LEVEL001
 370
25
 100
AcDbLine
   6
CONTINUOUS
  62
3
  10
 218.59906213365
  20
 451.58328112500
  30
0.0
  11
 188.59906213365
  21
 451.58328112500
  31
0.0
   0
INSERT
   5
1C2
 100
AcDbEntity
   8
LEVEL001
   6
CONTINUOUS
  62
3
 100
AcDbBlockReference
   2
_OPEN30
  10
 158.59906213365
  20
 451.58328112500
  30
0.0
  41
 10.000000000000
  42
 10.000000000000
  43
 10.000000000000
  50
 180.00000000000
   0
INSERT
   5
1C3
 100
AcDbEntity
   8
LEVEL001
   6
CONTINUOUS
  62
3
 100
AcDbBlockReference
   2
_OPEN30
  10
 218.59906213365
  20
 451.58328112500
  30
0.0
  41
 10.000000000000
  42
 10.000000000000
  43
 10.000000000000
  50
0.0
   0
MTEXT
   5
1C4
 100
AcDbEntity
   8
LEVEL001
 370
40
  62
7
 100
AcDbMText
  10
 188.59906213365
  20
 456.94042398214
  30
0.0
  40
 12.500000000000
  41
0.0
  71
8
  72
1
   1
\A1;６０
   7
GMM003
   0
ENDBLK
   5
1C5
 100
AcDbEntity
   8
0
 100
AcDbBlockEnd
   0
BLOCK
   5
1C6
 100
AcDbEntity
   8
0
 100
AcDbBlockBegin
   2
*D13
  70
65
  10
0.0
  20
0.0
  30
0.0
   3
*D13
   0
LINE
   5
1C7
 100
AcDbEntity
   8
LEVEL001
 370
25
 100
AcDbLine
   6
CONTINUOUS
  62
3
  10
 218.59906213365
  20
 385.06569343066
  30
0.0
  11
 218.59906213365
  21
 461.58328112500
  31
0.0
   0
LINE
   5
1C8
 100
AcDbEntity
   8
LEVEL001
 370
25
 100
AcDbLine
   6
CONTINUOUS
  62
3
  10
 518.59906213365
  20
 385.06569343066
  30
0.0
  11
 518.59906213365
  21
 461.58328112500
  31
0.0
   0
LINE
   5
1C9
 100
AcDbEntity
   8
LEVEL001
 370
25
 100
AcDbLine
   6
CONTINUOUS
  62
3
  10
 218.59906213365
  20
 451.58328112500
  30
0.0
  11
 368.59906213365
  21
 451.58328112500
  31
0.0
   0
LINE
   5
1CA
 100
AcDbEntity
   8
LEVEL001
 370
25
 100
AcDbLine
   6
CONTINUOUS
  62
3
  10
 518.59906213365
  20
 451.58328112500
  30
0.0
  11
 368.59906213365
  21
 451.58328112500
  31
0.0
   0
INSERT
   5
1CB
 100
AcDbEntity
   8
LEVEL001
   6
CONTINUOUS
  62
3
 100
AcDbBlockReference
   2
_OPEN30
  10
 218.59906213365
  20
 451.58328112500
  30
0.0
  41
 10.000000000000
  42
 10.000000000000
  43
 10.000000000000
  50
 180.00000000000
   0
INSERT
   5
1CC
 100
AcDbEntity
   8
LEVEL001
   6
CONTINUOUS
  62
3
 100
AcDbBlockReference
   2
_OPEN30
  10
 518.59906213365
  20
 451.58328112500
  30
0.0
  41
 10.000000000000
  42
 10.000000000000
  43
 10.000000000000
  50
0.0
   0
MTEXT
   5
1CD
 100
AcDbEntity
   8
LEVEL001
 370
40
  62
7
 100
AcDbMText
  10
 368.59906213365
  20
 456.94042398214
  30
0.0
  40
 12.500000000000
  41
0.0
  71
8
  72
1
   1
\A1;３００
   7
GMM003
   0
ENDBLK
   5
1CE
 100
AcDbEntity
   8
0
 100
AcDbBlockEnd
   0
BLOCK
   5
1CF
 100
AcDbEntity
   8
0
 100
AcDbBlockBegin
   2
BLOCK017
  70
64
  10
0.0
  20
0.0
  30
0.0
   3
BLOCK017
   0
LWPOLYLINE
   5
1D0
 100
AcDbEntity
   8
LEVEL001
 370
40
   6
CONTINUOUS
  62
7
 100
AcDbPolyline
  90
4
  70
0
  10
 268.59906213365
  20
 291.06569343066
  10
 216.59906213365
  20
 291.06569343066
  10
 216.59906213365
  20
 279.06569343066
  10
 268.59906213365
  20
 279.06569343066
   0
LWPOLYLINE
   5
1D1
 100
AcDbEntity
   8
LEVEL001
 370
40
   6
CONTINUOUS
  62
7
 100
AcDbPolyline
  90
4
  70
1
  10
 256.59906213365
  20
 341.06569343066
  10
 176.59906213365
  20
 341.06569343066
  10
 176.59906213365
  20
 291.06569343066
  10
 256.59906213365
  20
 291.06569343066
   0
LWPOLYLINE
   5
1D2
 100
AcDbEntity
   8
LEVEL001
 370
40
   6
CONTINUOUS
  62
7
 100
AcDbPolyline
  90
5
  70
1
  10
 268.59906213365
  20
 279.06569343066
  10
 268.59906213365
  20
 341.06569343066
  10
 398.59906213365
  20
 341.06569343066
  10
 408.59906213365
  20
 291.06569343066
  10
 408.59906213365
  20
 279.06569343066
   0
LWPOLYLINE
   5
1D3
 100
AcDbEntity
   8
LEVEL001
 370
40
   6
CONTINUOUS
  62
7
 100
AcDbPolyline
  90
4
  70
1
  10
 268.59906213365
  20
 345.06569343066
  10
 398.59906213365
  20
 345.06569343066
  10
 398.59906213365
  20
 364.06569343066
  10
 268.59906213365
  20
 364.06569343066
   0
LINE
   5
1D4
 100
AcDbEntity
   8
LEVEL001
 370
25
 100
AcDbLine
   6
DOT
  62
3
  10
 268.59906213365
  20
 362.06569343066
  30
0.0
  11
 398.59906213365
  21
 362.06569343066
  31
0.0
   0
LINE
   5
1D5
 100
AcDbEntity
   8
LEVEL001
 370
25
 100
AcDbLine
   6
DASHDOT
  62
3
  10
 258.59906213365
  20
 286.33990723183
  30
0.0
  11
 258.59906213365
  21
 245.96634325327
  31
0.0
   0
LWPOLYLINE
   5
1D6
 100
AcDbEntity
   8
LEVEL001
 370
25
   6
CONTINUOUS
  62
3
 100
AcDbPolyline
  90
4
  70
0
  10
 251.09906213365
  20
 279.06569343066
  10
 251.09906213365
  20
 277.46569343066
  10
 266.09906213365
  20
 277.46569343066
  10
 266.09906213365
  20
 279.06569343066
   0
LWPOLYLINE
   5
1D7
 100
AcDbEntity
   8
LEVEL001
 370
25
   6
CONTINUOUS
  62
3
 100
AcDbPolyline
  90
4
  70
1
  10
 251.09906213365
  20
 264.06569343066
  10
 266.09906213365
  20
 264.06569343066
  10
 266.09906213365
  20
 265.66569343066
  10
 251.09906213365
  20
 265.66569343066
   0
ARC
   5
1D8
 100
AcDbEntity
   8
LEVEL001
 370
25
   6
CONTINUOUS
  62
3
 100
AcDbCircle
  10
 251.09906213365
  20
 275.96569343066
  30
0.0
  40
 1.5000000000000
 100
AcDbArc
  50
0.0
  51
 90.000000000000
   0
ARC
   5
1D9
 100
AcDbEntity
   8
LEVEL001
 370
25
   6
CONTINUOUS
  62
3
 100
AcDbCircle
  10
 251.09906213365
  20
 267.16569343066
  30
0.0
  40
 1.5000000000000
 100
AcDbArc
  50
 270.00000000000
  51
0.0
   0
ARC
   5
1DA
 100
AcDbEntity
   8
LEVEL001
 370
25
   6
CONTINUOUS
  62
3
 100
AcDbCircle
  10
 266.09906213365
  20
 275.96569343066
  30
0.0
  40
 1.5000000000000
 100
AcDbArc
  50
 90.000000000000
  51
 180.00000000000
   0
ARC
   5
1DB
 100
AcDbEntity
   8
LEVEL001
 370
25
   6
CONTINUOUS
  62
3
 100
AcDbCircle
  10
 266.09906213365
  20
 267.16569343066
  30
0.0
  40
 1.5000000000000
 100
AcDbArc
  50
 180.00000000000
  51
 270.00000000000
   0
LINE
   5
1DC
 100
AcDbEntity
   8
LEVEL001
 370
25
 100
AcDbLine
   6
CONTINUOUS
  62
3
  10
 252.59906213365
  20
 275.96569343066
  30
0.0
  11
 252.59906213365
  21
 267.16569343066
  31
0.0
   0
LINE
   5
1DD
 100
AcDbEntity
   8
LEVEL001
 370
25
 100
AcDbLine
   6
CONTINUOUS
  62
3
  10
 264.59906213365
  20
 275.96569343066
  30
0.0
  11
 264.59906213365
  21
 267.16569343066
  31
0.0
   0
LINE
   5
1DE
 100
AcDbEntity
   8
LEVEL001
 370
25
 100
AcDbLine
   6
CONTINUOUS
  62
3
  10
 255.13496051854
  20
 249.76569343066
  30
0.0
  11
 262.06316374877
  21
 249.76569343077
  31
0.0
   0
LINE
   5
1DF
 100
AcDbEntity
   8
LEVEL001
 370
25
 100
AcDbLine
   6
CONTINUOUS
  62
3
  10
 260.90846321040
  20
 250.29529861506
  30
0.0
  11
 260.90846321028
  21
 253.76569343074
  31
0.0
   0
LINE
   5
1E0
 100
AcDbEntity
   8
LEVEL001
 370
25
 100
AcDbLine
   6
CONTINUOUS
  62
3
  10
 256.28966105690
  20
 250.29529861506
  30
0.0
  11
 256.28966105690
  21
 253.76569343066
  31
0.0
   0
LINE
   5
1E1
 100
AcDbEntity
   8
LEVEL001
 370
25
 100
AcDbLine
   6
CONTINUOUS
  62
3
  10
 253.98025998014
  20
 253.76569343066
  30
0.0
  11
 253.98025998014
  21
 250.29529861506
  31
0.0
   0
LINE
   5
1E2
 100
AcDbEntity
   8
LEVEL001
 370
25
 100
AcDbLine
   6
CONTINUOUS
  62
3
  10
 263.21786428716
  20
 250.29529861506
  30
0.0
  11
 263.21786428704
  21
 253.76569343081
  31
0.0
   0
ARC
   5
1E3
 100
AcDbEntity
   8
LEVEL001
 370
25
   6
CONTINUOUS
  62
3
 100
AcDbCircle
  10
 262.06316374878
  20
 251.28929538223
  30
0.0
  40
 1.5236019514599
 100
AcDbArc
  50
 220.72274008149
  51
 319.27725991851
   0
ARC
   5
1E4
 100
AcDbEntity
   8
LEVEL001
 370
25
   6
CONTINUOUS
  62
3
 100
AcDbCircle
  10
 258.59906213365
  20
 255.06569343066
  30
0.0
  40
 5.2999999999413
 100
AcDbArc
  50
 244.16786074098
  51
 295.83213925906
   0
ARC
   5
1E5
 100
AcDbEntity
   8
LEVEL001
 370
25
   6
CONTINUOUS
  62
3
 100
AcDbCircle
  10
 255.13496051852
  20
 251.28929538223
  30
0.0
  40
 1.5236019514599
 100
AcDbArc
  50
 220.72274008149
  51
 319.27725991851
   0
LWPOLYLINE
   5
1E6
 100
AcDbEntity
   8
LEVEL001
 370
25
   6
CONTINUOUS
  62
3
 100
AcDbPolyline
  90
4
  70
0
  10
 253.98025998014
  20
 255.06569343066
  10
 253.98025998014
  20
 253.76569343066
  10
 263.21786428704
  20
 253.76569343081
  10
 263.21786428717
  20
 255.06569343066
   0
LINE
   5
1E7
 100
AcDbEntity
   8
LEVEL001
 370
25
 100
AcDbLine
   6
CONTINUOUS
  62
3
  10
 258.59906213365
  20
 255.06569343066
  30
0.0
  11
 259.34961748359
  21
 253.76569343066
  31
0.0
   0
LINE
   5
1E8
 100
AcDbEntity
   8
LEVEL001
 370
25
 100
AcDbLine
   6
CONTINUOUS
  62
3
  10
 257.84850678364
  20
 255.06569343066
  30
0.0
  11
 258.59906213359
  21
 253.76569343066
  31
0.0
   0
LINE
   5
1E9
 100
AcDbEntity
   8
LEVEL001
 370
25
 100
AcDbLine
   6
CONTINUOUS
  62
3
  10
 261.09906213365
  20
 249.56569343066
  30
0.0
  11
 256.09906213365
  21
 249.56569343066
  31
0.0
   0
LINE
   5
1EA
 100
AcDbEntity
   8
LEVEL001
 370
25
 100
AcDbLine
   6
CONTINUOUS
  62
3
  10
 256.09906213365
  20
 262.06569343066
  30
0.0
  11
 261.09906213365
  21
 262.06569343066
  31
0.0
   0
LINE
   5
1EB
 100
AcDbEntity
   8
LEVEL001
 370
25
 100
AcDbLine
   6
CONTINUOUS
  62
3
  10
 256.59906213365
  20
 262.06569343066
  30
0.0
  11
 256.59906213365
  21
 255.06569343066
  31
0.0
   0
LINE
   5
1EC
 100
AcDbEntity
   8
LEVEL001
 370
25
 100
AcDbLine
   6
CONTINUOUS
  62
3
  10
 256.59906213365
  20
 249.76569343068
  30
0.0
  11
 256.59906213365
  21
 249.06569343066
  31
0.0
   0
LINE
   5
1ED
 100
AcDbEntity
   8
LEVEL001
 370
25
 100
AcDbLine
   6
CONTINUOUS
  62
3
  10
 256.09906213365
  20
 264.06569343066
  30
0.0
  11
 256.09906213365
  21
 255.06569343066
  31
0.0
   0
LINE
   5
1EE
 100
AcDbEntity
   8
LEVEL001
 370
25
 100
AcDbLine
   6
CONTINUOUS
  62
3
  10
 260.59906213365
  20
 249.06569343066
  30
0.0
  11
 260.59906213365
  21
 249.76569343075
  31
0.0
   0
LINE
   5
1EF
 100
AcDbEntity
   8
LEVEL001
 370
25
 100
AcDbLine
   6
CONTINUOUS
  62
3
  10
 260.59906213365
  20
 255.06569343066
  30
0.0
  11
 260.59906213365
  21
 262.06569343066
  31
0.0
   0
LWPOLYLINE
   5
1F0
 100
AcDbEntity
   8
LEVEL001
 370
25
   6
CONTINUOUS
  62
3
 100
AcDbPolyline
  90
6
  70
0
  10
 256.09906213365
  20
 249.76569343067
  10
 256.09906213365
  20
 249.56569343066
  10
 256.59906213365
  20
 249.06569343066
  10
 260.59906213365
  20
 249.06569343066
  10
 261.09906213365
  20
 249.56569343066
  10
 261.09906213365
  20
 249.76569343076
   0
LINE
   5
1F1
 100
AcDbEntity
   8
LEVEL001
 370
25
 100
AcDbLine
   6
CONTINUOUS
  62
3
  10
 261.09906213365
  20
 255.06569343066
  30
0.0
  11
 261.09906213365
  21
 264.06569343066
  31
0.0
   0
LINE
   5
1F2
 100
AcDbEntity
   8
LEVEL001
 370
25
 100
AcDbLine
   6
DASHDOT
  62
3
  10
 398.59906213365
  20
 286.33990723183
  30
0.0
  11
 398.59906213365
  21
 245.96634325327
  31
0.0
   0
LWPOLYLINE
   5
1F3
 100
AcDbEntity
   8
LEVEL001
 370
25
   6
CONTINUOUS
  62
3
 100
AcDbPolyline
  90
4
  70
0
  10
 391.09906213365
  20
 279.06569343066
  10
 391.09906213365
  20
 277.46569343066
  10
 406.09906213365
  20
 277.46569343066
  10
 406.09906213365
  20
 279.06569343066
   0
LWPOLYLINE
   5
1F4
 100
AcDbEntity
   8
LEVEL001
 370
25
   6
CONTINUOUS
  62
3
 100
AcDbPolyline
  90
4
  70
1
  10
 391.09906213365
  20
 264.06569343066
  10
 406.09906213365
  20
 264.06569343066
  10
 406.09906213365
  20
 265.66569343066
  10
 391.09906213365
  20
 265.66569343066
   0
ARC
   5
1F5
 100
AcDbEntity
   8
LEVEL001
 370
25
   6
CONTINUOUS
  62
3
 100
AcDbCircle
  10
 391.09906213365
  20
 275.96569343066
  30
0.0
  40
 1.5000000000000
 100
AcDbArc
  50
0.0
  51
 90.000000000000
   0
ARC
   5
1F6
 100
AcDbEntity
   8
LEVEL001
 370
25
   6
CONTINUOUS
  62
3
 100
AcDbCircle
  10
 391.09906213365
  20
 267.16569343066
  30
0.0
  40
 1.5000000000000
 100
AcDbArc
  50
 270.00000000000
  51
0.0
   0
ARC
   5
1F7
 100
AcDbEntity
   8
LEVEL001
 370
25
   6
CONTINUOUS
  62
3
 100
AcDbCircle
  10
 406.09906213365
  20
 275.96569343066
  30
0.0
  40
 1.5000000000000
 100
AcDbArc
  50
 90.000000000000
  51
 180.00000000000
   0
ARC
   5
1F8
 100
AcDbEntity
   8
LEVEL001
 370
25
   6
CONTINUOUS
  62
3
 100
AcDbCircle
  10
 406.09906213365
  20
 267.16569343066
  30
0.0
  40
 1.5000000000000
 100
AcDbArc
  50
 180.00000000000
  51
 270.00000000000
   0
LINE
   5
1F9
 100
AcDbEntity
   8
LEVEL001
 370
25
 100
AcDbLine
   6
CONTINUOUS
  62
3
  10
 392.59906213365
  20
 275.96569343066
  30
0.0
  11
 392.59906213365
  21
 267.16569343066
  31
0.0
   0
LINE
   5
1FA
 100
AcDbEntity
   8
LEVEL001
 370
25
 100
AcDbLine
   6
CONTINUOUS
  62
3
  10
 404.59906213365
  20
 275.96569343066
  30
0.0
  11
 404.59906213365
  21
 267.16569343066
  31
0.0
   0
LINE
   5
1FB
 100
AcDbEntity
   8
LEVEL001
 370
25
 100
AcDbLine
   6
CONTINUOUS
  62
3
  10
 395.13496051854
  20
 249.76569343066
  30
0.0
  11
 402.06316374877
  21
 249.76569343077
  31
0.0
   0
LINE
   5
1FC
 100
AcDbEntity
   8
LEVEL001
 370
25
 100
AcDbLine
   6
CONTINUOUS
  62
3
  10
 400.90846321040
  20
 250.29529861506
  30
0.0
  11
 400.90846321028
  21
 253.76569343074
  31
0.0
   0
LINE
   5
1FD
 100
AcDbEntity
   8
LEVEL001
 370
25
 100
AcDbLine
   6
CONTINUOUS
  62
3
  10
 396.28966105690
  20
 250.29529861506
  30
0.0
  11
 396.28966105690
  21
 253.76569343066
  31
0.0
   0
LINE
   5
1FE
 100
AcDbEntity
   8
LEVEL001
 370
25
 100
AcDbLine
   6
CONTINUOUS
  62
3
  10
 393.98025998014
  20
 253.76569343066
  30
0.0
  11
 393.98025998014
  21
 250.29529861506
  31
0.0
   0
LINE
   5
1FF
 100
AcDbEntity
   8
LEVEL001
 370
25
 100
AcDbLine
   6
CONTINUOUS
  62
3
  10
 403.21786428716
  20
 250.29529861506
  30
0.0
  11
 403.21786428704
  21
 253.76569343081
  31
0.0
   0
ARC
   5
200
 100
AcDbEntity
   8
LEVEL001
 370
25
   6
CONTINUOUS
  62
3
 100
AcDbCircle
  10
 402.06316374878
  20
 251.28929538223
  30
0.0
  40
 1.5236019514599
 100
AcDbArc
  50
 220.72274008149
  51
 319.27725991851
   0
ARC
   5
201
 100
AcDbEntity
   8
LEVEL001
 370
25
   6
CONTINUOUS
  62
3
 100
AcDbCircle
  10
 398.59906213365
  20
 255.06569343066
  30
0.0
  40
 5.2999999999413
 100
AcDbArc
  50
 244.16786074098
  51
 295.83213925906
   0
ARC
   5
202
 100
AcDbEntity
   8
LEVEL001
 370
25
   6
CONTINUOUS
  62
3
 100
AcDbCircle
  10
 395.13496051852
  20
 251.28929538223
  30
0.0
  40
 1.5236019514599
 100
AcDbArc
  50
 220.72274008149
  51
 319.27725991851
   0
LWPOLYLINE
   5
203
 100
AcDbEntity
   8
LEVEL001
 370
25
   6
CONTINUOUS
  62
3
 100
AcDbPolyline
  90
4
  70
0
  10
 393.98025998014
  20
 255.06569343066
  10
 393.98025998014
  20
 253.76569343066
  10
 403.21786428704
  20
 253.76569343081
  10
 403.21786428717
  20
 255.06569343066
   0
LINE
   5
204
 100
AcDbEntity
   8
LEVEL001
 370
25
 100
AcDbLine
   6
CONTINUOUS
  62
3
  10
 398.59906213365
  20
 255.06569343066
  30
0.0
  11
 399.34961748359
  21
 253.76569343066
  31
0.0
   0
LINE
   5
205
 100
AcDbEntity
   8
LEVEL001
 370
25
 100
AcDbLine
   6
CONTINUOUS
  62
3
  10
 397.84850678364
  20
 255.06569343066
  30
0.0
  11
 398.59906213359
  21
 253.76569343066
  31
0.0
   0
LINE
   5
206
 100
AcDbEntity
   8
LEVEL001
 370
25
 100
AcDbLine
   6
CONTINUOUS
  62
3
  10
 401.09906213365
  20
 249.56569343066
  30
0.0
  11
 396.09906213365
  21
 249.56569343066
  31
0.0
   0
LINE
   5
207
 100
AcDbEntity
   8
LEVEL001
 370
25
 100
AcDbLine
   6
CONTINUOUS
  62
3
  10
 396.09906213365
  20
 262.06569343066
  30
0.0
  11
 401.09906213365
  21
 262.06569343066
  31
0.0
   0
LINE
   5
208
 100
AcDbEntity
   8
LEVEL001
 370
25
 100
AcDbLine
   6
CONTINUOUS
  62
3
  10
 396.59906213365
  20
 262.06569343066
  30
0.0
  11
 396.59906213365
  21
 255.06569343066
  31
0.0
   0
LINE
   5
209
 100
AcDbEntity
   8
LEVEL001
 370
25
 100
AcDbLine
   6
CONTINUOUS
  62
3
  10
 396.59906213365
  20
 249.76569343068
  30
0.0
  11
 396.59906213365
  21
 249.06569343066
  31
0.0
   0
LINE
   5
20A
 100
AcDbEntity
   8
LEVEL001
 370
25
 100
AcDbLine
   6
CONTINUOUS
  62
3
  10
 396.09906213365
  20
 264.06569343066
  30
0.0
  11
 396.09906213365
  21
 255.06569343066
  31
0.0
   0
LINE
   5
20B
 100
AcDbEntity
   8
LEVEL001
 370
25
 100
AcDbLine
   6
CONTINUOUS
  62
3
  10
 400.59906213365
  20
 249.06569343066
  30
0.0
  11
 400.59906213365
  21
 249.76569343075
  31
0.0
   0
LINE
   5
20C
 100
AcDbEntity
   8
LEVEL001
 370
25
 100
AcDbLine
   6
CONTINUOUS
  62
3
  10
 400.59906213365
  20
 255.06569343066
  30
0.0
  11
 400.59906213365
  21
 262.06569343066
  31
0.0
   0
LWPOLYLINE
   5
20D
 100
AcDbEntity
   8
LEVEL001
 370
25
   6
CONTINUOUS
  62
3
 100
AcDbPolyline
  90
6
  70
0
  10
 396.09906213365
  20
 249.76569343067
  10
 396.09906213365
  20
 249.56569343066
  10
 396.59906213365
  20
 249.06569343066
  10
 400.59906213365
  20
 249.06569343066
  10
 401.09906213365
  20
 249.56569343066
  10
 401.09906213365
  20
 249.76569343076
   0
LINE
   5
20E
 100
AcDbEntity
   8
LEVEL001
 370
25
 100
AcDbLine
   6
CONTINUOUS
  62
3
  10
 401.09906213365
  20
 255.06569343066
  30
0.0
  11
 401.09906213365
  21
 264.06569343066
  31
0.0
   0
ENDBLK
   5
20F
 100
AcDbEntity
   8
0
 100
AcDbBlockEnd
   0
BLOCK
   5
210
 100
AcDbEntity
   8
0
 100
AcDbBlockBegin
   2
*D14
  70
65
  10
0.0
  20
0.0
  30
0.0
   3
*D14
   0
LINE
   5
211
 100
AcDbEntity
   8
LEVEL001
 370
25
 100
AcDbLine
   6
CONTINUOUS
  62
3
  10
 413.59906213365
  20
 117.06569343066
  30
0.0
  11
 500.79627136372
  21
 117.06569343066
  31
0.0
   0
LINE
   5
212
 100
AcDbEntity
   8
LEVEL001
 370
25
 100
AcDbLine
   6
CONTINUOUS
  62
3
  10
 490.79627136372
  20
 117.06569343066
  30
0.0
  11
 490.79627136372
  21
 248.56569343066
  31
0.0
   0
LINE
   5
213
 100
AcDbEntity
   8
LEVEL001
 370
25
 100
AcDbLine
   6
CONTINUOUS
  62
3
  10
 490.79627136372
  20
 380.06569343066
  30
0.0
  11
 490.79627136372
  21
 248.56569343066
  31
0.0
   0
INSERT
   5
214
 100
AcDbEntity
   8
LEVEL001
   6
CONTINUOUS
  62
3
 100
AcDbBlockReference
   2
_OPEN30
  10
 490.79627136372
  20
 117.06569343066
  30
0.0
  41
 10.000000000000
  42
 10.000000000000
  43
 10.000000000000
  50
 270.00000000000
   0
INSERT
   5
215
 100
AcDbEntity
   8
LEVEL001
   6
CONTINUOUS
  62
3
 100
AcDbBlockReference
   2
_OPEN30
  10
 490.79627136372
  20
 380.06569343066
  30
0.0
  41
 10.000000000000
  42
 10.000000000000
  43
 10.000000000000
  50
 90.000000000000
   0
MTEXT
   5
216
 100
AcDbEntity
   8
LEVEL001
 370
40
  62
7
 100
AcDbMText
  10
 485.43912850657
  20
 248.56569343066
  30
0.0
  40
 12.500000000000
  41
0.0
  71
8
  72
1
   1
\A1;（２６３）
   7
GMM003
  11
0.0
  21
 1.0000000000000
  31
0.0
   0
ENDBLK
   5
217
 100
AcDbEntity
   8
0
 100
AcDbBlockEnd
   0
BLOCK
   5
218
 100
AcDbEntity
   8
0
 100
AcDbBlockBegin
   2
BLOCK018
  70
64
  10
0.0
  20
0.0
  30
0.0
   3
BLOCK018
   0
LINE
   5
219
 100
AcDbEntity
   8
LEVEL001
 370
25
 100
AcDbLine
   6
DASHDOT
  62
3
  10
 609.98710433763
  20
 286.33990723183
  30
0.0
  11
 609.98710433763
  21
 245.96634325327
  31
0.0
   0
LWPOLYLINE
   5
21A
 100
AcDbEntity
   8
LEVEL001
 370
25
   6
CONTINUOUS
  62
3
 100
AcDbPolyline
  90
4
  70
0
  10
 602.48710433763
  20
 279.06569343066
  10
 602.48710433763
  20
 277.46569343066
  10
 617.48710433763
  20
 277.46569343066
  10
 617.48710433763
  20
 279.06569343066
   0
LWPOLYLINE
   5
21B
 100
AcDbEntity
   8
LEVEL001
 370
25
   6
CONTINUOUS
  62
3
 100
AcDbPolyline
  90
4
  70
1
  10
 602.48710433763
  20
 264.06569343066
  10
 617.48710433763
  20
 264.06569343066
  10
 617.48710433763
  20
 265.66569343066
  10
 602.48710433763
  20
 265.66569343066
   0
ARC
   5
21C
 100
AcDbEntity
   8
LEVEL001
 370
25
   6
CONTINUOUS
  62
3
 100
AcDbCircle
  10
 602.48710433763
  20
 275.96569343066
  30
0.0
  40
 1.5000000000000
 100
AcDbArc
  50
0.0
  51
 90.000000000000
   0
ARC
   5
21D
 100
AcDbEntity
   8
LEVEL001
 370
25
   6
CONTINUOUS
  62
3
 100
AcDbCircle
  10
 602.48710433763
  20
 267.16569343066
  30
0.0
  40
 1.5000000000000
 100
AcDbArc
  50
 270.00000000000
  51
0.0
   0
ARC
   5
21E
 100
AcDbEntity
   8
LEVEL001
 370
25
   6
CONTINUOUS
  62
3
 100
AcDbCircle
  10
 617.48710433763
  20
 275.96569343066
  30
0.0
  40
 1.5000000000000
 100
AcDbArc
  50
 90.000000000000
  51
 180.00000000000
   0
ARC
   5
21F
 100
AcDbEntity
   8
LEVEL001
 370
25
   6
CONTINUOUS
  62
3
 100
AcDbCircle
  10
 617.48710433763
  20
 267.16569343066
  30
0.0
  40
 1.5000000000000
 100
AcDbArc
  50
 180.00000000000
  51
 270.00000000000
   0
LINE
   5
220
 100
AcDbEntity
   8
LEVEL001
 370
25
 100
AcDbLine
   6
CONTINUOUS
  62
3
  10
 603.98710433763
  20
 275.96569343066
  30
0.0
  11
 603.98710433763
  21
 267.16569343066
  31
0.0
   0
LINE
   5
221
 100
AcDbEntity
   8
LEVEL001
 370
25
 100
AcDbLine
   6
CONTINUOUS
  62
3
  10
 615.98710433763
  20
 275.96569343066
  30
0.0
  11
 615.98710433763
  21
 267.16569343066
  31
0.0
   0
LINE
   5
222
 100
AcDbEntity
   8
LEVEL001
 370
25
 100
AcDbLine
   6
CONTINUOUS
  62
3
  10
 606.52300272253
  20
 249.76569343066
  30
0.0
  11
 613.45120595276
  21
 249.76569343077
  31
0.0
   0
LINE
   5
223
 100
AcDbEntity
   8
LEVEL001
 370
25
 100
AcDbLine
   6
CONTINUOUS
  62
3
  10
 612.29650541438
  20
 250.29529861506
  30
0.0
  11
 612.29650541427
  21
 253.76569343074
  31
0.0
   0
LINE
   5
224
 100
AcDbEntity
   8
LEVEL001
 370
25
 100
AcDbLine
   6
CONTINUOUS
  62
3
  10
 607.67770326089
  20
 250.29529861506
  30
0.0
  11
 607.67770326088
  21
 253.76569343066
  31
0.0
   0
LINE
   5
225
 100
AcDbEntity
   8
LEVEL001
 370
25
 100
AcDbLine
   6
CONTINUOUS
  62
3
  10
 605.36830218413
  20
 253.76569343066
  30
0.0
  11
 605.36830218413
  21
 250.29529861506
  31
0.0
   0
LINE
   5
226
 100
AcDbEntity
   8
LEVEL001
 370
25
 100
AcDbLine
   6
CONTINUOUS
  62
3
  10
 614.60590649114
  20
 250.29529861506
  30
0.0
  11
 614.60590649102
  21
 253.76569343081
  31
0.0
   0
ARC
   5
227
 100
AcDbEntity
   8
LEVEL001
 370
25
   6
CONTINUOUS
  62
3
 100
AcDbCircle
  10
 613.45120595276
  20
 251.28929538223
  30
0.0
  40
 1.5236019514599
 100
AcDbArc
  50
 220.72274008149
  51
 319.27725991851
   0
ARC
   5
228
 100
AcDbEntity
   8
LEVEL001
 370
25
   6
CONTINUOUS
  62
3
 100
AcDbCircle
  10
 609.98710433763
  20
 255.06569343066
  30
0.0
  40
 5.2999999999413
 100
AcDbArc
  50
 244.16786074098
  51
 295.83213925906
   0
ARC
   5
229
 100
AcDbEntity
   8
LEVEL001
 370
25
   6
CONTINUOUS
  62
3
 100
AcDbCircle
  10
 606.52300272250
  20
 251.28929538223
  30
0.0
  40
 1.5236019514599
 100
AcDbArc
  50
 220.72274008149
  51
 319.27725991851
   0
LWPOLYLINE
   5
22A
 100
AcDbEntity
   8
LEVEL001
 370
25
   6
CONTINUOUS
  62
3
 100
AcDbPolyline
  90
4
  70
0
  10
 605.36830218413
  20
 255.06569343066
  10
 605.36830218413
  20
 253.76569343066
  10
 614.60590649102
  20
 253.76569343081
  10
 614.60590649116
  20
 255.06569343066
   0
LINE
   5
22B
 100
AcDbEntity
   8
LEVEL001
 370
25
 100
AcDbLine
   6
CONTINUOUS
  62
3
  10
 609.98710433763
  20
 255.06569343066
  30
0.0
  11
 610.73765968758
  21
 253.76569343066
  31
0.0
   0
LINE
   5
22C
 100
AcDbEntity
   8
LEVEL001
 370
25
 100
AcDbLine
   6
CONTINUOUS
  62
3
  10
 609.23654898763
  20
 255.06569343066
  30
0.0
  11
 609.98710433758
  21
 253.76569343066
  31
0.0
   0
LINE
   5
22D
 100
AcDbEntity
   8
LEVEL001
 370
25
 100
AcDbLine
   6
CONTINUOUS
  62
3
  10
 612.48710433763
  20
 249.56569343066
  30
0.0
  11
 607.48710433763
  21
 249.56569343066
  31
0.0
   0
LINE
   5
22E
 100
AcDbEntity
   8
LEVEL001
 370
25
 100
AcDbLine
   6
CONTINUOUS
  62
3
  10
 607.48710433763
  20
 262.06569343066
  30
0.0
  11
 612.48710433763
  21
 262.06569343066
  31
0.0
   0
LINE
   5
22F
 100
AcDbEntity
   8
LEVEL001
 370
25
 100
AcDbLine
   6
CONTINUOUS
  62
3
  10
 607.98710433763
  20
 262.06569343066
  30
0.0
  11
 607.98710433763
  21
 255.06569343066
  31
0.0
   0
LINE
   5
230
 100
AcDbEntity
   8
LEVEL001
 370
25
 100
AcDbLine
   6
CONTINUOUS
  62
3
  10
 607.98710433763
  20
 249.76569343068
  30
0.0
  11
 607.98710433763
  21
 249.06569343066
  31
0.0
   0
LINE
   5
231
 100
AcDbEntity
   8
LEVEL001
 370
25
 100
AcDbLine
   6
CONTINUOUS
  62
3
  10
 607.48710433763
  20
 264.06569343066
  30
0.0
  11
 607.48710433763
  21
 255.06569343066
  31
0.0
   0
LINE
   5
232
 100
AcDbEntity
   8
LEVEL001
 370
25
 100
AcDbLine
   6
CONTINUOUS
  62
3
  10
 611.98710433763
  20
 249.06569343066
  30
0.0
  11
 611.98710433763
  21
 249.76569343075
  31
0.0
   0
LINE
   5
233
 100
AcDbEntity
   8
LEVEL001
 370
25
 100
AcDbLine
   6
CONTINUOUS
  62
3
  10
 611.98710433763
  20
 255.06569343066
  30
0.0
  11
 611.98710433763
  21
 262.06569343066
  31
0.0
   0
LWPOLYLINE
   5
234
 100
AcDbEntity
   8
LEVEL001
 370
25
   6
CONTINUOUS
  62
3
 100
AcDbPolyline
  90
6
  70
0
  10
 607.48710433763
  20
 249.76569343067
  10
 607.48710433763
  20
 249.56569343066
  10
 607.98710433763
  20
 249.06569343066
  10
 611.98710433763
  20
 249.06569343066
  10
 612.48710433763
  20
 249.56569343066
  10
 612.48710433763
  20
 249.76569343076
   0
LINE
   5
235
 100
AcDbEntity
   8
LEVEL001
 370
25
 100
AcDbLine
   6
CONTINUOUS
  62
3
  10
 612.48710433763
  20
 255.06569343066
  30
0.0
  11
 612.48710433763
  21
 264.06569343066
  31
0.0
   0
LINE
   5
236
 100
AcDbEntity
   8
LEVEL001
 370
25
 100
AcDbLine
   6
DASHDOT
  62
3
  10
 643.98710433763
  20
 286.33990723183
  30
0.0
  11
 643.98710433763
  21
 245.96634325327
  31
0.0
   0
LWPOLYLINE
   5
237
 100
AcDbEntity
   8
LEVEL001
 370
25
   6
CONTINUOUS
  62
3
 100
AcDbPolyline
  90
4
  70
0
  10
 636.48710433763
  20
 279.06569343066
  10
 636.48710433763
  20
 277.46569343066
  10
 651.48710433763
  20
 277.46569343066
  10
 651.48710433763
  20
 279.06569343066
   0
LWPOLYLINE
   5
238
 100
AcDbEntity
   8
LEVEL001
 370
25
   6
CONTINUOUS
  62
3
 100
AcDbPolyline
  90
4
  70
1
  10
 636.48710433763
  20
 264.06569343066
  10
 651.48710433763
  20
 264.06569343066
  10
 651.48710433763
  20
 265.66569343066
  10
 636.48710433763
  20
 265.66569343066
   0
ARC
   5
239
 100
AcDbEntity
   8
LEVEL001
 370
25
   6
CONTINUOUS
  62
3
 100
AcDbCircle
  10
 636.48710433763
  20
 275.96569343066
  30
0.0
  40
 1.5000000000000
 100
AcDbArc
  50
0.0
  51
 90.000000000000
   0
ARC
   5
23A
 100
AcDbEntity
   8
LEVEL001
 370
25
   6
CONTINUOUS
  62
3
 100
AcDbCircle
  10
 636.48710433763
  20
 267.16569343066
  30
0.0
  40
 1.5000000000000
 100
AcDbArc
  50
 270.00000000000
  51
0.0
   0
ARC
   5
23B
 100
AcDbEntity
   8
LEVEL001
 370
25
   6
CONTINUOUS
  62
3
 100
AcDbCircle
  10
 651.48710433763
  20
 275.96569343066
  30
0.0
  40
 1.5000000000000
 100
AcDbArc
  50
 90.000000000000
  51
 180.00000000000
   0
ARC
   5
23C
 100
AcDbEntity
   8
LEVEL001
 370
25
   6
CONTINUOUS
  62
3
 100
AcDbCircle
  10
 651.48710433763
  20
 267.16569343066
  30
0.0
  40
 1.5000000000000
 100
AcDbArc
  50
 180.00000000000
  51
 270.00000000000
   0
LINE
   5
23D
 100
AcDbEntity
   8
LEVEL001
 370
25
 100
AcDbLine
   6
CONTINUOUS
  62
3
  10
 637.98710433763
  20
 275.96569343066
  30
0.0
  11
 637.98710433763
  21
 267.16569343066
  31
0.0
   0
LINE
   5
23E
 100
AcDbEntity
   8
LEVEL001
 370
25
 100
AcDbLine
   6
CONTINUOUS
  62
3
  10
 649.98710433763
  20
 275.96569343066
  30
0.0
  11
 649.98710433763
  21
 267.16569343066
  31
0.0
   0
LINE
   5
23F
 100
AcDbEntity
   8
LEVEL001
 370
25
 100
AcDbLine
   6
CONTINUOUS
  62
3
  10
 640.52300272253
  20
 249.76569343066
  30
0.0
  11
 647.45120595276
  21
 249.76569343077
  31
0.0
   0
LINE
   5
240
 100
AcDbEntity
   8
LEVEL001
 370
25
 100
AcDbLine
   6
CONTINUOUS
  62
3
  10
 646.29650541438
  20
 250.29529861506
  30
0.0
  11
 646.29650541427
  21
 253.76569343074
  31
0.0
   0
LINE
   5
241
 100
AcDbEntity
   8
LEVEL001
 370
25
 100
AcDbLine
   6
CONTINUOUS
  62
3
  10
 641.67770326089
  20
 250.29529861506
  30
0.0
  11
 641.67770326088
  21
 253.76569343066
  31
0.0
   0
LINE
   5
242
 100
AcDbEntity
   8
LEVEL001
 370
25
 100
AcDbLine
   6
CONTINUOUS
  62
3
  10
 639.36830218413
  20
 253.76569343066
  30
0.0
  11
 639.36830218413
  21
 250.29529861506
  31
0.0
   0
LINE
   5
243
 100
AcDbEntity
   8
LEVEL001
 370
25
 100
AcDbLine
   6
CONTINUOUS
  62
3
  10
 648.60590649114
  20
 250.29529861506
  30
0.0
  11
 648.60590649102
  21
 253.76569343081
  31
0.0
   0
ARC
   5
244
 100
AcDbEntity
   8
LEVEL001
 370
25
   6
CONTINUOUS
  62
3
 100
AcDbCircle
  10
 647.45120595276
  20
 251.28929538223
  30
0.0
  40
 1.5236019514599
 100
AcDbArc
  50
 220.72274008149
  51
 319.27725991851
   0
ARC
   5
245
 100
AcDbEntity
   8
LEVEL001
 370
25
   6
CONTINUOUS
  62
3
 100
AcDbCircle
  10
 643.98710433763
  20
 255.06569343066
  30
0.0
  40
 5.2999999999413
 100
AcDbArc
  50
 244.16786074098
  51
 295.83213925906
   0
ARC
   5
246
 100
AcDbEntity
   8
LEVEL001
 370
25
   6
CONTINUOUS
  62
3
 100
AcDbCircle
  10
 640.52300272250
  20
 251.28929538223
  30
0.0
  40
 1.5236019514599
 100
AcDbArc
  50
 220.72274008149
  51
 319.27725991851
   0
LWPOLYLINE
   5
247
 100
AcDbEntity
   8
LEVEL001
 370
25
   6
CONTINUOUS
  62
3
 100
AcDbPolyline
  90
4
  70
0
  10
 639.36830218413
  20
 255.06569343066
  10
 639.36830218413
  20
 253.76569343066
  10
 648.60590649102
  20
 253.76569343081
  10
 648.60590649116
  20
 255.06569343066
   0
LINE
   5
248
 100
AcDbEntity
   8
LEVEL001
 370
25
 100
AcDbLine
   6
CONTINUOUS
  62
3
  10
 643.98710433763
  20
 255.06569343066
  30
0.0
  11
 644.73765968758
  21
 253.76569343066
  31
0.0
   0
LINE
   5
249
 100
AcDbEntity
   8
LEVEL001
 370
25
 100
AcDbLine
   6
CONTINUOUS
  62
3
  10
 643.23654898763
  20
 255.06569343066
  30
0.0
  11
 643.98710433758
  21
 253.76569343066
  31
0.0
   0
LINE
   5
24A
 100
AcDbEntity
   8
LEVEL001
 370
25
 100
AcDbLine
   6
CONTINUOUS
  62
3
  10
 646.48710433763
  20
 249.56569343066
  30
0.0
  11
 641.48710433763
  21
 249.56569343066
  31
0.0
   0
LINE
   5
24B
 100
AcDbEntity
   8
LEVEL001
 370
25
 100
AcDbLine
   6
CONTINUOUS
  62
3
  10
 641.48710433763
  20
 262.06569343066
  30
0.0
  11
 646.48710433763
  21
 262.06569343066
  31
0.0
   0
LINE
   5
24C
 100
AcDbEntity
   8
LEVEL001
 370
25
 100
AcDbLine
   6
CONTINUOUS
  62
3
  10
 641.98710433763
  20
 262.06569343066
  30
0.0
  11
 641.98710433763
  21
 255.06569343066
  31
0.0
   0
LINE
   5
24D
 100
AcDbEntity
   8
LEVEL001
 370
25
 100
AcDbLine
   6
CONTINUOUS
  62
3
  10
 641.98710433763
  20
 249.76569343068
  30
0.0
  11
 641.98710433763
  21
 249.06569343066
  31
0.0
   0
LINE
   5
24E
 100
AcDbEntity
   8
LEVEL001
 370
25
 100
AcDbLine
   6
CONTINUOUS
  62
3
  10
 641.48710433763
  20
 264.06569343066
  30
0.0
  11
 641.48710433763
  21
 255.06569343066
  31
0.0
   0
LINE
   5
24F
 100
AcDbEntity
   8
LEVEL001
 370
25
 100
AcDbLine
   6
CONTINUOUS
  62
3
  10
 645.98710433763
  20
 249.06569343066
  30
0.0
  11
 645.98710433763
  21
 249.76569343075
  31
0.0
   0
LINE
   5
250
 100
AcDbEntity
   8
LEVEL001
 370
25
 100
AcDbLine
   6
CONTINUOUS
  62
3
  10
 645.98710433763
  20
 255.06569343066
  30
0.0
  11
 645.98710433763
  21
 262.06569343066
  31
0.0
   0
LWPOLYLINE
   5
251
 100
AcDbEntity
   8
LEVEL001
 370
25
   6
CONTINUOUS
  62
3
 100
AcDbPolyline
  90
6
  70
0
  10
 641.48710433763
  20
 249.76569343067
  10
 641.48710433763
  20
 249.56569343066
  10
 641.98710433763
  20
 249.06569343066
  10
 645.98710433763
  20
 249.06569343066
  10
 646.48710433763
  20
 249.56569343066
  10
 646.48710433763
  20
 249.76569343076
   0
LINE
   5
252
 100
AcDbEntity
   8
LEVEL001
 370
25
 100
AcDbLine
   6
CONTINUOUS
  62
3
  10
 646.48710433763
  20
 255.06569343066
  30
0.0
  11
 646.48710433763
  21
 264.06569343066
  31
0.0
   0
LINE
   5
253
 100
AcDbEntity
   8
LEVEL001
 370
40
 100
AcDbLine
   6
CONTINUOUS
  62
7
  10
 601.98710433763
  20
 341.06569343066
  30
0.0
  11
 601.98710433763
  21
 279.06569343066
  31
0.0
   0
LINE
   5
254
 100
AcDbEntity
   8
LEVEL001
 370
40
 100
AcDbLine
   6
CONTINUOUS
  62
7
  10
 651.98710433763
  20
 341.06569343066
  30
0.0
  11
 651.98710433763
  21
 279.06569343066
  31
0.0
   0
LWPOLYLINE
   5
255
 100
AcDbEntity
   8
LEVEL001
 370
40
   6
CONTINUOUS
  62
7
 100
AcDbPolyline
  90
6
  70
0
  10
 604.98710433763
  20
 341.06569343066
  10
 598.48710433763
  20
 341.06569343066
  10
 598.48710433763
  20
 279.06569343066
  10
 655.48710433763
  20
 279.06569343066
  10
 655.48710433763
  20
 341.06569343066
  10
 648.98710433763
  20
 341.06569343066
   0
LWPOLYLINE
   5
256
 100
AcDbEntity
   8
LEVEL001
 370
40
   6
CONTINUOUS
  62
7
 100
AcDbPolyline
  90
8
  70
1
  10
 600.48710433763
  20
 345.06569343066
  10
 600.48710433763
  20
 362.06569343066
  10
 653.48710433763
  20
 362.06569343066
  10
 653.48710433763
  20
 345.06569343066
  10
 655.48710433763
  20
 345.06569343066
  10
 655.48710433763
  20
 364.06569343066
  10
 598.48710433763
  20
 364.06569343066
  10
 598.48710433763
  20
 345.06569343066
   0
LINE
   5
257
 100
AcDbEntity
   8
LEVEL001
 370
40
 100
AcDbLine
   6
CONTINUOUS
  62
7
  10
 601.98710433763
  20
 291.06569343066
  30
0.0
  11
 651.98710433763
  21
 291.06569343066
  31
0.0
   0
LWPOLYLINE
   5
258
 100
AcDbEntity
   8
LEVEL001
 370
40
   6
CONTINUOUS
  62
7
 100
AcDbPolyline
  90
4
  70
0
  10
 648.98710433763
  20
 303.06569343066
  10
 648.98710433763
  20
 354.06569343066
  10
 604.98710433763
  20
 354.06569343066
  10
 604.98710433763
  20
 303.06569343066
   0
LINE
   5
259
 100
AcDbEntity
   8
LEVEL001
 370
40
 100
AcDbLine
   6
CONTINUOUS
  62
7
  10
 601.98710433763
  20
 303.06569343066
  30
0.0
  11
 651.98710433763
  21
 303.06569343066
  31
0.0
   0
LINE
   5
25A
 100
AcDbEntity
   8
LEVEL001
 370
40
 100
AcDbLine
   6
CONTINUOUS
  62
7
  10
 601.98710433763
  20
 315.06569343066
  30
0.0
  11
 604.98710433763
  21
 315.06569343066
  31
0.0
   0
LINE
   5
25B
 100
AcDbEntity
   8
LEVEL001
 370
40
 100
AcDbLine
   6
CONTINUOUS
  62
7
  10
 648.98710433763
  20
 315.06569343066
  30
0.0
  11
 651.98710433763
  21
 315.06569343066
  31
0.0
   0
ENDBLK
   5
25C
 100
AcDbEntity
   8
0
 100
AcDbBlockEnd
   0
BLOCK
   5
25D
 100
AcDbEntity
   8
0
 100
AcDbBlockBegin
   2
BLOCK019
  70
64
  10
0.0
  20
0.0
  30
0.0
   3
BLOCK019
   0
LINE
   5
25E
 100
AcDbEntity
   8
LEVEL001
 370
25
 100
AcDbLine
   6
CONTINUOUS
  62
3
  10
 292.96027806579
  20
 217.06569343066
  30
0.0
  11
 278.23784620149
  21
 217.06569343066
  31
0.0
   0
LINE
   5
25F
 100
AcDbEntity
   8
LEVEL001
 370
25
 100
AcDbLine
   6
CONTINUOUS
  62
3
  10
 280.69158484554
  20
 215.84829364109
  30
0.0
  11
 280.69158484554
  21
 209.06569343066
  31
0.0
   0
LINE
   5
260
 100
AcDbEntity
   8
LEVEL001
 370
25
 100
AcDbLine
   6
CONTINUOUS
  62
3
  10
 290.50653942174
  20
 215.84829364109
  30
0.0
  11
 290.50653942174
  21
 209.06569343066
  31
0.0
   0
LINE
   5
261
 100
AcDbEntity
   8
LEVEL001
 370
25
 100
AcDbLine
   6
CONTINUOUS
  62
3
  10
 275.78410755745
  20
 215.84829364109
  30
0.0
  11
 275.78410755745
  21
 209.06569343066
  31
0.0
   0
LINE
   5
262
 100
AcDbEntity
   8
LEVEL001
 370
25
 100
AcDbLine
   6
CONTINUOUS
  62
3
  10
 295.41401670984
  20
 209.06569343066
  30
0.0
  11
 295.41401670984
  21
 215.84829364109
  31
0.0
   0
ARC
   5
263
 100
AcDbEntity
   8
LEVEL001
 370
25
   6
CONTINUOUS
  62
3
 100
AcDbCircle
  10
 278.23784620149
  20
 213.98416850957
  30
0.0
  40
 3.0815249210842
 100
AcDbArc
  50
 37.224231297142
  51
 142.77576870286
   0
ARC
   5
264
 100
AcDbEntity
   8
LEVEL001
 370
25
   6
CONTINUOUS
  62
3
 100
AcDbCircle
  10
 285.59906213364
  20
 206.56569343066
  30
0.0
  40
 10.500000000000
 100
AcDbArc
  50
 62.135717834726
  51
 117.86428216528
   0
ARC
   5
265
 100
AcDbEntity
   8
LEVEL001
 370
25
   6
CONTINUOUS
  62
3
 100
AcDbCircle
  10
 292.96027806579
  20
 213.98416850957
  30
0.0
  40
 3.0815249210842
 100
AcDbArc
  50
 37.224231297142
  51
 142.77576870286
   0
LINE
   5
266
 100
AcDbEntity
   8
LEVEL001
 370
25
 100
AcDbLine
   6
CONTINUOUS
  62
3
  10
 295.41401670984
  20
 252.56569343066
  30
0.0
  11
 275.78410755745
  21
 252.56569343066
  31
0.0
   0
LINE
   5
267
 100
AcDbEntity
   8
LEVEL001
 370
25
 100
AcDbLine
   6
CONTINUOUS
  62
3
  10
 294.79907434068
  20
 255.06569343066
  30
0.0
  11
 294.79907434068
  21
 252.56569343066
  31
0.0
   0
LINE
   5
268
 100
AcDbEntity
   8
LEVEL001
 370
25
 100
AcDbLine
   6
CONTINUOUS
  62
3
  10
 285.59906213364
  20
 252.56569343066
  30
0.0
  11
 287.04245202622
  21
 255.06569343066
  31
0.0
   0
LINE
   5
269
 100
AcDbEntity
   8
LEVEL001
 370
25
 100
AcDbLine
   6
CONTINUOUS
  62
3
  10
 285.59906213364
  20
 255.06569343066
  30
0.0
  11
 284.15569512925
  21
 252.56569343066
  31
0.0
   0
LINE
   5
26A
 100
AcDbEntity
   8
LEVEL001
 370
25
 100
AcDbLine
   6
CONTINUOUS
  62
3
  10
 276.39907281480
  20
 252.56569343066
  30
0.0
  11
 276.39907281480
  21
 255.06569343066
  31
0.0
   0
LINE
   5
26B
 100
AcDbEntity
   8
LEVEL001
 370
25
 100
AcDbLine
   6
CONTINUOUS
  62
3
  10
 280.59906213379
  20
 217.06569343066
  30
0.0
  11
 280.59906213379
  21
 244.56569343066
  31
0.0
   0
LINE
   5
26C
 100
AcDbEntity
   8
LEVEL001
 370
25
 100
AcDbLine
   6
CONTINUOUS
  62
3
  10
 281.59906213379
  20
 217.06569343066
  30
0.0
  11
 281.59906213379
  21
 244.56569343066
  31
0.0
   0
LINE
   5
26D
 100
AcDbEntity
   8
LEVEL001
 370
25
 100
AcDbLine
   6
CONTINUOUS
  62
3
  10
 289.59906213379
  20
 217.06569343066
  30
0.0
  11
 289.59906213379
  21
 244.56569343066
  31
0.0
   0
LINE
   5
26E
 100
AcDbEntity
   8
LEVEL001
 370
25
 100
AcDbLine
   6
CONTINUOUS
  62
3
  10
 290.59906213379
  20
 217.06569343066
  30
0.0
  11
 290.59906213379
  21
 244.56569343066
  31
0.0
   0
LINE
   5
26F
 100
AcDbEntity
   8
LEVEL001
 370
25
 100
AcDbLine
   6
CONTINUOUS
  62
3
  10
 280.69158484554
  20
 245.78309322022
  30
0.0
  11
 280.69158484554
  21
 252.56569343066
  31
0.0
   0
LINE
   5
270
 100
AcDbEntity
   8
LEVEL001
 370
25
 100
AcDbLine
   6
CONTINUOUS
  62
3
  10
 290.50653942174
  20
 245.78309322022
  30
0.0
  11
 290.50653942174
  21
 252.56569343066
  31
0.0
   0
LINE
   5
271
 100
AcDbEntity
   8
LEVEL001
 370
25
 100
AcDbLine
   6
CONTINUOUS
  62
3
  10
 275.78410755745
  20
 245.78309322022
  30
0.0
  11
 275.78410755745
  21
 252.56569343066
  31
0.0
   0
ARC
   5
272
 100
AcDbEntity
   8
LEVEL001
 370
25
   6
CONTINUOUS
  62
3
 100
AcDbCircle
  10
 292.96027806579
  20
 247.64721835174
  30
0.0
  40
 3.0815249210842
 100
AcDbArc
  50
 217.22423129714
  51
 322.77576870286
   0
ARC
   5
273
 100
AcDbEntity
   8
LEVEL001
 370
25
   6
CONTINUOUS
  62
3
 100
AcDbCircle
  10
 285.59906213364
  20
 255.06569343066
  30
0.0
  40
 10.500000000000
 100
AcDbArc
  50
 242.13571783472
  51
 297.86428216527
   0
ARC
   5
274
 100
AcDbEntity
   8
LEVEL001
 370
25
   6
CONTINUOUS
  62
3
 100
AcDbCircle
  10
 278.23784620149
  20
 247.64721835174
  30
0.0
  40
 3.0815249210842
 100
AcDbArc
  50
 217.22423129714
  51
 322.77576870286
   0
LINE
   5
275
 100
AcDbEntity
   8
LEVEL001
 370
25
 100
AcDbLine
   6
CONTINUOUS
  62
3
  10
 292.96027806579
  20
 244.56569343066
  30
0.0
  11
 278.23784620149
  21
 244.56569343066
  31
0.0
   0
LINE
   5
276
 100
AcDbEntity
   8
LEVEL001
 370
25
 100
AcDbLine
   6
CONTINUOUS
  62
3
  10
 295.41401670984
  20
 252.56569343066
  30
0.0
  11
 295.41401670984
  21
 245.78309322022
  31
0.0
   0
LWPOLYLINE
   5
277
 100
AcDbEntity
   8
LEVEL001
 370
25
   6
CONTINUOUS
  62
3
 100
AcDbPolyline
  90
6
  70
0
  10
 290.59906213379
  20
 189.56569343066
  10
 290.59906213379
  20
 180.06569343066
  10
 289.59906213379
  20
 179.06569343066
  10
 281.59906213379
  20
 179.06569343066
  10
 280.59906213379
  20
 180.06569343066
  10
 280.59906213379
  20
 189.56569343066
   0
LINE
   5
278
 100
AcDbEntity
   8
LEVEL001
 370
25
 100
AcDbLine
   6
CONTINUOUS
  62
3
  10
 289.59906213379
  20
 179.06569343066
  30
0.0
  11
 289.59906213379
  21
 189.56569343066
  31
0.0
   0
LINE
   5
279
 100
AcDbEntity
   8
LEVEL001
 370
25
 100
AcDbLine
   6
CONTINUOUS
  62
3
  10
 281.59906213379
  20
 179.06569343066
  30
0.0
  11
 281.59906213379
  21
 189.56569343066
  31
0.0
   0
LINE
   5
27A
 100
AcDbEntity
   8
LEVEL001
 370
25
 100
AcDbLine
   6
CONTINUOUS
  62
3
  10
 290.59906213379
  20
 180.06569343066
  30
0.0
  11
 280.59906213379
  21
 180.06569343066
  31
0.0
   0
LINE
   5
27B
 100
AcDbEntity
   8
LEVEL001
 370
25
 100
AcDbLine
   6
CONTINUOUS
  62
3
  10
 295.41401670984
  20
 197.56569343066
  30
0.0
  11
 275.78410755745
  21
 197.56569343066
  31
0.0
   0
LINE
   5
27C
 100
AcDbEntity
   8
LEVEL001
 370
25
 100
AcDbLine
   6
CONTINUOUS
  62
3
  10
 294.79907434068
  20
 200.06569343066
  30
0.0
  11
 294.79907434068
  21
 197.56569343066
  31
0.0
   0
LINE
   5
27D
 100
AcDbEntity
   8
LEVEL001
 370
25
 100
AcDbLine
   6
CONTINUOUS
  62
3
  10
 285.59906213364
  20
 197.56569343066
  30
0.0
  11
 287.04245202622
  21
 200.06569343066
  31
0.0
   0
LINE
   5
27E
 100
AcDbEntity
   8
LEVEL001
 370
25
 100
AcDbLine
   6
CONTINUOUS
  62
3
  10
 285.59906213364
  20
 200.06569343066
  30
0.0
  11
 284.15569512925
  21
 197.56569343066
  31
0.0
   0
LINE
   5
27F
 100
AcDbEntity
   8
LEVEL001
 370
25
 100
AcDbLine
   6
CONTINUOUS
  62
3
  10
 276.39907281480
  20
 197.56569343066
  30
0.0
  11
 276.39907281480
  21
 200.06569343066
  31
0.0
   0
LINE
   5
280
 100
AcDbEntity
   8
LEVEL001
 370
25
 100
AcDbLine
   6
CONTINUOUS
  62
3
  10
 292.96027806579
  20
 189.56569343066
  30
0.0
  11
 278.23784620149
  21
 189.56569343066
  31
0.0
   0
LINE
   5
281
 100
AcDbEntity
   8
LEVEL001
 370
25
 100
AcDbLine
   6
CONTINUOUS
  62
3
  10
 280.69158484554
  20
 190.78309322022
  30
0.0
  11
 280.69158484554
  21
 197.56569343066
  31
0.0
   0
LINE
   5
282
 100
AcDbEntity
   8
LEVEL001
 370
25
 100
AcDbLine
   6
CONTINUOUS
  62
3
  10
 290.50653942174
  20
 190.78309322022
  30
0.0
  11
 290.50653942174
  21
 197.56569343066
  31
0.0
   0
LINE
   5
283
 100
AcDbEntity
   8
LEVEL001
 370
25
 100
AcDbLine
   6
CONTINUOUS
  62
3
  10
 275.78410755745
  20
 190.78309322022
  30
0.0
  11
 275.78410755745
  21
 197.56569343066
  31
0.0
   0
LINE
   5
284
 100
AcDbEntity
   8
LEVEL001
 370
25
 100
AcDbLine
   6
CONTINUOUS
  62
3
  10
 295.41401670984
  20
 197.56569343066
  30
0.0
  11
 295.41401670984
  21
 190.78309322022
  31
0.0
   0
ARC
   5
285
 100
AcDbEntity
   8
LEVEL001
 370
25
   6
CONTINUOUS
  62
3
 100
AcDbCircle
  10
 278.23784620149
  20
 192.64721835174
  30
0.0
  40
 3.0815249210842
 100
AcDbArc
  50
 217.22423129714
  51
 322.77576870286
   0
ARC
   5
286
 100
AcDbEntity
   8
LEVEL001
 370
25
   6
CONTINUOUS
  62
3
 100
AcDbCircle
  10
 285.59906213364
  20
 200.06569343066
  30
0.0
  40
 10.500000000000
 100
AcDbArc
  50
 242.13571783472
  51
 297.86428216527
   0
ARC
   5
287
 100
AcDbEntity
   8
LEVEL001
 370
25
   6
CONTINUOUS
  62
3
 100
AcDbCircle
  10
 292.96027806579
  20
 192.64721835174
  30
0.0
  40
 3.0815249210842
 100
AcDbArc
  50
 217.22423129714
  51
 322.77576870286
   0
LINE
   5
288
 100
AcDbEntity
   8
LEVEL001
 370
25
 100
AcDbLine
   6
DASHDOT
  62
3
  10
 285.59906213364
  20
 173.34131043876
  30
0.0
  11
 285.59906213364
  21
 261.72608422274
  31
0.0
   0
ENDBLK
   5
289
 100
AcDbEntity
   8
0
 100
AcDbBlockEnd
   0
BLOCK
   5
28A
 100
AcDbEntity
   8
0
 100
AcDbBlockBegin
   2
BLOCK020
  70
64
  10
0.0
  20
0.0
  30
0.0
   3
BLOCK020
   0
LINE
   5
28B
 100
AcDbEntity
   8
LEVEL001
 370
25
 100
AcDbLine
   6
CONTINUOUS
  62
3
  10
 378.96027806579
  20
 217.06569343066
  30
0.0
  11
 364.23784620149
  21
 217.06569343066
  31
0.0
   0
LINE
   5
28C
 100
AcDbEntity
   8
LEVEL001
 370
25
 100
AcDbLine
   6
CONTINUOUS
  62
3
  10
 366.69158484554
  20
 215.84829364109
  30
0.0
  11
 366.69158484554
  21
 209.06569343066
  31
0.0
   0
LINE
   5
28D
 100
AcDbEntity
   8
LEVEL001
 370
25
 100
AcDbLine
   6
CONTINUOUS
  62
3
  10
 376.50653942174
  20
 215.84829364109
  30
0.0
  11
 376.50653942174
  21
 209.06569343066
  31
0.0
   0
LINE
   5
28E
 100
AcDbEntity
   8
LEVEL001
 370
25
 100
AcDbLine
   6
CONTINUOUS
  62
3
  10
 361.78410755745
  20
 215.84829364109
  30
0.0
  11
 361.78410755745
  21
 209.06569343066
  31
0.0
   0
LINE
   5
28F
 100
AcDbEntity
   8
LEVEL001
 370
25
 100
AcDbLine
   6
CONTINUOUS
  62
3
  10
 381.41401670984
  20
 209.06569343066
  30
0.0
  11
 381.41401670984
  21
 215.84829364109
  31
0.0
   0
ARC
   5
290
 100
AcDbEntity
   8
LEVEL001
 370
25
   6
CONTINUOUS
  62
3
 100
AcDbCircle
  10
 364.23784620149
  20
 213.98416850957
  30
0.0
  40
 3.0815249210842
 100
AcDbArc
  50
 37.224231297142
  51
 142.77576870286
   0
ARC
   5
291
 100
AcDbEntity
   8
LEVEL001
 370
25
   6
CONTINUOUS
  62
3
 100
AcDbCircle
  10
 371.59906213364
  20
 206.56569343066
  30
0.0
  40
 10.500000000000
 100
AcDbArc
  50
 62.135717834726
  51
 117.86428216528
   0
ARC
   5
292
 100
AcDbEntity
   8
LEVEL001
 370
25
   6
CONTINUOUS
  62
3
 100
AcDbCircle
  10
 378.96027806579
  20
 213.98416850957
  30
0.0
  40
 3.0815249210842
 100
AcDbArc
  50
 37.224231297142
  51
 142.77576870286
   0
LINE
   5
293
 100
AcDbEntity
   8
LEVEL001
 370
25
 100
AcDbLine
   6
CONTINUOUS
  62
3
  10
 381.41401670984
  20
 252.56569343066
  30
0.0
  11
 361.78410755745
  21
 252.56569343066
  31
0.0
   0
LINE
   5
294
 100
AcDbEntity
   8
LEVEL001
 370
25
 100
AcDbLine
   6
CONTINUOUS
  62
3
  10
 380.79907434068
  20
 255.06569343066
  30
0.0
  11
 380.79907434068
  21
 252.56569343066
  31
0.0
   0
LINE
   5
295
 100
AcDbEntity
   8
LEVEL001
 370
25
 100
AcDbLine
   6
CONTINUOUS
  62
3
  10
 371.59906213364
  20
 252.56569343066
  30
0.0
  11
 373.04245202622
  21
 255.06569343066
  31
0.0
   0
LINE
   5
296
 100
AcDbEntity
   8
LEVEL001
 370
25
 100
AcDbLine
   6
CONTINUOUS
  62
3
  10
 371.59906213364
  20
 255.06569343066
  30
0.0
  11
 370.15569512925
  21
 252.56569343066
  31
0.0
   0
LINE
   5
297
 100
AcDbEntity
   8
LEVEL001
 370
25
 100
AcDbLine
   6
CONTINUOUS
  62
3
  10
 362.39907281480
  20
 252.56569343066
  30
0.0
  11
 362.39907281480
  21
 255.06569343066
  31
0.0
   0
LINE
   5
298
 100
AcDbEntity
   8
LEVEL001
 370
25
 100
AcDbLine
   6
CONTINUOUS
  62
3
  10
 366.59906213379
  20
 217.06569343066
  30
0.0
  11
 366.59906213379
  21
 244.56569343066
  31
0.0
   0
LINE
   5
299
 100
AcDbEntity
   8
LEVEL001
 370
25
 100
AcDbLine
   6
CONTINUOUS
  62
3
  10
 367.59906213379
  20
 217.06569343066
  30
0.0
  11
 367.59906213379
  21
 244.56569343066
  31
0.0
   0
LINE
   5
29A
 100
AcDbEntity
   8
LEVEL001
 370
25
 100
AcDbLine
   6
CONTINUOUS
  62
3
  10
 375.59906213379
  20
 217.06569343066
  30
0.0
  11
 375.59906213379
  21
 244.56569343066
  31
0.0
   0
LINE
   5
29B
 100
AcDbEntity
   8
LEVEL001
 370
25
 100
AcDbLine
   6
CONTINUOUS
  62
3
  10
 376.59906213379
  20
 217.06569343066
  30
0.0
  11
 376.59906213379
  21
 244.56569343066
  31
0.0
   0
LINE
   5
29C
 100
AcDbEntity
   8
LEVEL001
 370
25
 100
AcDbLine
   6
CONTINUOUS
  62
3
  10
 366.69158484554
  20
 245.78309322022
  30
0.0
  11
 366.69158484554
  21
 252.56569343066
  31
0.0
   0
LINE
   5
29D
 100
AcDbEntity
   8
LEVEL001
 370
25
 100
AcDbLine
   6
CONTINUOUS
  62
3
  10
 376.50653942174
  20
 245.78309322022
  30
0.0
  11
 376.50653942174
  21
 252.56569343066
  31
0.0
   0
LINE
   5
29E
 100
AcDbEntity
   8
LEVEL001
 370
25
 100
AcDbLine
   6
CONTINUOUS
  62
3
  10
 361.78410755745
  20
 245.78309322022
  30
0.0
  11
 361.78410755745
  21
 252.56569343066
  31
0.0
   0
ARC
   5
29F
 100
AcDbEntity
   8
LEVEL001
 370
25
   6
CONTINUOUS
  62
3
 100
AcDbCircle
  10
 378.96027806579
  20
 247.64721835174
  30
0.0
  40
 3.0815249210842
 100
AcDbArc
  50
 217.22423129714
  51
 322.77576870286
   0
ARC
   5
2A0
 100
AcDbEntity
   8
LEVEL001
 370
25
   6
CONTINUOUS
  62
3
 100
AcDbCircle
  10
 371.59906213364
  20
 255.06569343066
  30
0.0
  40
 10.500000000000
 100
AcDbArc
  50
 242.13571783472
  51
 297.86428216527
   0
ARC
   5
2A1
 100
AcDbEntity
   8
LEVEL001
 370
25
   6
CONTINUOUS
  62
3
 100
AcDbCircle
  10
 364.23784620149
  20
 247.64721835174
  30
0.0
  40
 3.0815249210842
 100
AcDbArc
  50
 217.22423129714
  51
 322.77576870286
   0
LINE
   5
2A2
 100
AcDbEntity
   8
LEVEL001
 370
25
 100
AcDbLine
   6
CONTINUOUS
  62
3
  10
 378.96027806579
  20
 244.56569343066
  30
0.0
  11
 364.23784620149
  21
 244.56569343066
  31
0.0
   0
LINE
   5
2A3
 100
AcDbEntity
   8
LEVEL001
 370
25
 100
AcDbLine
   6
CONTINUOUS
  62
3
  10
 381.41401670984
  20
 252.56569343066
  30
0.0
  11
 381.41401670984
  21
 245.78309322022
  31
0.0
   0
LWPOLYLINE
   5
2A4
 100
AcDbEntity
   8
LEVEL001
 370
25
   6
CONTINUOUS
  62
3
 100
AcDbPolyline
  90
6
  70
0
  10
 376.59906213379
  20
 189.56569343066
  10
 376.59906213379
  20
 180.06569343066
  10
 375.59906213379
  20
 179.06569343066
  10
 367.59906213379
  20
 179.06569343066
  10
 366.59906213379
  20
 180.06569343066
  10
 366.59906213379
  20
 189.56569343066
   0
LINE
   5
2A5
 100
AcDbEntity
   8
LEVEL001
 370
25
 100
AcDbLine
   6
CONTINUOUS
  62
3
  10
 375.59906213379
  20
 179.06569343066
  30
0.0
  11
 375.59906213379
  21
 189.56569343066
  31
0.0
   0
LINE
   5
2A6
 100
AcDbEntity
   8
LEVEL001
 370
25
 100
AcDbLine
   6
CONTINUOUS
  62
3
  10
 367.59906213379
  20
 179.06569343066
  30
0.0
  11
 367.59906213379
  21
 189.56569343066
  31
0.0
   0
LINE
   5
2A7
 100
AcDbEntity
   8
LEVEL001
 370
25
 100
AcDbLine
   6
CONTINUOUS
  62
3
  10
 376.59906213379
  20
 180.06569343066
  30
0.0
  11
 366.59906213379
  21
 180.06569343066
  31
0.0
   0
LINE
   5
2A8
 100
AcDbEntity
   8
LEVEL001
 370
25
 100
AcDbLine
   6
CONTINUOUS
  62
3
  10
 381.41401670984
  20
 197.56569343066
  30
0.0
  11
 361.78410755745
  21
 197.56569343066
  31
0.0
   0
LINE
   5
2A9
 100
AcDbEntity
   8
LEVEL001
 370
25
 100
AcDbLine
   6
CONTINUOUS
  62
3
  10
 380.79907434068
  20
 200.06569343066
  30
0.0
  11
 380.79907434068
  21
 197.56569343066
  31
0.0
   0
LINE
   5
2AA
 100
AcDbEntity
   8
LEVEL001
 370
25
 100
AcDbLine
   6
CONTINUOUS
  62
3
  10
 371.59906213364
  20
 197.56569343066
  30
0.0
  11
 373.04245202622
  21
 200.06569343066
  31
0.0
   0
LINE
   5
2AB
 100
AcDbEntity
   8
LEVEL001
 370
25
 100
AcDbLine
   6
CONTINUOUS
  62
3
  10
 371.59906213364
  20
 200.06569343066
  30
0.0
  11
 370.15569512925
  21
 197.56569343066
  31
0.0
   0
LINE
   5
2AC
 100
AcDbEntity
   8
LEVEL001
 370
25
 100
AcDbLine
   6
CONTINUOUS
  62
3
  10
 362.39907281480
  20
 197.56569343066
  30
0.0
  11
 362.39907281480
  21
 200.06569343066
  31
0.0
   0
LINE
   5
2AD
 100
AcDbEntity
   8
LEVEL001
 370
25
 100
AcDbLine
   6
CONTINUOUS
  62
3
  10
 378.96027806579
  20
 189.56569343066
  30
0.0
  11
 364.23784620149
  21
 189.56569343066
  31
0.0
   0
LINE
   5
2AE
 100
AcDbEntity
   8
LEVEL001
 370
25
 100
AcDbLine
   6
CONTINUOUS
  62
3
  10
 366.69158484554
  20
 190.78309322022
  30
0.0
  11
 366.69158484554
  21
 197.56569343066
  31
0.0
   0
LINE
   5
2AF
 100
AcDbEntity
   8
LEVEL001
 370
25
 100
AcDbLine
   6
CONTINUOUS
  62
3
  10
 376.50653942174
  20
 190.78309322022
  30
0.0
  11
 376.50653942174
  21
 197.56569343066
  31
0.0
   0
LINE
   5
2B0
 100
AcDbEntity
   8
LEVEL001
 370
25
 100
AcDbLine
   6
CONTINUOUS
  62
3
  10
 361.78410755745
  20
 190.78309322022
  30
0.0
  11
 361.78410755745
  21
 197.56569343066
  31
0.0
   0
LINE
   5
2B1
 100
AcDbEntity
   8
LEVEL001
 370
25
 100
AcDbLine
   6
CONTINUOUS
  62
3
  10
 381.41401670984
  20
 197.56569343066
  30
0.0
  11
 381.41401670984
  21
 190.78309322022
  31
0.0
   0
ARC
   5
2B2
 100
AcDbEntity
   8
LEVEL001
 370
25
   6
CONTINUOUS
  62
3
 100
AcDbCircle
  10
 364.23784620149
  20
 192.64721835174
  30
0.0
  40
 3.0815249210842
 100
AcDbArc
  50
 217.22423129714
  51
 322.77576870286
   0
ARC
   5
2B3
 100
AcDbEntity
   8
LEVEL001
 370
25
   6
CONTINUOUS
  62
3
 100
AcDbCircle
  10
 371.59906213364
  20
 200.06569343066
  30
0.0
  40
 10.500000000000
 100
AcDbArc
  50
 242.13571783472
  51
 297.86428216527
   0
ARC
   5
2B4
 100
AcDbEntity
   8
LEVEL001
 370
25
   6
CONTINUOUS
  62
3
 100
AcDbCircle
  10
 378.96027806579
  20
 192.64721835174
  30
0.0
  40
 3.0815249210842
 100
AcDbArc
  50
 217.22423129714
  51
 322.77576870286
   0
LINE
   5
2B5
 100
AcDbEntity
   8
LEVEL001
 370
25
 100
AcDbLine
   6
DASHDOT
  62
3
  10
 371.59906213364
  20
 173.34131043876
  30
0.0
  11
 371.59906213364
  21
 261.72608422274
  31
0.0
   0
ENDBLK
   5
2B6
 100
AcDbEntity
   8
0
 100
AcDbBlockEnd
   0
BLOCK
   5
2B7
 100
AcDbEntity
   8
0
 100
AcDbBlockBegin
   2
BLOCK021
  70
64
  10
0.0
  20
0.0
  30
0.0
   3
BLOCK021
   0
LINE
   5
2B8
 100
AcDbEntity
   8
LEVEL001
 370
25
 100
AcDbLine
   6
CONTINUOUS
  62
3
  10
 619.34832026978
  20
 217.06569343066
  30
0.0
  11
 604.62588840548
  21
 217.06569343066
  31
0.0
   0
LINE
   5
2B9
 100
AcDbEntity
   8
LEVEL001
 370
25
 100
AcDbLine
   6
CONTINUOUS
  62
3
  10
 607.07962704953
  20
 215.84829364109
  30
0.0
  11
 607.07962704953
  21
 209.06569343066
  31
0.0
   0
LINE
   5
2BA
 100
AcDbEntity
   8
LEVEL001
 370
25
 100
AcDbLine
   6
CONTINUOUS
  62
3
  10
 616.89458162573
  20
 215.84829364109
  30
0.0
  11
 616.89458162573
  21
 209.06569343066
  31
0.0
   0
LINE
   5
2BB
 100
AcDbEntity
   8
LEVEL001
 370
25
 100
AcDbLine
   6
CONTINUOUS
  62
3
  10
 602.17214976143
  20
 215.84829364109
  30
0.0
  11
 602.17214976143
  21
 209.06569343066
  31
0.0
   0
LINE
   5
2BC
 100
AcDbEntity
   8
LEVEL001
 370
25
 100
AcDbLine
   6
CONTINUOUS
  62
3
  10
 621.80205891383
  20
 209.06569343066
  30
0.0
  11
 621.80205891383
  21
 215.84829364109
  31
0.0
   0
ARC
   5
2BD
 100
AcDbEntity
   8
LEVEL001
 370
25
   6
CONTINUOUS
  62
3
 100
AcDbCircle
  10
 604.62588840548
  20
 213.98416850957
  30
0.0
  40
 3.0815249210842
 100
AcDbArc
  50
 37.224231297141
  51
 142.77576870286
   0
ARC
   5
2BE
 100
AcDbEntity
   8
LEVEL001
 370
25
   6
CONTINUOUS
  62
3
 100
AcDbCircle
  10
 611.98710433763
  20
 206.56569343066
  30
0.0
  40
 10.500000000000
 100
AcDbArc
  50
 62.135717834726
  51
 117.86428216528
   0
ARC
   5
2BF
 100
AcDbEntity
   8
LEVEL001
 370
25
   6
CONTINUOUS
  62
3
 100
AcDbCircle
  10
 619.34832026978
  20
 213.98416850957
  30
0.0
  40
 3.0815249210842
 100
AcDbArc
  50
 37.224231297142
  51
 142.77576870286
   0
LINE
   5
2C0
 100
AcDbEntity
   8
LEVEL001
 370
25
 100
AcDbLine
   6
CONTINUOUS
  62
3
  10
 621.80205891383
  20
 252.56569343066
  30
0.0
  11
 602.17214976143
  21
 252.56569343066
  31
0.0
   0
LINE
   5
2C1
 100
AcDbEntity
   8
LEVEL001
 370
25
 100
AcDbLine
   6
CONTINUOUS
  62
3
  10
 621.18711654466
  20
 255.06569343066
  30
0.0
  11
 621.18711654466
  21
 252.56569343066
  31
0.0
   0
LINE
   5
2C2
 100
AcDbEntity
   8
LEVEL001
 370
25
 100
AcDbLine
   6
CONTINUOUS
  62
3
  10
 611.98710433763
  20
 252.56569343066
  30
0.0
  11
 613.43049423021
  21
 255.06569343066
  31
0.0
   0
LINE
   5
2C3
 100
AcDbEntity
   8
LEVEL001
 370
25
 100
AcDbLine
   6
CONTINUOUS
  62
3
  10
 611.98710433763
  20
 255.06569343066
  30
0.0
  11
 610.54373733324
  21
 252.56569343066
  31
0.0
   0
LINE
   5
2C4
 100
AcDbEntity
   8
LEVEL001
 370
25
 100
AcDbLine
   6
CONTINUOUS
  62
3
  10
 602.78711501878
  20
 252.56569343066
  30
0.0
  11
 602.78711501878
  21
 255.06569343066
  31
0.0
   0
LINE
   5
2C5
 100
AcDbEntity
   8
LEVEL001
 370
25
 100
AcDbLine
   6
CONTINUOUS
  62
3
  10
 606.98710433778
  20
 217.06569343066
  30
0.0
  11
 606.98710433778
  21
 244.56569343066
  31
0.0
   0
LINE
   5
2C6
 100
AcDbEntity
   8
LEVEL001
 370
25
 100
AcDbLine
   6
CONTINUOUS
  62
3
  10
 607.98710433778
  20
 217.06569343066
  30
0.0
  11
 607.98710433778
  21
 244.56569343066
  31
0.0
   0
LINE
   5
2C7
 100
AcDbEntity
   8
LEVEL001
 370
25
 100
AcDbLine
   6
CONTINUOUS
  62
3
  10
 615.98710433778
  20
 217.06569343066
  30
0.0
  11
 615.98710433778
  21
 244.56569343066
  31
0.0
   0
LINE
   5
2C8
 100
AcDbEntity
   8
LEVEL001
 370
25
 100
AcDbLine
   6
CONTINUOUS
  62
3
  10
 616.98710433778
  20
 217.06569343066
  30
0.0
  11
 616.98710433778
  21
 244.56569343066
  31
0.0
   0
LINE
   5
2C9
 100
AcDbEntity
   8
LEVEL001
 370
25
 100
AcDbLine
   6
CONTINUOUS
  62
3
  10
 607.07962704953
  20
 245.78309322022
  30
0.0
  11
 607.07962704953
  21
 252.56569343066
  31
0.0
   0
LINE
   5
2CA
 100
AcDbEntity
   8
LEVEL001
 370
25
 100
AcDbLine
   6
CONTINUOUS
  62
3
  10
 616.89458162573
  20
 245.78309322022
  30
0.0
  11
 616.89458162573
  21
 252.56569343066
  31
0.0
   0
LINE
   5
2CB
 100
AcDbEntity
   8
LEVEL001
 370
25
 100
AcDbLine
   6
CONTINUOUS
  62
3
  10
 602.17214976143
  20
 245.78309322022
  30
0.0
  11
 602.17214976143
  21
 252.56569343066
  31
0.0
   0
ARC
   5
2CC
 100
AcDbEntity
   8
LEVEL001
 370
25
   6
CONTINUOUS
  62
3
 100
AcDbCircle
  10
 619.34832026978
  20
 247.64721835174
  30
0.0
  40
 3.0815249210842
 100
AcDbArc
  50
 217.22423129714
  51
 322.77576870286
   0
ARC
   5
2CD
 100
AcDbEntity
   8
LEVEL001
 370
25
   6
CONTINUOUS
  62
3
 100
AcDbCircle
  10
 611.98710433763
  20
 255.06569343066
  30
0.0
  40
 10.500000000000
 100
AcDbArc
  50
 242.13571783472
  51
 297.86428216527
   0
ARC
   5
2CE
 100
AcDbEntity
   8
LEVEL001
 370
25
   6
CONTINUOUS
  62
3
 100
AcDbCircle
  10
 604.62588840548
  20
 247.64721835174
  30
0.0
  40
 3.0815249210842
 100
AcDbArc
  50
 217.22423129714
  51
 322.77576870286
   0
LINE
   5
2CF
 100
AcDbEntity
   8
LEVEL001
 370
25
 100
AcDbLine
   6
CONTINUOUS
  62
3
  10
 619.34832026978
  20
 244.56569343066
  30
0.0
  11
 604.62588840548
  21
 244.56569343066
  31
0.0
   0
LINE
   5
2D0
 100
AcDbEntity
   8
LEVEL001
 370
25
 100
AcDbLine
   6
CONTINUOUS
  62
3
  10
 621.80205891383
  20
 252.56569343066
  30
0.0
  11
 621.80205891383
  21
 245.78309322022
  31
0.0
   0
LWPOLYLINE
   5
2D1
 100
AcDbEntity
   8
LEVEL001
 370
25
   6
CONTINUOUS
  62
3
 100
AcDbPolyline
  90
6
  70
0
  10
 616.98710433778
  20
 189.56569343066
  10
 616.98710433778
  20
 180.06569343066
  10
 615.98710433778
  20
 179.06569343066
  10
 607.98710433778
  20
 179.06569343066
  10
 606.98710433778
  20
 180.06569343066
  10
 606.98710433778
  20
 189.56569343066
   0
LINE
   5
2D2
 100
AcDbEntity
   8
LEVEL001
 370
25
 100
AcDbLine
   6
CONTINUOUS
  62
3
  10
 615.98710433778
  20
 179.06569343066
  30
0.0
  11
 615.98710433778
  21
 189.56569343066
  31
0.0
   0
LINE
   5
2D3
 100
AcDbEntity
   8
LEVEL001
 370
25
 100
AcDbLine
   6
CONTINUOUS
  62
3
  10
 607.98710433778
  20
 179.06569343066
  30
0.0
  11
 607.98710433778
  21
 189.56569343066
  31
0.0
   0
LINE
   5
2D4
 100
AcDbEntity
   8
LEVEL001
 370
25
 100
AcDbLine
   6
CONTINUOUS
  62
3
  10
 616.98710433778
  20
 180.06569343066
  30
0.0
  11
 606.98710433778
  21
 180.06569343066
  31
0.0
   0
LINE
   5
2D5
 100
AcDbEntity
   8
LEVEL001
 370
25
 100
AcDbLine
   6
CONTINUOUS
  62
3
  10
 621.80205891383
  20
 197.56569343066
  30
0.0
  11
 602.17214976143
  21
 197.56569343066
  31
0.0
   0
LINE
   5
2D6
 100
AcDbEntity
   8
LEVEL001
 370
25
 100
AcDbLine
   6
CONTINUOUS
  62
3
  10
 621.18711654466
  20
 200.06569343066
  30
0.0
  11
 621.18711654466
  21
 197.56569343066
  31
0.0
   0
LINE
   5
2D7
 100
AcDbEntity
   8
LEVEL001
 370
25
 100
AcDbLine
   6
CONTINUOUS
  62
3
  10
 611.98710433763
  20
 197.56569343066
  30
0.0
  11
 613.43049423021
  21
 200.06569343066
  31
0.0
   0
LINE
   5
2D8
 100
AcDbEntity
   8
LEVEL001
 370
25
 100
AcDbLine
   6
CONTINUOUS
  62
3
  10
 611.98710433763
  20
 200.06569343066
  30
0.0
  11
 610.54373733324
  21
 197.56569343066
  31
0.0
   0
LINE
   5
2D9
 100
AcDbEntity
   8
LEVEL001
 370
25
 100
AcDbLine
   6
CONTINUOUS
  62
3
  10
 602.78711501878
  20
 197.56569343066
  30
0.0
  11
 602.78711501878
  21
 200.06569343066
  31
0.0
   0
LINE
   5
2DA
 100
AcDbEntity
   8
LEVEL001
 370
25
 100
AcDbLine
   6
CONTINUOUS
  62
3
  10
 619.34832026978
  20
 189.56569343066
  30
0.0
  11
 604.62588840548
  21
 189.56569343066
  31
0.0
   0
LINE
   5
2DB
 100
AcDbEntity
   8
LEVEL001
 370
25
 100
AcDbLine
   6
CONTINUOUS
  62
3
  10
 607.07962704953
  20
 190.78309322022
  30
0.0
  11
 607.07962704953
  21
 197.56569343066
  31
0.0
   0
LINE
   5
2DC
 100
AcDbEntity
   8
LEVEL001
 370
25
 100
AcDbLine
   6
CONTINUOUS
  62
3
  10
 616.89458162573
  20
 190.78309322022
  30
0.0
  11
 616.89458162573
  21
 197.56569343066
  31
0.0
   0
LINE
   5
2DD
 100
AcDbEntity
   8
LEVEL001
 370
25
 100
AcDbLine
   6
CONTINUOUS
  62
3
  10
 602.17214976143
  20
 190.78309322022
  30
0.0
  11
 602.17214976143
  21
 197.56569343066
  31
0.0
   0
LINE
   5
2DE
 100
AcDbEntity
   8
LEVEL001
 370
25
 100
AcDbLine
   6
CONTINUOUS
  62
3
  10
 621.80205891383
  20
 197.56569343066
  30
0.0
  11
 621.80205891383
  21
 190.78309322022
  31
0.0
   0
ARC
   5
2DF
 100
AcDbEntity
   8
LEVEL001
 370
25
   6
CONTINUOUS
  62
3
 100
AcDbCircle
  10
 604.62588840548
  20
 192.64721835174
  30
0.0
  40
 3.0815249210842
 100
AcDbArc
  50
 217.22423129714
  51
 322.77576870286
   0
ARC
   5
2E0
 100
AcDbEntity
   8
LEVEL001
 370
25
   6
CONTINUOUS
  62
3
 100
AcDbCircle
  10
 611.98710433763
  20
 200.06569343066
  30
0.0
  40
 10.500000000000
 100
AcDbArc
  50
 242.13571783472
  51
 297.86428216527
   0
ARC
   5
2E1
 100
AcDbEntity
   8
LEVEL001
 370
25
   6
CONTINUOUS
  62
3
 100
AcDbCircle
  10
 619.34832026978
  20
 192.64721835174
  30
0.0
  40
 3.0815249210842
 100
AcDbArc
  50
 217.22423129714
  51
 322.77576870286
   0
LINE
   5
2E2
 100
AcDbEntity
   8
LEVEL001
 370
25
 100
AcDbLine
   6
DASHDOT
  62
3
  10
 611.98710433763
  20
 173.34131043876
  30
0.0
  11
 611.98710433763
  21
 261.72608422274
  31
0.0
   0
ENDBLK
   5
2E3
 100
AcDbEntity
   8
0
 100
AcDbBlockEnd
   0
BLOCK
   5
2E4
 100
AcDbEntity
   8
0
 100
AcDbBlockBegin
   2
BLOCK022
  70
64
  10
0.0
  20
0.0
  30
0.0
   3
BLOCK022
   0
LINE
   5
2E5
 100
AcDbEntity
   8
LEVEL001
 370
25
 100
AcDbLine
   6
CONTINUOUS
  62
3
  10
 649.34832026978
  20
 217.06569343066
  30
0.0
  11
 634.62588840548
  21
 217.06569343066
  31
0.0
   0
LINE
   5
2E6
 100
AcDbEntity
   8
LEVEL001
 370
25
 100
AcDbLine
   6
CONTINUOUS
  62
3
  10
 637.07962704953
  20
 215.84829364109
  30
0.0
  11
 637.07962704953
  21
 209.06569343066
  31
0.0
   0
LINE
   5
2E7
 100
AcDbEntity
   8
LEVEL001
 370
25
 100
AcDbLine
   6
CONTINUOUS
  62
3
  10
 646.89458162573
  20
 215.84829364109
  30
0.0
  11
 646.89458162573
  21
 209.06569343066
  31
0.0
   0
LINE
   5
2E8
 100
AcDbEntity
   8
LEVEL001
 370
25
 100
AcDbLine
   6
CONTINUOUS
  62
3
  10
 632.17214976143
  20
 215.84829364109
  30
0.0
  11
 632.17214976143
  21
 209.06569343066
  31
0.0
   0
LINE
   5
2E9
 100
AcDbEntity
   8
LEVEL001
 370
25
 100
AcDbLine
   6
CONTINUOUS
  62
3
  10
 651.80205891383
  20
 209.06569343066
  30
0.0
  11
 651.80205891383
  21
 215.84829364109
  31
0.0
   0
ARC
   5
2EA
 100
AcDbEntity
   8
LEVEL001
 370
25
   6
CONTINUOUS
  62
3
 100
AcDbCircle
  10
 634.62588840548
  20
 213.98416850957
  30
0.0
  40
 3.0815249210842
 100
AcDbArc
  50
 37.224231297141
  51
 142.77576870286
   0
ARC
   5
2EB
 100
AcDbEntity
   8
LEVEL001
 370
25
   6
CONTINUOUS
  62
3
 100
AcDbCircle
  10
 641.98710433763
  20
 206.56569343066
  30
0.0
  40
 10.500000000000
 100
AcDbArc
  50
 62.135717834726
  51
 117.86428216528
   0
ARC
   5
2EC
 100
AcDbEntity
   8
LEVEL001
 370
25
   6
CONTINUOUS
  62
3
 100
AcDbCircle
  10
 649.34832026978
  20
 213.98416850957
  30
0.0
  40
 3.0815249210842
 100
AcDbArc
  50
 37.224231297142
  51
 142.77576870286
   0
LINE
   5
2ED
 100
AcDbEntity
   8
LEVEL001
 370
25
 100
AcDbLine
   6
CONTINUOUS
  62
3
  10
 651.80205891383
  20
 252.56569343066
  30
0.0
  11
 632.17214976143
  21
 252.56569343066
  31
0.0
   0
LINE
   5
2EE
 100
AcDbEntity
   8
LEVEL001
 370
25
 100
AcDbLine
   6
CONTINUOUS
  62
3
  10
 651.18711654466
  20
 255.06569343066
  30
0.0
  11
 651.18711654466
  21
 252.56569343066
  31
0.0
   0
LINE
   5
2EF
 100
AcDbEntity
   8
LEVEL001
 370
25
 100
AcDbLine
   6
CONTINUOUS
  62
3
  10
 641.98710433763
  20
 252.56569343066
  30
0.0
  11
 643.43049423021
  21
 255.06569343066
  31
0.0
   0
LINE
   5
2F0
 100
AcDbEntity
   8
LEVEL001
 370
25
 100
AcDbLine
   6
CONTINUOUS
  62
3
  10
 641.98710433763
  20
 255.06569343066
  30
0.0
  11
 640.54373733324
  21
 252.56569343066
  31
0.0
   0
LINE
   5
2F1
 100
AcDbEntity
   8
LEVEL001
 370
25
 100
AcDbLine
   6
CONTINUOUS
  62
3
  10
 632.78711501878
  20
 252.56569343066
  30
0.0
  11
 632.78711501878
  21
 255.06569343066
  31
0.0
   0
LINE
   5
2F2
 100
AcDbEntity
   8
LEVEL001
 370
25
 100
AcDbLine
   6
CONTINUOUS
  62
3
  10
 636.98710433778
  20
 217.06569343066
  30
0.0
  11
 636.98710433778
  21
 244.56569343066
  31
0.0
   0
LINE
   5
2F3
 100
AcDbEntity
   8
LEVEL001
 370
25
 100
AcDbLine
   6
CONTINUOUS
  62
3
  10
 637.98710433778
  20
 217.06569343066
  30
0.0
  11
 637.98710433778
  21
 244.56569343066
  31
0.0
   0
LINE
   5
2F4
 100
AcDbEntity
   8
LEVEL001
 370
25
 100
AcDbLine
   6
CONTINUOUS
  62
3
  10
 645.98710433778
  20
 217.06569343066
  30
0.0
  11
 645.98710433778
  21
 244.56569343066
  31
0.0
   0
LINE
   5
2F5
 100
AcDbEntity
   8
LEVEL001
 370
25
 100
AcDbLine
   6
CONTINUOUS
  62
3
  10
 646.98710433778
  20
 217.06569343066
  30
0.0
  11
 646.98710433778
  21
 244.56569343066
  31
0.0
   0
LINE
   5
2F6
 100
AcDbEntity
   8
LEVEL001
 370
25
 100
AcDbLine
   6
CONTINUOUS
  62
3
  10
 637.07962704953
  20
 245.78309322022
  30
0.0
  11
 637.07962704953
  21
 252.56569343066
  31
0.0
   0
LINE
   5
2F7
 100
AcDbEntity
   8
LEVEL001
 370
25
 100
AcDbLine
   6
CONTINUOUS
  62
3
  10
 646.89458162573
  20
 245.78309322022
  30
0.0
  11
 646.89458162573
  21
 252.56569343066
  31
0.0
   0
LINE
   5
2F8
 100
AcDbEntity
   8
LEVEL001
 370
25
 100
AcDbLine
   6
CONTINUOUS
  62
3
  10
 632.17214976143
  20
 245.78309322022
  30
0.0
  11
 632.17214976143
  21
 252.56569343066
  31
0.0
   0
ARC
   5
2F9
 100
AcDbEntity
   8
LEVEL001
 370
25
   6
CONTINUOUS
  62
3
 100
AcDbCircle
  10
 649.34832026978
  20
 247.64721835174
  30
0.0
  40
 3.0815249210842
 100
AcDbArc
  50
 217.22423129714
  51
 322.77576870286
   0
ARC
   5
2FA
 100
AcDbEntity
   8
LEVEL001
 370
25
   6
CONTINUOUS
  62
3
 100
AcDbCircle
  10
 641.98710433763
  20
 255.06569343066
  30
0.0
  40
 10.500000000000
 100
AcDbArc
  50
 242.13571783472
  51
 297.86428216527
   0
ARC
   5
2FB
 100
AcDbEntity
   8
LEVEL001
 370
25
   6
CONTINUOUS
  62
3
 100
AcDbCircle
  10
 634.62588840548
  20
 247.64721835174
  30
0.0
  40
 3.0815249210842
 100
AcDbArc
  50
 217.22423129714
  51
 322.77576870286
   0
LINE
   5
2FC
 100
AcDbEntity
   8
LEVEL001
 370
25
 100
AcDbLine
   6
CONTINUOUS
  62
3
  10
 649.34832026978
  20
 244.56569343066
  30
0.0
  11
 634.62588840548
  21
 244.56569343066
  31
0.0
   0
LINE
   5
2FD
 100
AcDbEntity
   8
LEVEL001
 370
25
 100
AcDbLine
   6
CONTINUOUS
  62
3
  10
 651.80205891383
  20
 252.56569343066
  30
0.0
  11
 651.80205891383
  21
 245.78309322022
  31
0.0
   0
LWPOLYLINE
   5
2FE
 100
AcDbEntity
   8
LEVEL001
 370
25
   6
CONTINUOUS
  62
3
 100
AcDbPolyline
  90
6
  70
0
  10
 646.98710433778
  20
 189.56569343066
  10
 646.98710433778
  20
 180.06569343066
  10
 645.98710433778
  20
 179.06569343066
  10
 637.98710433778
  20
 179.06569343066
  10
 636.98710433778
  20
 180.06569343066
  10
 636.98710433778
  20
 189.56569343066
   0
LINE
   5
2FF
 100
AcDbEntity
   8
LEVEL001
 370
25
 100
AcDbLine
   6
CONTINUOUS
  62
3
  10
 645.98710433778
  20
 179.06569343066
  30
0.0
  11
 645.98710433778
  21
 189.56569343066
  31
0.0
   0
LINE
   5
300
 100
AcDbEntity
   8
LEVEL001
 370
25
 100
AcDbLine
   6
CONTINUOUS
  62
3
  10
 637.98710433778
  20
 179.06569343066
  30
0.0
  11
 637.98710433778
  21
 189.56569343066
  31
0.0
   0
LINE
   5
301
 100
AcDbEntity
   8
LEVEL001
 370
25
 100
AcDbLine
   6
CONTINUOUS
  62
3
  10
 646.98710433778
  20
 180.06569343066
  30
0.0
  11
 636.98710433778
  21
 180.06569343066
  31
0.0
   0
LINE
   5
302
 100
AcDbEntity
   8
LEVEL001
 370
25
 100
AcDbLine
   6
CONTINUOUS
  62
3
  10
 651.80205891383
  20
 197.56569343066
  30
0.0
  11
 632.17214976143
  21
 197.56569343066
  31
0.0
   0
LINE
   5
303
 100
AcDbEntity
   8
LEVEL001
 370
25
 100
AcDbLine
   6
CONTINUOUS
  62
3
  10
 651.18711654466
  20
 200.06569343066
  30
0.0
  11
 651.18711654466
  21
 197.56569343066
  31
0.0
   0
LINE
   5
304
 100
AcDbEntity
   8
LEVEL001
 370
25
 100
AcDbLine
   6
CONTINUOUS
  62
3
  10
 641.98710433763
  20
 197.56569343066
  30
0.0
  11
 643.43049423021
  21
 200.06569343066
  31
0.0
   0
LINE
   5
305
 100
AcDbEntity
   8
LEVEL001
 370
25
 100
AcDbLine
   6
CONTINUOUS
  62
3
  10
 641.98710433763
  20
 200.06569343066
  30
0.0
  11
 640.54373733324
  21
 197.56569343066
  31
0.0
   0
LINE
   5
306
 100
AcDbEntity
   8
LEVEL001
 370
25
 100
AcDbLine
   6
CONTINUOUS
  62
3
  10
 632.78711501878
  20
 197.56569343066
  30
0.0
  11
 632.78711501878
  21
 200.06569343066
  31
0.0
   0
LINE
   5
307
 100
AcDbEntity
   8
LEVEL001
 370
25
 100
AcDbLine
   6
CONTINUOUS
  62
3
  10
 649.34832026978
  20
 189.56569343066
  30
0.0
  11
 634.62588840548
  21
 189.56569343066
  31
0.0
   0
LINE
   5
308
 100
AcDbEntity
   8
LEVEL001
 370
25
 100
AcDbLine
   6
CONTINUOUS
  62
3
  10
 637.07962704953
  20
 190.78309322022
  30
0.0
  11
 637.07962704953
  21
 197.56569343066
  31
0.0
   0
LINE
   5
309
 100
AcDbEntity
   8
LEVEL001
 370
25
 100
AcDbLine
   6
CONTINUOUS
  62
3
  10
 646.89458162573
  20
 190.78309322022
  30
0.0
  11
 646.89458162573
  21
 197.56569343066
  31
0.0
   0
LINE
   5
30A
 100
AcDbEntity
   8
LEVEL001
 370
25
 100
AcDbLine
   6
CONTINUOUS
  62
3
  10
 632.17214976143
  20
 190.78309322022
  30
0.0
  11
 632.17214976143
  21
 197.56569343066
  31
0.0
   0
LINE
   5
30B
 100
AcDbEntity
   8
LEVEL001
 370
25
 100
AcDbLine
   6
CONTINUOUS
  62
3
  10
 651.80205891383
  20
 197.56569343066
  30
0.0
  11
 651.80205891383
  21
 190.78309322022
  31
0.0
   0
ARC
   5
30C
 100
AcDbEntity
   8
LEVEL001
 370
25
   6
CONTINUOUS
  62
3
 100
AcDbCircle
  10
 634.62588840548
  20
 192.64721835174
  30
0.0
  40
 3.0815249210842
 100
AcDbArc
  50
 217.22423129714
  51
 322.77576870286
   0
ARC
   5
30D
 100
AcDbEntity
   8
LEVEL001
 370
25
   6
CONTINUOUS
  62
3
 100
AcDbCircle
  10
 641.98710433763
  20
 200.06569343066
  30
0.0
  40
 10.500000000000
 100
AcDbArc
  50
 242.13571783472
  51
 297.86428216527
   0
ARC
   5
30E
 100
AcDbEntity
   8
LEVEL001
 370
25
   6
CONTINUOUS
  62
3
 100
AcDbCircle
  10
 649.34832026978
  20
 192.64721835174
  30
0.0
  40
 3.0815249210842
 100
AcDbArc
  50
 217.22423129714
  51
 322.77576870286
   0
LINE
   5
30F
 100
AcDbEntity
   8
LEVEL001
 370
25
 100
AcDbLine
   6
DASHDOT
  62
3
  10
 641.98710433763
  20
 173.34131043876
  30
0.0
  11
 641.98710433763
  21
 261.72608422274
  31
0.0
   0
ENDBLK
   5
310
 100
AcDbEntity
   8
0
 100
AcDbBlockEnd
   0
BLOCK
   5
311
 100
AcDbEntity
   8
0
 100
AcDbBlockBegin
   2
*D15
  70
65
  10
0.0
  20
0.0
  30
0.0
   3
*D15
   0
LINE
   5
312
 100
AcDbEntity
   8
LEVEL001
 370
25
 100
AcDbLine
   6
CONTINUOUS
  62
3
  10
 8.5990621336463
  20
 411.81569343066
  30
0.0
  11
 8.5990621336463
  21
 496.03700419782
  31
0.0
   0
LINE
   5
313
 100
AcDbEntity
   8
LEVEL001
 370
25
 100
AcDbLine
   6
CONTINUOUS
  62
3
  10
 308.59906213365
  20
 411.81569343066
  30
0.0
  11
 308.59906213365
  21
 496.03700419782
  31
0.0
   0
LINE
   5
314
 100
AcDbEntity
   8
LEVEL001
 370
25
 100
AcDbLine
   6
CONTINUOUS
  62
3
  10
 8.5990621336463
  20
 486.03700419782
  30
0.0
  11
 158.59906213365
  21
 486.03700419782
  31
0.0
   0
LINE
   5
315
 100
AcDbEntity
   8
LEVEL001
 370
25
 100
AcDbLine
   6
CONTINUOUS
  62
3
  10
 308.59906213365
  20
 486.03700419782
  30
0.0
  11
 158.59906213365
  21
 486.03700419782
  31
0.0
   0
INSERT
   5
316
 100
AcDbEntity
   8
LEVEL001
   6
CONTINUOUS
  62
3
 100
AcDbBlockReference
   2
_OPEN30
  10
 8.5990621336463
  20
 486.03700419782
  30
0.0
  41
 10.000000000000
  42
 10.000000000000
  43
 10.000000000000
  50
 180.00000000000
   0
INSERT
   5
317
 100
AcDbEntity
   8
LEVEL001
   6
CONTINUOUS
  62
3
 100
AcDbBlockReference
   2
_OPEN30
  10
 308.59906213365
  20
 486.03700419782
  30
0.0
  41
 10.000000000000
  42
 10.000000000000
  43
 10.000000000000
  50
0.0
   0
MTEXT
   5
318
 100
AcDbEntity
   8
LEVEL001
 370
40
  62
7
 100
AcDbMText
  10
 158.59906213365
  20
 491.39414705496
  30
0.0
  40
 12.500000000000
  41
0.0
  71
8
  72
1
   1
\A1;φ３００
   7
GMM003
   0
ENDBLK
   5
319
 100
AcDbEntity
   8
0
 100
AcDbBlockEnd
   0
ENDSEC
   0
SECTION
   2
ENTITIES
   0
TEXT
   5
31A
 100
AcDbEntity
   8
LEVEL001
 370
25
  62
3
 100
AcDbText
  10
-165.88128097853
  20
 120.26184844971
  30
0.0
  40
 2.5999999046326
   1
　
  41
 0.76923079744599
   7
STANDARD
 100
AcDbText
   0
TEXT
   5
31B
 100
AcDbEntity
   8
LEVEL001
 370
25
  62
3
 100
AcDbText
  10
-149.23487289748
  20
 120.17190551758
  30
0.0
  40
 2.5999999046326
   1
　
  41
 0.42307690191551
   7
STANDARD
 100
AcDbText
   0
TEXT
   5
31C
 100
AcDbEntity
   8
LEVEL001
 370
25
  62
3
 100
AcDbText
  10
-195.10787399611
  20
 126.32980531044
  30
0.0
  40
 3.5999999046326
   1
　
  41
 1.1111111405455
   7
STANDARD
 100
AcDbText
   0
TEXT
   5
31D
 100
AcDbEntity
   8
LEVEL001
 370
25
  62
3
 100
AcDbText
  10
-187.10787399611
  20
 126.32980531044
  30
0.0
  40
 3.5999999046326
   1
　
  41
 1.1111111405455
   7
STANDARD
 100
AcDbText
   0
TEXT
   5
31E
 100
AcDbEntity
   8
LEVEL001
 370
25
  62
3
 100
AcDbText
  10
-179.10787399611
  20
 126.32980531044
  30
0.0
  40
 3.5999999046326
   1
　
  41
 1.1111111405455
   7
STANDARD
 100
AcDbText
   0
TEXT
   5
31F
 100
AcDbEntity
   8
LEVEL001
 370
25
  62
3
 100
AcDbText
  10
-171.10787399611
  20
 126.32980531044
  30
0.0
  40
 3.5999999046326
   1
　
  41
 1.1111111405455
   7
STANDARD
 100
AcDbText
   0
TEXT
   5
320
 100
AcDbEntity
   8
LEVEL001
 370
25
  62
3
 100
AcDbText
  10
-163.10787399611
  20
 126.32980531044
  30
0.0
  40
 3.5999999046326
   1
　
  41
 1.1111111405455
   7
STANDARD
 100
AcDbText
   0
TEXT
   5
321
 100
AcDbEntity
   8
LEVEL001
 370
25
  62
3
 100
AcDbText
  10
-148.01046188674
  20
 128.45293610878
  30
0.0
  40
 3.5999999046326
   1
　
  41
 1.1111111405455
   7
STANDARD
 100
AcDbText
   0
TEXT
   5
322
 100
AcDbEntity
   8
LEVEL001
 370
25
  62
3
 100
AcDbText
  10
-144.01046188674
  20
 128.45293610878
  30
0.0
  40
 3.5999999046326
   1
　
  41
 1.1111111405455
   7
STANDARD
 100
AcDbText
   0
TEXT
   5
323
 100
AcDbEntity
   8
LEVEL001
 370
25
  62
3
 100
AcDbText
  10
-140.01046188674
  20
 128.45293610878
  30
0.0
  40
 3.5999999046326
   1
　
  41
 1.1111111405455
   7
STANDARD
 100
AcDbText
   0
TEXT
   5
324
 100
AcDbEntity
   8
LEVEL001
 370
25
  62
3
 100
AcDbText
  10
-136.01046188674
  20
 128.45293610878
  30
0.0
  40
 3.5999999046326
   1
　
  41
 1.1111111405455
   7
STANDARD
 100
AcDbText
   0
TEXT
   5
325
 100
AcDbEntity
   8
LEVEL001
 370
25
  62
3
 100
AcDbText
  10
-195.78447922072
  20
-135.37816423588
  30
0.0
  40
 3.5000000000000
   1
　
  41
 1.1428571428571
   7
STANDARD
 100
AcDbText
   0
TEXT
   5
326
 100
AcDbEntity
   8
LEVEL001
 370
25
  62
3
 100
AcDbText
  10
-191.78447922072
  20
-135.37816423588
  30
0.0
  40
 3.5000000000000
   1
 
  41
 0.57142857142857
   7
STANDARD
 100
AcDbText
   0
TEXT
   5
327
 100
AcDbEntity
   8
LEVEL001
 370
25
  62
3
 100
AcDbText
  10
-185.78447922072
  20
-135.37816423588
  30
0.0
  40
 3.5000000000000
   1
　
  41
 1.1428571428571
   7
STANDARD
 100
AcDbText
   0
TEXT
   5
328
 100
AcDbEntity
   8
LEVEL001
 370
25
  62
3
 100
AcDbText
  10
-181.78447922072
  20
-135.37816423588
  30
0.0
  40
 3.5000000000000
   1
 
  41
 0.57142857142857
   7
STANDARD
 100
AcDbText
   0
TEXT
   5
329
 100
AcDbEntity
   8
LEVEL001
 370
25
  62
3
 100
AcDbText
  10
-199.12780197463
  20
-127.74216264896
  30
0.0
  40
 3.5000000000000
   1
 
  41
 0.45714286395482
   7
STANDARD
 100
AcDbText
   0
TEXT
   5
32A
 100
AcDbEntity
   8
LEVEL001
 370
25
  62
3
 100
AcDbText
  10
-194.32779892287
  20
-127.74216264896
  30
0.0
  40
 3.5000000000000
   1
 
  41
 0.45714286395482
   7
STANDARD
 100
AcDbText
   0
TEXT
   5
32B
 100
AcDbEntity
   8
LEVEL001
 370
25
  62
3
 100
AcDbText
  10
-182.35412033400
  20
-127.74216264896
  30
0.0
  40
 3.5000000000000
   1
 
  41
 0.45714286395482
   7
STANDARD
 100
AcDbText
   0
TEXT
   5
32C
 100
AcDbEntity
   8
LEVEL001
 370
25
  62
3
 100
AcDbText
  10
-180.75411423049
  20
-127.74216264896
  30
0.0
  40
 3.5000000000000
   1
 
  41
 0.45714286395482
   7
STANDARD
 100
AcDbText
   0
TEXT
   5
32D
 100
AcDbEntity
   8
LEVEL001
 370
25
  62
3
 100
AcDbText
  10
-101.39085110030
  20
-145.43401152305
  30
0.0
  40
 4.0000000000000
   1
　
  41
 0.80000001192093
   7
STANDARD
 100
AcDbText
   0
TEXT
   5
32E
 100
AcDbEntity
   8
LEVEL001
 370
25
  62
3
 100
AcDbText
  10
-98.190854152058
  20
-145.43401152305
  30
0.0
  40
 4.0000000000000
   1
　
  41
 0.80000001192093
   7
STANDARD
 100
AcDbText
   0
TEXT
   5
32F
 100
AcDbEntity
   8
LEVEL001
 370
25
  62
3
 100
AcDbText
  10
-94.990849574421
  20
-145.43401152305
  30
0.0
  40
 4.0000000000000
   1
　
  41
 0.80000001192093
   7
STANDARD
 100
AcDbText
   0
TEXT
   5
330
 100
AcDbEntity
   8
LEVEL001
 370
25
  62
3
 100
AcDbText
  10
-137.13345821700
  20
-135.44821733646
  30
0.0
  40
 3.5000000000000
   1
　
  41
 0.71428571428571
   7
STANDARD
 100
AcDbText
   0
TEXT
   5
331
 100
AcDbEntity
   8
LEVEL001
 370
25
  62
3
 100
AcDbText
  10
-103.09236629805
  20
-135.48129839115
  30
0.0
  40
 3.5000000000000
   1
　
  41
 1.1428571428571
   7
STANDARD
 100
AcDbText
   0
TEXT
   5
332
 100
AcDbEntity
   8
LEVEL001
 370
25
  62
3
 100
AcDbText
  10
-105.09236629805
  20
-135.48129839115
  30
0.0
  40
 3.5000000000000
   1
　
  41
 1.1428571428571
   7
STANDARD
 100
AcDbText
   0
TEXT
   5
333
 100
AcDbEntity
   8
LEVEL001
 370
25
  62
3
 100
AcDbText
  10
-105.09234627089
  20
-135.48129839115
  30
0.0
  40
 3.5000000000000
   1
　
  41
 1.1428571428571
   7
STANDARD
 100
AcDbText
   0
POINT
   5
334
 100
AcDbEntity
   8
LEVEL001
 100
AcDbPoint
  62
7
  10
-210.00003412603
  20
-148.50000836058
  30
0.0
   0
LINE
   5
335
 100
AcDbEntity
   8
LEVEL001
 370
25
 100
AcDbLine
   6
CONTINUOUS
  62
3
  10
-179.99998229478
  20
-43.500071780371
  30
0.0
  11
 760.00001770522
  21
-43.500071780371
  31
0.0
   0
LINE
   5
336
 100
AcDbEntity
   8
LEVEL001
 370
25
 100
AcDbLine
   6
CONTINUOUS
  62
3
  10
 190.00001770522
  20
-93.500071780371
  30
0.0
  11
 190.00001770522
  21
-143.50007178037
  31
0.0
   0
LWPOLYLINE
   5
337
 100
AcDbEntity
   8
LEVEL001
 370
40
   6
CONTINUOUS
  62
7
 100
AcDbPolyline
  90
6
  70
1
  10
-179.99998229478
  20
-143.50007178037
  10
 450.00001770522
  20
-143.50007178037
  10
 450.00001770522
  20
-93.500071780371
  10
 760.00001770522
  20
-93.500071780371
  10
 760.00001770522
  20
 1256.4999282196
  10
-179.99998229478
  20
 1256.4999282196
   0
LINE
   5
338
 100
AcDbEntity
   8
LEVEL001
 370
25
 100
AcDbLine
   6
CONTINUOUS
  62
3
  10
 160.00001770522
  20
-93.500071780371
  30
0.0
  11
 450.00001770522
  21
-93.500071780371
  31
0.0
   0
LINE
   5
339
 100
AcDbEntity
   8
LEVEL001
 370
25
 100
AcDbLine
   6
CONTINUOUS
  62
3
  10
 320.00007969405
  20
-93.500071184325
  30
0.0
  11
 320.00007969405
  21
-143.50007178037
  31
0.0
   0
LINE
   5
33A
 100
AcDbEntity
   8
LEVEL001
 370
25
 100
AcDbLine
   6
CONTINUOUS
  62
3
  10
 290.00007969405
  20
-93.500071184325
  30
0.0
  11
 290.00007969405
  21
-143.50007178037
  31
0.0
   0
LINE
   5
33B
 100
AcDbEntity
   8
LEVEL001
 370
25
 100
AcDbLine
   6
CONTINUOUS
  62
3
  10
 160.00001770522
  20
-43.500071780371
  30
0.0
  11
 160.00001770522
  21
-143.50007178037
  31
0.0
   0
INSERT
   5
33C
 100
AcDbEntity
   8
0
 100
AcDbBlockReference
   2
BLOCK001
  10
0.0
  20
0.0
  30
0.0
   0
MTEXT
   5
33D
 100
AcDbEntity
   8
LEVEL001
 370
40
  62
7
 100
AcDbMText
  10
 166.84394699599
  20
-98.196092324447
  30
0.0
  40
 12.000000000000
  41
0.0
  71
1
  72
3
   1
日付
   7
GMM001
   0
MTEXT
   5
33E
 100
AcDbEntity
   8
LEVEL001
 370
40
  62
7
 100
AcDbMText
  10
 296.84400898482
  20
-98.710315581051
  30
0.0
  40
 12.000000000000
  41
0.0
  71
1
  72
3
   1
尺度
   7
GMM001
   0
LINE
   5
33F
 100
AcDbEntity
   8
LEVEL001
 370
25
 100
AcDbLine
   6
CONTINUOUS
  62
3
  10
 450.00001770522
  20
-43.500071780371
  30
0.0
  11
 450.00001770522
  21
-93.500071780371
  31
0.0
   0
LINE
   5
340
 100
AcDbEntity
   8
LEVEL001
 370
25
 100
AcDbLine
   6
CONTINUOUS
  62
3
  10
 480.00001770522
  20
-43.500071780371
  30
0.0
  11
 480.00001770522
  21
-93.500071780371
  31
0.0
   0
MTEXT
   5
341
 100
AcDbEntity
   8
LEVEL001
 370
40
  62
7
 100
AcDbMText
  10
 161.94762519060
  20
-61.646337004283
  30
0.0
  40
 12.000000000000
  41
0.0
  71
7
  72
1
   1
ワーク名称
   7
GMM002
   0
MTEXT
   5
342
 100
AcDbEntity
   8
LEVEL001
 370
40
  62
7
 100
AcDbMText
  10
 456.84394699599
  20
-49.489502813876
  30
0.0
  40
 12.000000000000
  41
0.0
  71
1
  72
3
   1
図番
   7
GMM001
   0
MTEXT
   5
343
 100
AcDbEntity
   8
LEVEL001
 370
40
  62
7
 100
AcDbMText
  10
 328.17447845740
  20
-133.81039688831
  30
0.0
  40
 13.500000000000
  41
0.0
  71
7
  72
1
   1
Ａ４－１／５
   7
GMM002
   0
LWPOLYLINE
   5
344
 100
AcDbEntity
   8
LEVEL001
 370
40
   6
CONTINUOUS
  62
7
 100
AcDbPolyline
  90
4
  70
1
  10
 218.59906213365
  20
 747.76729191090
  10
 518.59906213365
  20
 747.76729191090
  10
 518.59906213365
  20
 763.76729191090
  10
 218.59906213365
  20
 763.76729191090
   0
INSERT
   5
345
 100
AcDbEntity
   8
0
 100
AcDbBlockReference
   2
BLOCK002
  10
0.0
  20
0.0
  30
0.0
   0
DIMENSION
   5
346
 100
AcDbEntity
   8
LEVEL001
 370
40
   6
CONTINUOUS
  62
7
 100
AcDbDimension
   2
*D1
  10
 408.59906213365
  20
 602.89240443253
  30
0.0
  11
 208.59906213365
  21
 602.89240443253
  31
0.0
  70
0
   3
GMM001
 100
AcDbAlignedDimension
  13
 8.5990621336462
  23
 685.76729191090
  33
0.0
  14
 408.59906213365
  24
 685.76729191090
  34
0.0
 100
AcDbRotatedDimension
   0
DIMENSION
   5
347
 100
AcDbEntity
   8
LEVEL001
 370
40
   6
CONTINUOUS
  62
7
 100
AcDbDimension
   2
*D2
  10
 518.59906213365
  20
 602.89240443253
  30
0.0
  11
 463.59906213365
  21
 602.89240443253
  31
0.0
  70
0
   3
GMM001
 100
AcDbAlignedDimension
  13
 408.59906213365
  23
 685.76729191090
  33
0.0
  14
 518.59906213365
  24
 747.76729191090
  34
0.0
 100
AcDbRotatedDimension
   0
INSERT
   5
348
 100
AcDbEntity
   8
0
 100
AcDbBlockReference
   2
BLOCK003
  10
0.0
  20
0.0
  30
0.0
   0
INSERT
   5
349
 100
AcDbEntity
   8
0
 100
AcDbBlockReference
   2
BLOCK004
  10
0.0
  20
0.0
  30
0.0
   0
INSERT
   5
34A
 100
AcDbEntity
   8
0
 100
AcDbBlockReference
   2
BLOCK005
  10
0.0
  20
0.0
  30
0.0
   0
INSERT
   5
34B
 100
AcDbEntity
   8
0
 100
AcDbBlockReference
   2
BLOCK006
  10
0.0
  20
0.0
  30
0.0
   0
LINE
   5
34C
 100
AcDbEntity
   8
LEVEL001
 370
9
 100
AcDbLine
   6
DASHDOT
  62
11
  10
 328.59906213365
  20
 788.23982429303
  30
0.0
  11
 328.59906213365
  21
 723.05107154090
  31
0.0
   0
MTEXT
   5
34D
 100
AcDbEntity
   8
LEVEL001
 370
40
  62
7
 100
AcDbMText
  10
 122.34615529302
  20
-95.861454645761
  30
0.0
  40
 17.500000000000
  41
0.0
  71
7
  72
1
   1
様
   7
GMM003
   0
LINE
   5
34E
 100
AcDbEntity
   8
LEVEL001
 370
25
 100
AcDbLine
   6
CONTINUOUS
  62
3
  10
-179.99998229478
  20
-103.50007178037
  30
0.0
  11
 160.00001770522
  21
-103.50007178037
  31
0.0
   0
MTEXT
   5
34F
 100
AcDbEntity
   8
LEVEL001
 370
40
  62
7
 100
AcDbMText
  10
-172.17312839838
  20
-61.671810648983
  30
0.0
  40
 12.000000000000
  41
0.0
  71
7
  72
1
   1
お客様
   7
GMM002
   0
MTEXT
   5
350
 100
AcDbEntity
   8
LEVEL001
 370
40
  62
7
 100
AcDbMText
  10
-172.17312839838
  20
-130.10090277634
  30
0.0
  40
 12.000000000000
  41
0.0
  71
7
  72
1
   1
仕様書番号
   7
GMM002
   0
CIRCLE
   5
351
 100
AcDbEntity
   8
LEVEL001
 370
40
 100
AcDbCircle
   6
CONTINUOUS
  62
7
  10
 33.599062133646
  20
 710.76729191090
  30
0.0
  40
 5.5000000000000
   0
LINE
   5
352
 100
AcDbEntity
   8
LEVEL001
 370
25
 100
AcDbLine
   6
DASHDOT
  62
3
  10
 43.599062133646
  20
 710.76729191090
  30
0.0
  11
 23.599062133646
  21
 710.76729191090
  31
0.0
   0
LINE
   5
353
 100
AcDbEntity
   8
LEVEL001
 370
25
 100
AcDbLine
   6
DASHDOT
  62
3
  10
 33.599062133646
  20
 720.76729191090
  30
0.0
  11
 33.599062133646
  21
 700.76729191090
  31
0.0
   0
CIRCLE
   5
354
 100
AcDbEntity
   8
LEVEL001
 370
40
 100
AcDbCircle
   6
CONTINUOUS
  62
7
  10
 383.59906213365
  20
 710.76729191090
  30
0.0
  40
 5.5000000000000
   0
LINE
   5
355
 100
AcDbEntity
   8
LEVEL001
 370
25
 100
AcDbLine
   6
DASHDOT
  62
3
  10
 393.59906213365
  20
 710.76729191090
  30
0.0
  11
 373.59906213365
  21
 710.76729191090
  31
0.0
   0
LINE
   5
356
 100
AcDbEntity
   8
LEVEL001
 370
25
 100
AcDbLine
   6
DASHDOT
  62
3
  10
 383.59906213365
  20
 720.76729191090
  30
0.0
  11
 383.59906213365
  21
 700.76729191090
  31
0.0
   0
LEADER
   5
357
 100
AcDbEntity
   8
LEVEL001
 370
40
   6
CONTINUOUS
  62
3
 100
AcDbLeader
   3
GMM002
  73
0
  74
0
  75
0
  40
 12.500000000000
  41
 185.04029999969
  76
2
  10
 29.996204736459
  20
 705.63185484485
  30
0.0
  10
-65.628546755446
  20
 547.79363466468
  30
0.0
  77
3
 340
359
 213
0.0
 223
-5.3571428571429
 233
0.0
   0
MTEXT
   5
359
 102
{ACAD_REACTORS
 330
358
 102
}
 100
AcDbEntity
   8
LEVEL001
 370
40
  62
7
 100
AcDbMText
  10
-38.088246755761
  20
 553.15077752182
  30
0.0
  40
 12.500000000000
  41
0.0
  71
7
  72
1
   1
\A1;４－φ１１取付け穴
   7
GMM003
   0
LWPOLYLINE
   5
35A
 100
AcDbEntity
   8
LEVEL001
 370
9
   6
DOT
  62
11
 100
AcDbPolyline
  90
4
  70
1
  10
 273.59906213364
  20
 730.76729191090
  10
 383.59906213364
  20
 730.76729191090
  10
 383.59906213364
  20
 780.76729191090
  10
 273.59906213364
  20
 780.76729191090
   0
DIMENSION
   5
35B
 100
AcDbEntity
   8
LEVEL001
 370
40
   6
CONTINUOUS
  62
7
 100
AcDbDimension
   2
*D4
  10
 383.59906213365
  20
 639.96114317385
  30
0.0
  11
 208.59906213365
  21
 639.96114317385
  31
0.0
  70
0
   3
GMM001
 100
AcDbAlignedDimension
  13
 33.599062133646
  23
 700.76729191090
  33
0.0
  14
 383.59906213365
  24
 700.76729191090
  34
0.0
 100
AcDbRotatedDimension
   0
DIMENSION
   5
35C
 100
AcDbEntity
   8
LEVEL001
 370
40
   6
CONTINUOUS
  62
7
 100
AcDbDimension
   2
*D5
  10
 408.59906213365
  20
 639.96114317385
  30
0.0
  11
 423.13253849920
  21
 639.96114317385
  31
0.0
  70
128
   3
GMM003
 100
AcDbAlignedDimension
  13
 383.59906213365
  23
 700.76729191090
  33
0.0
  14
 408.59906213365
  24
 685.76729191090
  34
0.0
 100
AcDbRotatedDimension
   0
LINE
   5
35D
 100
AcDbEntity
   8
LEVEL001
 370
25
 100
AcDbLine
   6
DASHDOT
  62
3
  10
 534.29421746567
  20
 755.76729191090
  30
0.0
  11
 158.59906213365
  21
 755.76729191090
  31
0.0
   0
MTEXT
   5
35E
 100
AcDbEntity
   8
LEVEL001
 370
40
  62
7
 100
AcDbMText
  10
 500.90511588109
  20
-78.497160821826
  30
0.0
  40
 15.000000000000
  41
0.0
  71
7
  72
1
   1
ＳＴ２Ｌｄ３／ＳＨ１０
   7
GMM002
   0
INSERT
   5
35F
 100
AcDbEntity
   8
0
 100
AcDbBlockReference
   2
BLOCK007
  10
0.0
  20
0.0
  30
0.0
   0
LINE
   5
360
 100
AcDbEntity
   8
LEVEL001
 370
25
 100
AcDbLine
   6
DASHDOT
  62
3
  10
 410.39023179717
  20
 935.76729191090
  30
0.0
  11
-34.075462880541
  21
 935.76729191090
  31
0.0
   0
DIMENSION
   5
361
 100
AcDbEntity
   8
LEVEL001
 370
40
   6
CONTINUOUS
  62
7
 100
AcDbDimension
   2
*D6
  10
-84.251824817518
  20
 1065.7672919109
  30
0.0
  11
-84.251824817518
  21
 875.76729191090
  31
0.0
  70
0
   3
GMM001
 100
AcDbAlignedDimension
  13
 8.5990621336462
  23
 685.76729191090
  33
0.0
  14
 8.5990621336462
  24
 1065.7672919109
  34
0.0
  50
 90.000000000000
 100
AcDbRotatedDimension
   0
CIRCLE
   5
362
 100
AcDbEntity
   8
LEVEL001
 370
40
 100
AcDbCircle
   6
CONTINUOUS
  62
7
  10
 383.59906213365
  20
 1040.7672919109
  30
0.0
  40
 5.5000000000000
   0
LINE
   5
363
 100
AcDbEntity
   8
LEVEL001
 370
25
 100
AcDbLine
   6
DASHDOT
  62
3
  10
 393.59906213365
  20
 1040.7672919109
  30
0.0
  11
 373.59906213365
  21
 1040.7672919109
  31
0.0
   0
LINE
   5
364
 100
AcDbEntity
   8
LEVEL001
 370
25
 100
AcDbLine
   6
DASHDOT
  62
3
  10
 383.59906213365
  20
 1050.7672919109
  30
0.0
  11
 383.59906213365
  21
 1030.7672919109
  31
0.0
   0
LINE
   5
365
 100
AcDbEntity
   8
LEVEL001
 370
25
 100
AcDbLine
   6
DASHDOT
  62
3
  10
 43.599062133646
  20
 1040.7672919109
  30
0.0
  11
 23.599062133646
  21
 1040.7672919109
  31
0.0
   0
LINE
   5
366
 100
AcDbEntity
   8
LEVEL001
 370
25
 100
AcDbLine
   6
DASHDOT
  62
3
  10
 33.599062133646
  20
 1050.7672919109
  30
0.0
  11
 33.599062133646
  21
 1030.7672919109
  31
0.0
   0
CIRCLE
   5
367
 100
AcDbEntity
   8
LEVEL001
 370
40
 100
AcDbCircle
   6
CONTINUOUS
  62
7
  10
 33.599062133646
  20
 1040.7672919109
  30
0.0
  40
 5.5000000000000
   0
DIMENSION
   5
368
 100
AcDbEntity
   8
LEVEL001
 370
40
   6
CONTINUOUS
  62
7
 100
AcDbDimension
   2
*D7
  10
-44.507299270073
  20
 710.76729191090
  30
0.0
  11
-44.507299270073
  21
 681.94908314047
  31
0.0
  70
128
   3
GMM004
 100
AcDbAlignedDimension
  13
 8.5990621336462
  23
 685.76729191090
  33
0.0
  14
 23.599062133646
  24
 710.76729191090
  34
0.0
  50
 90.000000000000
 100
AcDbRotatedDimension
   0
DIMENSION
   5
369
 100
AcDbEntity
   8
LEVEL001
 370
40
   6
CONTINUOUS
  62
7
 100
AcDbDimension
   2
*D8
  10
-44.507299270073
  20
 1040.7672919109
  30
0.0
  11
-44.507299270073
  21
 875.76729191090
  31
0.0
  70
0
   3
GMM001
 100
AcDbAlignedDimension
  13
 23.599062133646
  23
 710.76729191090
  33
0.0
  14
 23.599062133646
  24
 1040.7672919109
  34
0.0
  50
 90.000000000000
 100
AcDbRotatedDimension
   0
INSERT
   5
36A
 100
AcDbEntity
   8
0
 100
AcDbBlockReference
   2
BLOCK008
  10
0.0
  20
0.0
  30
0.0
   0
INSERT
   5
36B
 100
AcDbEntity
   8
0
 100
AcDbBlockReference
   2
BLOCK009
  10
0.0
  20
0.0
  30
0.0
   0
LWPOLYLINE
   5
36C
 100
AcDbEntity
   8
LEVEL001
 370
40
   6
CONTINUOUS
  62
7
 100
AcDbPolyline
  90
3
  70
0
  10
 408.59906213365
  20
 784.26729191090
  10
 408.59906213365
  20
 1065.7672919109
  10
 245.16551059955
  20
 1065.7672919109
   0
LINE
   5
36D
 100
AcDbEntity
   8
LEVEL001
 370
25
 100
AcDbLine
   6
DOT
  62
3
  10
 64.060710127701
  20
 1065.7672919109
  30
0.0
  11
 245.16551059955
  21
 1065.7672919109
  31
0.0
   0
LWPOLYLINE
   5
36E
 100
AcDbEntity
   8
LEVEL001
 370
40
   6
CONTINUOUS
  62
7
 100
AcDbPolyline
  90
4
  70
0
  10
 8.5990621336462
  20
 824.47507181650
  10
 8.5990621336462
  20
 685.76729191090
  10
 408.59906213365
  20
 685.76729191090
  10
 408.59906213365
  20
 727.26729191090
   0
LWPOLYLINE
   5
36F
 100
AcDbEntity
   8
LEVEL001
 370
40
   6
CONTINUOUS
  62
7
 100
AcDbPolyline
  90
3
  70
0
  10
 64.060710127701
  20
 1065.7672919109
  10
 8.5990621336462
  20
 1065.7672919109
  10
 8.5990621336462
  20
 1009.5595120053
   0
LINE
   5
370
 100
AcDbEntity
   8
LEVEL001
 370
25
 100
AcDbLine
   6
DOT
  62
3
  10
 8.5990621336462
  20
 1009.5595120053
  30
0.0
  11
 8.5990621336462
  21
 824.47507181650
  31
0.0
   0
DIMENSION
   5
371
 100
AcDbEntity
   8
LEVEL001
 370
40
   6
CONTINUOUS
  62
7
 100
AcDbDimension
   2
*D9
  10
 463.30282021131
  20
 755.76729191090
  30
0.0
  11
 463.30282021131
  21
 720.76729191090
  31
0.0
  70
0
   3
GMM001
 100
AcDbAlignedDimension
  13
 408.59906213365
  23
 685.76729191090
  33
0.0
  14
 452.10876482191
  24
 755.76729191090
  34
0.0
  50
 90.000000000000
 100
AcDbRotatedDimension
   0
DIMENSION
   5
372
 100
AcDbEntity
   8
LEVEL001
 370
40
   6
CONTINUOUS
  62
7
 100
AcDbDimension
   2
*D10
  10
 463.30282021131
  20
 935.76729191090
  30
0.0
  11
 463.30282021131
  21
 845.76729191090
  31
0.0
  70
0
   1
\A1;（１８０）
   3
GMM005
 100
AcDbAlignedDimension
  13
 452.10876482191
  23
 755.76729191090
  33
0.0
  14
 410.39023179717
  24
 935.76729191090
  34
0.0
  50
 90.000000000000
 100
AcDbRotatedDimension
   0
LINE
   5
374
 100
AcDbEntity
   8
LEVEL001
 370
25
 100
AcDbLine
   6
DASHDOT
  62
3
  10
 158.59906213365
  20
 1110.2822681147
  30
0.0
  11
 158.59906213365
  21
 709.85452087413
  31
0.0
   0
LWPOLYLINE
   5
375
 100
AcDbEntity
   8
LEVEL001
 370
40
   6
CONTINUOUS
  62
7
 100
AcDbPolyline
  90
4
  70
1
  10
 601.98710433763
  20
 200.06569343066
  10
 651.98710433763
  20
 200.06569343066
  10
 651.98710433763
  20
 209.06569343066
  10
 601.98710433763
  20
 209.06569343066
   0
LINE
   5
376
 100
AcDbEntity
   8
LEVEL001
 370
40
 100
AcDbLine
   6
CONTINUOUS
  62
7
  10
 602.68710433763
  20
 138.06569343066
  30
0.0
  11
 602.68710433763
  21
 200.06569343066
  31
0.0
   0
LINE
   5
377
 100
AcDbEntity
   8
LEVEL001
 370
40
 100
AcDbLine
   6
CONTINUOUS
  62
7
  10
 602.68710433763
  20
 200.06569343066
  30
0.0
  11
 602.68710433763
  21
 138.06569343066
  31
0.0
   0
LINE
   5
378
 100
AcDbEntity
   8
LEVEL001
 370
25
 100
AcDbLine
   6
DOT
  62
3
  10
 606.18710433763
  20
 200.06569343066
  30
0.0
  11
 606.18710433763
  21
 138.06569343066
  31
0.0
   0
LINE
   5
379
 100
AcDbEntity
   8
LEVEL001
 370
25
 100
AcDbLine
   6
DOT
  62
3
  10
 647.78710433763
  20
 200.06569343066
  30
0.0
  11
 647.78710433763
  21
 138.06569343066
  31
0.0
   0
LINE
   5
37A
 100
AcDbEntity
   8
LEVEL001
 370
40
 100
AcDbLine
   6
CONTINUOUS
  62
7
  10
 651.28710433763
  20
 200.06569343066
  30
0.0
  11
 651.28710433763
  21
 138.06569343066
  31
0.0
   0
LWPOLYLINE
   5
37B
 100
AcDbEntity
   8
LEVEL001
 370
40
   6
CONTINUOUS
  62
7
 100
AcDbPolyline
  90
4
  70
1
  10
 601.98710433763
  20
 129.06569343066
  10
 651.98710433763
  20
 129.06569343066
  10
 651.98710433763
  20
 138.06569343066
  10
 601.98710433763
  20
 138.06569343066
   0
LWPOLYLINE
   5
37C
 100
AcDbEntity
   8
LEVEL001
 370
40
   6
CONTINUOUS
  62
7
 100
AcDbPolyline
  90
4
  70
0
  10
 690.64995059778
  20
 129.06569343066
  10
 556.98710433763
  20
 129.06569343066
  10
 556.98710433763
  20
 117.06569343066
  10
 690.64995059778
  20
 117.06569343066
   0
LWPOLYLINE
   5
37D
 100
AcDbEntity
   8
LEVEL001
 370
40
   6
CONTINUOUS
  62
7
 100
AcDbPolyline
  90
4
  70
1
  10
 8.5990621336462
  20
 117.06569343066
  10
 408.59906213365
  20
 117.06569343066
  10
 408.59906213365
  20
 129.06569343066
  10
 8.5990621336462
  20
 129.06569343066
   0
DIMENSION
   5
37E
 100
AcDbEntity
   8
LEVEL001
 370
40
   6
CONTINUOUS
  62
7
 100
AcDbDimension
   2
*D11
  10
 449.80712706389
  20
 129.06569343066
  30
0.0
  11
 449.80712706389
  21
 148.36715455781
  31
0.0
  70
128
   3
GMM006
 100
AcDbAlignedDimension
  13
 408.59906213365
  23
 117.06569343066
  33
0.0
  14
 408.59906213365
  24
 129.06569343066
  34
0.0
  50
 90.000000000000
 100
AcDbRotatedDimension
   0
LINE
   5
37F
 100
AcDbEntity
   8
LEVEL001
 370
25
 100
AcDbLine
   6
DASHDOT
  62
3
  10
 328.59906213365
  20
 219.37414519564
  30
0.0
  11
 328.59906213365
  21
 122.23961284211
  31
0.0
   0
MTEXT
   5
380
 100
AcDbEntity
   8
LEVEL001
 370
9
  62
11
 100
AcDbMText
  10
 300.53941808869
  20
 290.66211035830
  30
0.0
  40
 10.000000000000
  41
0.0
  71
7
  72
1
   1
ＳＨ－１０
   7
GMM002
   0
INSERT
   5
381
 100
AcDbEntity
   8
0
 100
AcDbBlockReference
   2
BLOCK010
  10
0.0
  20
0.0
  30
0.0
   0
INSERT
   5
382
 100
AcDbEntity
   8
0
 100
AcDbBlockReference
   2
BLOCK011
  10
0.0
  20
0.0
  30
0.0
   0
INSERT
   5
383
 100
AcDbEntity
   8
0
 100
AcDbBlockReference
   2
BLOCK012
  10
0.0
  20
0.0
  30
0.0
   0
INSERT
   5
384
 100
AcDbEntity
   8
0
 100
AcDbBlockReference
   2
BLOCK013
  10
0.0
  20
0.0
  30
0.0
   0
INSERT
   5
385
 100
AcDbEntity
   8
0
 100
AcDbBlockReference
   2
BLOCK014
  10
0.0
  20
0.0
  30
0.0
   0
INSERT
   5
386
 100
AcDbEntity
   8
0
 100
AcDbBlockReference
   2
BLOCK015
  10
0.0
  20
0.0
  30
0.0
   0
MTEXT
   5
387
 100
AcDbEntity
   8
LEVEL001
 370
9
  62
11
 100
AcDbMText
  10
 73.814751061115
  20
 238.42122048251
  30
0.0
  40
 10.000000000000
  41
0.0
  71
7
  72
1
   1
ＳＴ－２
   7
GMM002
   0
MTEXT
   5
388
 100
AcDbEntity
   8
LEVEL001
 370
9
  62
11
 100
AcDbMText
  10
 91.334416702589
  20
 336.36712100061
  30
0.0
  40
 10.000000000000
  41
0.0
  71
4
  72
1
   1
Ｄ－3\P
   7
GMM002
   0
INSERT
   5
389
 100
AcDbEntity
   8
0
 100
AcDbBlockReference
   2
BLOCK016
  10
0.0
  20
0.0
  30
0.0
   0
DIMENSION
   5
38A
 100
AcDbEntity
   8
LEVEL001
 370
40
   6
CONTINUOUS
  62
7
 100
AcDbDimension
   2
*D12
  10
 218.59906213365
  20
 451.58328112500
  30
0.0
  11
 188.59906213365
  21
 451.58328112500
  31
0.0
  70
0
   3
GMM001
 100
AcDbAlignedDimension
  13
 158.59906213365
  23
 440.91102149661
  33
0.0
  14
 218.59906213365
  24
 380.06569343066
  34
0.0
 100
AcDbRotatedDimension
   0
DIMENSION
   5
38B
 100
AcDbEntity
   8
LEVEL001
 370
40
   6
CONTINUOUS
  62
7
 100
AcDbDimension
   2
*D13
  10
 518.59906213365
  20
 451.58328112500
  30
0.0
  11
 368.59906213365
  21
 451.58328112500
  31
0.0
  70
0
   3
GMM001
 100
AcDbAlignedDimension
  13
 218.59906213365
  23
 380.06569343066
  33
0.0
  14
 518.59906213365
  24
 380.06569343066
  34
0.0
 100
AcDbRotatedDimension
   0
LWPOLYLINE
   5
38C
 100
AcDbEntity
   8
LEVEL001
 370
40
   6
CONTINUOUS
  62
7
 100
AcDbPolyline
  90
4
  70
1
  10
 218.59906213365
  20
 370.06569343066
  10
 518.59906213365
  20
 370.06569343066
  10
 518.59906213365
  20
 380.06569343066
  10
 218.59906213365
  20
 380.06569343066
   0
INSERT
   5
38D
 100
AcDbEntity
   8
0
 100
AcDbBlockReference
   2
BLOCK017
  10
0.0
  20
0.0
  30
0.0
   0
LWPOLYLINE
   5
38E
 100
AcDbEntity
   8
LEVEL001
 370
40
   6
CONTINUOUS
  62
7
 100
AcDbPolyline
  90
4
  70
1
  10
 268.59906213365
  20
 364.06569343066
  10
 398.59906213365
  20
 364.06569343066
  10
 398.59906213365
  20
 370.06569343066
  10
 268.59906213365
  20
 370.06569343066
   0
LWPOLYLINE
   5
38F
 100
AcDbEntity
   8
LEVEL001
 370
40
   6
CONTINUOUS
  62
7
 100
AcDbPolyline
  90
4
  70
1
  10
 248.59906213365
  20
 255.06569343066
  10
 408.59906213365
  20
 255.06569343066
  10
 408.59906213365
  20
 264.06569343066
  10
 248.59906213365
  20
 264.06569343066
   0
DIMENSION
   5
390
 100
AcDbEntity
   8
LEVEL001
 370
40
   6
CONTINUOUS
  62
7
 100
AcDbDimension
   2
*D14
  10
 490.79627136372
  20
 380.06569343066
  30
0.0
  11
 490.79627136372
  21
 248.56569343066
  31
0.0
  70
0
   1
\A1;（２６３）
   3
GMM005
 100
AcDbAlignedDimension
  13
 408.59906213365
  23
 117.06569343066
  33
0.0
  14
 490.79627136372
  24
 380.06569343066
  34
0.0
  50
 90.000000000000
 100
AcDbRotatedDimension
   0
LINE
   5
392
 100
AcDbEntity
   8
LEVEL001
 370
25
 100
AcDbLine
   6
DASHDOT
  62
3
  10
 626.98710433763
  20
 389.23683284300
  30
0.0
  11
 626.98710433763
  21
 107.26186214871
  31
0.0
   0
INSERT
   5
393
 100
AcDbEntity
   8
0
 100
AcDbBlockReference
   2
BLOCK018
  10
0.0
  20
0.0
  30
0.0
   0
LWPOLYLINE
   5
394
 100
AcDbEntity
   8
LEVEL001
 370
40
   6
CONTINUOUS
  62
7
 100
AcDbPolyline
  90
4
  70
1
  10
 601.98710433763
  20
 364.06569343066
  10
 651.98710433763
  20
 364.06569343066
  10
 651.98710433763
  20
 370.06569343066
  10
 601.98710433763
  20
 370.06569343066
   0
LWPOLYLINE
   5
395
 100
AcDbEntity
   8
LEVEL001
 370
40
   6
CONTINUOUS
  62
7
 100
AcDbPolyline
  90
4
  70
1
  10
 618.98710433763
  20
 370.06569343066
  10
 634.98710433763
  20
 370.06569343066
  10
 634.98710433763
  20
 380.06569343066
  10
 618.98710433763
  20
 380.06569343066
   0
LWPOLYLINE
   5
396
 100
AcDbEntity
   8
LEVEL001
 370
40
   6
CONTINUOUS
  62
7
 100
AcDbPolyline
  90
4
  70
1
  10
 601.98710433763
  20
 255.06569343066
  10
 651.98710433763
  20
 255.06569343066
  10
 651.98710433763
  20
 264.06569343066
  10
 601.98710433763
  20
 264.06569343066
   0
INSERT
   5
397
 100
AcDbEntity
   8
0
 100
AcDbBlockReference
   2
BLOCK019
  10
0.0
  20
0.0
  30
0.0
   0
INSERT
   5
398
 100
AcDbEntity
   8
0
 100
AcDbBlockReference
   2
BLOCK020
  10
0.0
  20
0.0
  30
0.0
   0
INSERT
   5
399
 100
AcDbEntity
   8
0
 100
AcDbBlockReference
   2
BLOCK021
  10
0.0
  20
0.0
  30
0.0
   0
INSERT
   5
39A
 100
AcDbEntity
   8
0
 100
AcDbBlockReference
   2
BLOCK022
  10
0.0
  20
0.0
  30
0.0
   0
LINE
   5
39B
 100
AcDbEntity
   8
LEVEL001
 370
25
 100
AcDbLine
   6
DASHDOT
  62
3
  10
 158.59906213365
  20
 440.91102149661
  30
0.0
  11
 158.59906213365
  21
 136.31554284525
  31
0.0
   0
DIMENSION
   5
39C
 100
AcDbEntity
   8
LEVEL001
 370
40
   6
CONTINUOUS
  62
7
 100
AcDbDimension
   2
*D15
  10
 308.59906213365
  20
 486.03700419782
  30
0.0
  11
 158.59906213365
  21
 486.03700419782
  31
0.0
  70
0
   3
GMM007
 100
AcDbAlignedDimension
  13
 8.5990621336463
  23
 406.81569343066
  33
0.0
  14
 308.59906213365
  24
 406.81569343066
  34
0.0
 100
AcDbRotatedDimension
   0
ENDSEC
  0
SECTION
  2
OBJECTS
  0
DICTIONARY
  5
C
100
AcDbDictionary
  3
ACAD_GROUP
350
D
  3
ACAD_MLINESTYLE
350
1B
  0
DICTIONARY
  5
D
102
{ACAD_REACTORS
330
C
102
}
100
AcDbDictionary
  0
DICTIONARY
  5
1B
102
{ACAD_REACTORS
330
C
102
}
100
AcDbDictionary
  3
STANDARD
350
1C
  0
MLINESTYLE
  5
1C
102
{ACAD_REACTORS
330
1B
102
}
100
AcDbMlineStyle
  2
STANDARD
 70
     0
  3

 62
   256
 51
90.0
 52
90.0
 71
     2
 49
0.5
 62
   256
  6
BYLAYER
 49
-0.5
 62
   256
  6
BYLAYER
  0
ENDSEC
   0
EOF
